osu file format v14

[General]
AudioFilename: audio.mp3
AudioLeadIn: 0
PreviewTime: 140050
Countdown: 0
SampleSet: Drum
StackLeniency: 0.7
Mode: 0
LetterboxInBreaks: 0
WidescreenStoryboard: 1

[Editor]
Bookmarks: 91284
DistanceSpacing: 1.2
BeatDivisor: 4
GridSize: 4
TimelineZoom: 1.776

[Metadata]
Title:Cemetery Drive
TitleUnicode:Cemetery Drive
Artist:My Chemical Romance
ArtistUnicode:My Chemical Romance
Creator:aishiteiru-
Version:Collab Normal
Source:
Tags:mcr pop punk emo alternative rock english gerard way mikey frank iero ray toro three cheers for sweet revenge mirash coven florescence fackel myahkey myah godsenger blitzifyyy
BeatmapID:3844610
BeatmapSetID:1081808

[Difficulty]
HPDrainRate:3
CircleSize:4
OverallDifficulty:5
ApproachRate:6
SliderMultiplier:0.6
SliderTickRate:0.5

[Events]
//Background and Video events
0,0,"bg.jpg",0,0
//Break Periods
2,74932,81958
2,157691,164717
//Storyboard Layer 0 (Background)
//Storyboard Layer 1 (Fail)
//Storyboard Layer 2 (Pass)
//Storyboard Layer 3 (Foreground)
//Storyboard Layer 4 (Overlay)
//Storyboard Sound Samples

[TimingPoints]
250,258.620689655173,4,3,1,50,1,0
24560,-100,4,2,1,50,0,0
24689,-100,4,3,1,50,0,0
40077,-100,4,3,1,54,0,0
40594,-100,4,3,1,58,0,0
41112,-100,4,3,1,62,0,0
41629,-100,4,2,1,65,0,1
42922,-100,4,3,1,65,0,1
43181,-100,4,2,1,65,0,1
43309,-100,4,3,1,65,0,1
43568,-100,4,2,1,65,0,1
44991,-100,4,3,1,65,0,1
45250,-100,4,2,1,65,0,1
45379,-100,4,3,1,65,0,1
45637,-100,4,2,1,65,0,1
47060,-100,4,3,1,65,0,1
47318,-100,4,2,1,65,0,1
47448,-100,4,3,1,65,0,1
47706,-100,4,2,1,65,0,1
48224,-100,4,3,1,65,0,1
48353,-100,4,2,1,65,0,1
48482,-100,4,3,1,65,0,1
48612,-100,4,2,1,65,0,1
49517,-100,4,3,1,65,0,1
49905,-100,4,2,1,65,0,1
51198,-100,4,3,1,65,0,1
51456,-100,4,2,1,65,0,1
51586,-100,4,3,1,65,0,1
51844,-100,4,2,1,65,0,1
53267,-100,4,3,1,65,0,1
53525,-100,4,2,1,65,0,1
53655,-100,4,3,1,65,0,1
53913,-100,4,2,1,65,0,1
55336,-100,4,3,1,65,0,1
55594,-100,4,2,1,65,0,1
55724,-100,4,3,1,65,0,1
55982,-100,4,2,1,65,0,1
56500,-100,4,3,1,65,0,1
56629,-100,4,2,1,65,0,1
56758,-100,4,3,1,65,0,1
56887,-100,4,2,1,65,0,1
57017,-100,4,3,1,65,0,1
57146,-100,4,2,1,65,0,1
57793,-100,4,3,1,65,0,1
58181,-100,4,3,1,45,0,0
58698,-100,4,2,1,45,0,0
58827,-100,4,3,1,45,0,0
59732,-100,4,2,1,45,0,0
60250,-100,4,3,1,45,0,0
60767,-100,4,2,1,45,0,0
60896,-100,4,3,1,45,0,0
61801,-100,4,2,1,45,0,0
62060,-100,4,3,1,45,0,0
62836,-100,4,2,1,45,0,0
62965,-100,4,3,1,45,0,0
63870,-100,4,2,1,45,0,0
64387,-100,4,3,1,45,0,0
64905,-100,4,2,1,45,0,0
65034,-100,4,3,1,45,0,0
66974,-100,4,2,1,45,0,0
67103,-100,4,3,1,45,0,0
68008,-100,4,2,1,45,0,0
68267,-100,4,3,1,45,0,0
69043,-100,4,2,1,45,0,0
69172,-100,4,3,1,45,0,0
70077,-100,4,2,1,45,0,0
70594,-100,4,3,1,45,0,0
71112,-100,4,2,1,45,0,0
71241,-100,4,3,1,45,0,0
72146,-100,4,2,1,45,0,0
72405,-100,4,3,1,45,0,0
73181,-100,4,2,1,45,0,0
73310,-100,4,3,1,45,0,0
76543,-100,4,2,1,45,0,0
76801,-100,4,3,1,45,0,0
77060,-100,4,2,1,45,0,0
77318,-100,4,3,1,45,0,0
78612,-100,4,2,1,45,0,0
78870,-100,4,3,1,45,0,0
79129,-100,4,2,1,45,0,0
79387,-100,4,3,1,45,0,0
80681,-100,4,2,1,45,0,0
80939,-100,4,3,1,45,0,0
81198,-100,4,2,1,45,0,0
81456,-100,4,3,1,45,0,0
83267,-100,4,2,1,45,0,0
83525,-100,4,3,1,45,0,0
83655,-100,4,2,1,45,0,0
84560,-100,4,3,1,45,0,0
84818,-100,4,2,1,45,0,0
85077,-100,4,3,1,45,0,0
85336,-100,4,2,1,45,0,0
85594,-100,4,3,1,45,0,0
85724,-100,4,2,1,45,0,0
85982,-100,4,3,1,45,0,0
86112,-100,4,2,1,45,0,0
86629,-100,4,3,1,45,0,0
86887,-100,4,2,1,45,0,0
87146,-100,4,3,1,45,0,0
87405,-100,4,2,1,45,0,0
87663,-100,4,3,1,45,0,0
87793,-100,4,2,1,45,0,0
88051,-100,4,3,1,45,0,0
89732,-100,4,3,1,54,0,0
90250,-100,4,3,1,58,0,0
90767,-100,4,3,1,62,0,0
91284,-100,4,2,1,65,0,1
92577,-100,4,3,1,65,0,1
92836,-100,4,2,1,65,0,1
92965,-100,4,3,1,65,0,1
93224,-100,4,2,1,65,0,1
94646,-100,4,3,1,65,0,1
94905,-100,4,2,1,65,0,1
95034,-100,4,3,1,65,0,1
95293,-100,4,2,1,65,0,1
96715,-100,4,3,1,65,0,1
96974,-100,4,2,1,65,0,1
97103,-100,4,3,1,65,0,1
97362,-100,4,2,1,65,0,1
97879,-100,4,3,1,65,0,1
98008,-100,4,2,1,65,0,1
98137,-100,4,3,1,65,0,1
98267,-100,4,2,1,65,0,1
99172,-100,4,3,1,65,0,1
99560,-100,4,2,1,65,0,1
100853,-100,4,3,1,65,0,1
101112,-100,4,2,1,65,0,1
101241,-100,4,3,1,65,0,1
101500,-100,4,2,1,65,0,1
102922,-100,4,3,1,65,0,1
103181,-100,4,2,1,65,0,1
103310,-100,4,3,1,65,0,1
103568,-100,4,2,1,65,0,1
104991,-100,4,3,1,65,0,1
105250,-100,4,2,1,65,0,1
105379,-100,4,3,1,65,0,1
105637,-100,4,2,1,65,0,1
106155,-100,4,3,1,65,0,1
106284,-100,4,2,1,65,0,1
106413,-100,4,3,1,65,0,1
106543,-100,4,2,1,65,0,1
107836,-100,4,3,1,55,0,0
122836,-100,4,3,1,58,0,0
123353,-100,4,3,1,61,0,0
123870,-100,4,3,1,63,0,0
124387,-100,4,2,1,65,0,1
125681,-100,4,3,1,65,0,1
125939,-100,4,2,1,65,0,1
126068,-100,4,3,1,65,0,1
126327,-100,4,2,1,65,0,1
127750,-100,4,3,1,65,0,1
128008,-100,4,2,1,65,0,1
128137,-100,4,3,1,65,0,1
128396,-100,4,2,1,65,0,1
129818,-100,4,3,1,65,0,1
130077,-100,4,2,1,65,0,1
130206,-100,4,3,1,65,0,1
130465,-100,4,2,1,65,0,1
130982,-100,4,3,1,65,0,1
131112,-100,4,2,1,65,0,1
131241,-100,4,3,1,65,0,1
131370,-100,4,2,1,65,0,1
133956,-100,4,3,1,65,0,1
134215,-100,4,2,1,65,0,1
134344,-100,4,3,1,65,0,1
134603,-100,4,2,1,65,0,1
136025,-100,4,3,1,65,0,1
136284,-100,4,2,1,65,0,1
136413,-100,4,3,1,65,0,1
136672,-100,4,2,1,65,0,1
138094,-100,4,3,1,65,0,1
138353,-100,4,2,1,65,0,1
138482,-100,4,3,1,65,0,1
138741,-100,4,2,1,65,0,1
139258,-100,4,3,1,65,0,1
139387,-100,4,2,1,65,0,1
139517,-100,4,3,1,65,0,1
139646,-100,4,2,1,65,0,1
140810,-100,4,2,1,65,0,0
140939,-100,4,2,1,65,0,1
152577,-100,4,3,1,65,0,1
152836,-100,4,2,1,65,0,1
152965,-100,4,3,1,65,0,1
153224,-100,4,2,1,65,0,1
154646,-100,4,3,1,65,0,1
154905,-100,4,2,1,65,0,1
155034,-100,4,3,1,65,0,1
155293,-100,4,2,1,65,0,1
156715,-100,4,3,1,65,0,1
156974,-100,4,2,1,65,0,1
157103,-100,4,3,1,65,0,1
157362,-100,4,2,1,65,0,1
157491,-100,4,2,1,45,0,0
157620,-100,4,3,1,45,0,0
159560,-100,4,2,1,45,0,0
159689,-100,4,3,1,45,0,0
161629,-100,4,2,1,45,0,0
161758,-100,4,3,1,45,0,0
163698,-100,4,2,1,45,0,0
163827,-100,4,3,1,45,0,0
182318,-100,4,2,1,45,0,0
182448,-100,4,3,1,5,0,0
185163,-100,4,2,1,15,0,0

[Colours]
Combo1 : 251,222,191
Combo2 : 48,84,116
Combo3 : 212,171,172
Combo4 : 136,55,71

[HitObjects]
0,77,8525,6,0,P|98:61|247:48,1,240,8|8,0:0|0:0,0:0:0:0:
354,132,10077,1,0,0:0:0:0:
405,81,10336,1,0,0:0:0:0:
467,116,10594,6,0,P|457:161|448:243,1,120,8|0,0:0|0:0,0:0:0:0:
348,337,11629,1,8,0:0:0:0:
208,370,12146,1,8,0:0:0:0:
223,299,12405,1,0,0:0:0:0:
239,229,12663,6,0,P|173:202|31:272,1,240,8|8,0:0|0:0,0:0:0:0:
51,129,14215,1,0,0:0:0:0:
95,73,14474,1,0,0:0:0:0:
158,106,14732,6,0,P|227:97|422:83,1,240,8|8,0:0|0:0,0:0:0:0:
311,200,16284,2,0,P|337:196|379:189,1,60,8|0,0:0|0:0,0:0:0:0:
435,160,16801,6,0,P|475:183|464:368,1,240,8|8,0:0|0:0,0:0:0:0:
343,310,18353,1,0,0:0:0:0:
287,264,18612,1,0,0:0:0:0:
220,291,18870,6,0,B|208:190|208:190|225:159|225:159|210:54,1,240,8|8,0:0|0:0,0:0:0:0:
74,8,20422,1,8,0:0:0:0:
26,62,20681,1,0,0:0:0:0:
84,103,20939,6,0,P|94:202|108:362,1,240,8|8,0:0|0:0,0:0:0:0:
250,333,22491,1,0,0:0:0:0:
304,285,22750,1,0,0:0:0:0:
361,328,23008,6,0,P|429:318|475:160,1,240,8|12,0:0|0:0,0:0:0:0:
338,154,24560,2,0,P|351:106|358:78,1,60,8|0,0:0|0:0,0:0:0:0:
364,24,25077,6,0,P|436:31|470:190,1,240
447,312,26629,2,0,P|419:317|379:322,1,60
322,352,27146,6,0,P|253:341|196:329,1,120,8|8,0:0|0:0,0:0:0:0:
223,187,28181,2,0,P|173:195|100:211,1,120
68,271,28956,1,0,0:0:0:0:
1,243,29215,6,0,P|23:129|47:-11,1,240,8|0,0:0|0:0,0:0:0:0:
162,90,30767,2,0,P|211:98|240:101,1,60
263,37,31284,6,0,P|278:34|324:25,2,60,8|0|0,0:0|0:0|0:0,0:0:0:0:
221,99,32060,2,0,P|225:138|229:165,2,60
149,105,32836,1,0,0:0:0:0:
156,252,33353,6,0,P|171:315|341:333,1,240,8|8,0:0|0:0,0:0:0:0:
452,285,34905,1,0,0:0:0:0:
413,226,35163,1,0,0:0:0:0:
465,176,35422,6,0,P|478:118|497:52,1,120,8|0,0:0|0:0,0:0:0:0:
357,14,36456,2,0,P|291:33|222:51,1,120,8|0,0:0|0:0,0:0:0:0:
199,105,37232,1,0,0:0:0:0:
141,61,37491,6,0,P|86:52|14:38,1,120,8|0,0:0|0:0,0:0:0:0:
4,109,38267,2,0,P|17:184|27:240,1,120
90,257,39043,2,0,P|135:246|168:238,1,60
192,185,39560,6,0,P|234:207|264:222,1,60,14|12,0:0|0:0,0:0:0:0:
317,218,40077,2,0,P|353:192|377:174,1,60,2|8,0:0|0:0,0:0:0:0:
371,110,40594,2,0,P|366:81|359:45,1,60,2|8,0:0|0:0,0:0:0:0:
294,19,41112,2,0,P|261:19|224:21,1,60,2|8,0:0|0:0,0:0:0:0:
190,77,41629,6,0,P|180:131|168:200,1,120,12|0,0:0|0:0,0:0:0:0:
164,267,42405,1,8,0:0:0:0:
217,315,42663,1,0,0:0:0:0:
164,364,42922,1,0,0:0:0:0:
99,332,43181,2,0,P|61:320|33:308,1,60,8|0,0:0|0:0,0:0:0:0:
16,244,43698,6,0,P|22:206|31:163,1,60,12|2,0:0|0:0,0:0:0:0:
84,142,44215,2,0,P|79:117|70:73,1,60,0|8,0:0|0:0,0:0:0:0:
119,28,44732,2,0,P|203:56|299:84,1,180
354,115,45767,6,0,P|432:130|487:137,2,120,12|0|0,0:0|0:0|0:0,0:0:0:0:
291,79,47060,1,0,0:0:0:0:
220,94,47318,1,8,0:0:0:0:
210,165,47577,1,0,0:0:0:0:
261,215,47836,6,0,P|296:209|333:201,1,60,12|2,0:0|0:0,0:0:0:0:
339,134,48353,1,8,0:0:0:0:
409,148,48612,2,0,P|442:187|447:267,1,120,12|8,0:0|0:0,0:0:0:0:
403,307,49387,2,0,P|365:317|328:321,1,60,8|0,0:0|0:0,0:0:0:0:
272,330,49905,6,0,P|205:317|151:304,1,120,12|0,0:0|0:0,0:0:0:0:
84,321,50681,1,8,0:0:0:0:
29,274,50939,1,0,0:0:0:0:
51,205,51198,1,0,0:0:0:0:
115,174,51456,2,0,P|103:124|97:93,1,60,8|0,0:0|0:0,0:0:0:0:
50,64,51974,6,0,P|82:21|160:11,1,120,12|0,0:0|0:0,0:0:0:0:
198,54,52750,2,0,P|261:40|328:27,1,120,8|0,0:0|0:0,0:0:0:0:
374,70,53525,1,8,0:0:0:0:
328,126,53784,1,0,0:0:0:0:
387,166,54043,6,0,P|407:253|414:303,1,120,12|0,0:0|0:0,0:0:0:0:
398,354,54818,2,0,P|352:342|276:321,1,120,8|0,0:0|0:0,0:0:0:0:
233,269,55594,2,0,P|208:274|172:284,1,60,8|0,0:0|0:0,0:0:0:0:
108,255,56112,5,12,0:0:0:0:
73,192,56370,1,2,0:0:0:0:
97,124,56629,1,8,0:0:0:0:
163,97,56887,1,12,0:0:0:0:
231,118,57146,6,0,P|237:142|248:183,1,60,2|8,0:0|0:0,0:0:0:0:
265,245,57663,2,0,P|271:269|282:307,1,60,8|0,0:0|0:0,0:0:0:0:
309,369,58181,6,0,P|378:359|433:207,1,240
374,86,59732,2,0,P|409:95|446:103,1,60,8|8,0:0|0:0,0:0:0:0:
475,41,60250,6,0,P|483:98|491:165,2,120,0|8|0,0:0|0:0|0:0,0:0:0:0:
332,21,61801,1,8,0:0:0:0:
281,72,62060,1,0,0:0:0:0:
218,35,62318,6,0,P|133:26|86:20,1,120,0|8,0:0|0:0,0:0:0:0:
34,55,63094,1,0,0:0:0:0:
20,125,63353,2,0,P|26:177|33:269,1,120,0|8,0:0|0:0,0:0:0:0:
75,301,64129,1,8,0:0:0:0:
148,306,64387,6,0,P|213:321|275:336,1,120,0|8,0:0|0:0,0:0:0:0:
309,276,65163,1,0,0:0:0:0:
377,299,65422,2,0,P|418:291|446:286,1,60,8|0,0:0|0:0,0:0:0:0:
464,221,65939,2,0,P|440:213|403:203,1,60,8|0,0:0|0:0,0:0:0:0:
334,211,66456,6,0,P|339:163|347:79,1,120,0|8,0:0|0:0,0:0:0:0:
290,45,67232,1,0,0:0:0:0:
220,64,67491,2,0,P|225:88|234:126,1,60
193,182,68008,2,0,P|166:177|111:167,1,60,8|0,0:0|0:0,0:0:0:0:
76,127,68525,6,0,P|89:64|100:5,2,120,0|8|0,0:0|0:0|0:0,0:0:0:0:
56,196,69818,1,0,0:0:0:0:
49,267,70077,1,8,0:0:0:0:
92,324,70336,1,8,0:0:0:0:
162,338,70594,6,0,P|211:329|285:318,1,120,0|8,0:0|0:0,0:0:0:0:
391,226,71629,2,0,P|368:221|329:216,1,60
261,230,72146,2,0,P|228:241|194:248,1,60,8|8,0:0|0:0,0:0:0:0:
133,229,72663,6,0,P|143:168|156:97,2,120,0|8|8,0:0|0:0|0:0,0:0:0:0:
231,334,74215,2,0,P|268:324|296:315,1,60,8|0,0:0|0:0,0:0:0:0:
354,347,74732,5,0,0:0:0:0:
507,310,83008,6,0,P|480:325|440:349,1,60,0|8,0:0|0:0,0:0:0:0:
384,356,83525,2,0,P|344:341|269:313,1,120,0|8,0:0|0:0,0:0:0:0:
143,246,84560,2,0,P|115:252|66:262,1,60,0|8,0:0|0:0,0:0:0:0:
23,219,85077,6,0,P|33:160|42:96,2,120,0|0|8,0:0|0:0|0:0,0:0:0:0:
108,335,86629,2,0,P|146:343|179:349,1,60,0|8,0:0|0:0,0:0:0:0:
238,355,87146,6,0,P|336:341|491:323,1,240
452,182,88698,2,0,P|435:122|416:49,1,120,0|14,0:0|0:0,0:0:0:0:
358,29,89474,1,12,0:0:0:0:
317,88,89732,2,0,P|282:99|250:109,1,60,2|8,0:0|0:0,0:0:0:0:
197,69,90250,1,2,0:0:0:0:
125,63,90508,1,8,0:0:0:0:
77,117,90767,1,2,0:0:0:0:
98,185,91025,1,8,0:0:0:0:
164,213,91284,6,0,P|150:242|139:346,1,120,12|0,0:0|0:0,0:0:0:0:
207,343,92060,2,0,L|279:330,1,60,8|0,0:0|0:0,0:0:0:0:
321,286,92577,1,0,0:0:0:0:
387,314,92836,2,0,P|393:290|384:254,1,60,8|0,0:0|0:0,0:0:0:0:
347,194,93353,2,0,B|223:214|347:197|222:219,1,120,12|0,0:0|0:0,0:0:0:0:
188,277,94129,2,0,L|129:264,1,60,8|0,0:0|0:0,0:0:0:0:
87,205,94646,1,0,0:0:0:0:
108,136,94905,1,8,0:0:0:0:
177,117,95163,1,0,0:0:0:0:
236,157,95422,6,0,B|269:150|283:124|283:124|307:152|344:147,1,120,12|0,0:0|0:0,0:0:0:0:
403,172,96198,2,0,B|422:119|422:119|394:55,1,120,8|0,0:0|0:0,0:0:0:0:
331,29,96974,1,8,0:0:0:0:
277,76,97232,1,0,0:0:0:0:
204,79,97491,2,0,P|178:41|189:-11,2,90,12|0|12,0:0|0:0|0:0,0:0:0:0:
333,142,98784,1,8,0:0:0:0:
388,187,99043,2,0,P|389:216|373:246,1,60,8|0,0:0|0:0,0:0:0:0:
312,278,99560,6,0,L|190:252,1,120,12|0,0:0|0:0,0:0:0:0:
148,197,100336,2,0,L|86:215,1,60,8|0,0:0|0:0,0:0:0:0:
33,258,100853,1,0,0:0:0:0:
77,319,101112,2,0,L|156:342,1,60,8|0,0:0|0:0,0:0:0:0:
202,312,101629,2,0,B|231:299|231:299|323:318,1,120,12|0,0:0|0:0,0:0:0:0:
374,360,102405,1,8,0:0:0:0:
440,331,102663,2,0,P|444:302|436:263,1,60
393,215,103181,2,0,P|388:186|397:148,1,60,8|0,0:0|0:0,0:0:0:0:
431,94,103698,6,0,L|294:58,1,120,12|0,0:0|0:0,0:0:0:0:
243,74,104474,1,8,0:0:0:0:
175,48,104732,2,0,P|141:93|151:161,1,120,0|8,0:0|0:0,0:0:0:0:
195,206,105508,1,0,0:0:0:0:
264,186,105767,2,0,B|351:185|260:189|353:189,2,90,12|0|12,0:0|0:0|0:0,0:0:0:0:
120,173,107060,1,8,0:0:0:0:
102,242,107318,1,8,0:0:0:0:
141,301,107577,1,8,0:0:0:0:
204,335,107836,6,0,P|309:306|341:236,1,180,2|0,0:0|0:0,0:0:0:0:
343,176,108870,2,0,L|332:100,1,60
299,53,109387,2,0,P|273:37|226:36,1,60,2|0,0:0|0:0,0:0:0:0:
190,81,109905,2,0,B|157:94|131:77|138:71|108:51|72:77,1,120,2|2,0:0|0:0,0:0:0:0:
44,214,110939,2,0,L|56:284,1,60
112,315,111456,2,0,L|171:312,1,60,2|0,0:0|0:0,0:0:0:0:
232,272,111974,6,0,B|256:218|256:218|227:155,1,120,2|2,0:0|0:0,0:0:0:0:
125,64,113008,2,0,L|259:28,1,120,0|2,0:0|0:0,0:0:0:0:
310,53,113784,1,2,0:0:0:0:
379,33,114043,2,0,P|437:33|476:95,1,120,2|2,0:0|0:0,0:0:0:0:
352,155,115077,2,0,P|337:176|340:222,1,60
387,258,115594,1,10,0:0:0:0:
363,326,115853,1,10,0:0:0:0:
304,368,116112,6,0,P|251:370|188:326,1,120,2|2,0:0|0:0,0:0:0:0:
101,226,117146,2,0,B|129:218|129:218|164:228,1,60
234,205,117663,2,0,L|228:272,1,60,2|0,0:0|0:0,0:0:0:0:
254,332,118181,1,2,0:0:0:0:
321,356,118439,1,0,0:0:0:0:
388,330,118698,2,0,L|403:200,1,120,2|0,0:0|0:0,0:0:0:0:
320,92,119732,2,0,P|282:97|247:124,1,60,2|0,0:0|0:0,0:0:0:0:
227,170,120250,6,0,P|219:204|270:274,1,120,14|14,0:2|0:2,0:0:0:0:
334,278,121025,1,0,0:0:0:0:
390,232,121284,2,0,B|417:223|417:223|452:231,1,60,14|0,0:2|0:0,0:0:0:0:
498,280,121801,1,14,0:2:0:0:
441,147,122318,2,0,L|432:79,1,60,14|12,0:0|0:0,0:0:0:0:
375,43,122836,2,0,L|310:50,1,60,14|12,0:0|0:0,0:0:0:0:
243,58,123353,1,14,0:0:0:0:
181,96,123612,1,12,0:0:0:0:
162,165,123870,1,14,0:0:0:0:
196,228,124129,1,12,0:0:0:0:
262,254,124387,6,0,P|334:253|373:209,1,120,12|0,0:0|0:0,0:0:0:0:
379,151,125163,2,0,P|374:124|345:93,1,60,8|0,0:0|0:0,0:0:0:0:
284,79,125680,1,0,0:0:0:0:
229,126,125939,2,0,L|225:198,1,60,8|0,0:0|0:0,0:0:0:0:
276,237,126456,2,0,B|344:219|334:258|412:236,1,120,12|0,0:0|0:0,0:0:0:0:
445,190,127232,2,8,P|444:160|424:127,1,60,8|0,0:0|0:0,0:0:0:0:
360,116,127749,1,0,0:0:0:0:
295,147,128008,1,8,0:0:0:0:
228,120,128266,1,0,0:0:0:0:
191,57,128525,6,0,B|47:39|191:59|47:41,1,120,12|0,0:0|0:0,0:0:0:0:
12,85,129301,2,8,B|-5:144|-5:144|14:210,1,120,8|0,0:0|0:0,0:0:0:0:
57,255,130077,1,8,0:0:0:0:
125,232,130335,1,0,0:0:0:0:
181,276,130594,2,0,L|292:263,2,90,12|0|12,0:0|0:0|0:0,0:0:0:0:
304,351,131887,1,8,0:0:0:0:
373,369,132146,2,0,P|403:359|423:335,1,60,8|8,0:0|0:0,0:0:0:0:
462,279,132663,6,0,L|444:146,1,120,12|0,0:0|0:0,0:0:0:0:
478,95,133439,2,8,L|468:14,1,60,8|0,0:0|0:0,0:0:0:0:
400,17,133956,1,0,0:0:0:0:
332,41,134215,2,0,P|318:55|314:104,1,60,8|0,0:0|0:0,0:0:0:0:
336,160,134732,6,0,B|308:182|263:177|263:177|243:154|207:157,1,120,12|0,0:0|0:0,0:0:0:0:
158,130,135508,1,8,0:0:0:0:
97,169,135766,2,0,L|111:251,1,60
148,287,136284,2,0,L|207:280,1,60,8|0,0:0|0:0,0:0:0:0:
276,301,136801,6,0,B|332:318|332:318|395:282,1,120,12|0,0:0|0:0,0:0:0:0:
433,233,137577,1,8,0:0:0:0:
371,196,137835,2,0,B|315:177|315:177|261:210,1,120,0|8,0:0|0:0,0:0:0:0:
191,201,138611,1,0,0:0:0:0:
132,243,138870,2,0,B|133:337|136:245|139:337,2,90,12|0|12,0:0|0:0|0:0,0:0:0:0:
77,109,140163,1,8,0:0:0:0:
127,57,140421,1,8,0:0:0:0:
199,58,140680,1,8,0:0:0:0:
257,99,140939,6,0,P|269:149|237:218,1,120,14|0,0:0|0:0,0:0:0:0:
190,259,141715,2,0,L|125:267,1,60,14|0,0:0|0:0,0:0:0:0:
62,242,142232,1,8,0:0:0:0:
9,192,142491,2,0,P|0:169|11:121,1,60,8|8,0:0|0:0,0:0:0:0:
57,86,143008,2,0,B|199:113,1,120,14|0,0:0|0:0,0:0:0:0:
226,158,143784,2,0,L|310:140,1,60,14|0,0:0|0:0,0:0:0:0:
356,142,144301,1,8,0:0:0:0:
412,186,144560,1,8,0:0:0:0:
411,257,144818,1,8,0:0:0:0:
358,306,145077,6,0,P|302:304|241:263,1,120,14|0,0:0|0:0,0:0:0:0:
212,208,145853,2,0,B|160:181|160:181|81:210,1,120,14|8,0:0|0:0,0:0:0:0:
50,252,146629,1,8,0:0:0:0:
50,323,146887,1,8,0:0:0:0:
116,351,147146,2,0,L|218:343,2,90,14|14|14,0:0|0:0|0:0,0:0:0:0:
17,245,148439,1,8,0:0:0:0:
30,174,148698,1,8,0:0:0:0:
48,104,148956,1,8,0:0:0:0:
69,35,149215,6,0,P|117:31|182:87,1,120,14|0,0:0|0:0,0:0:0:0:
208,134,149991,2,0,P|218:163|201:212,1,60,14|0,0:0|0:0,0:0:0:0:
156,234,150508,1,8,0:0:0:0:
118,295,150767,1,8,0:0:0:0:
161,352,151025,1,8,0:0:0:0:
231,338,151284,6,0,L|366:324,1,120,12|0,0:0|0:0,0:0:0:0:
419,303,152060,1,8,0:0:0:0:
446,236,152318,2,0,P|448:206|414:165,1,60
376,136,152836,2,0,L|297:147,1,60,8|0,0:0|0:0,0:0:0:0:
252,112,153353,6,0,B|124:121|252:107|124:117,1,120,12|0,0:0|0:0,0:0:0:0:
67,86,154129,1,8,0:0:0:0:
20,140,154387,2,0,B|6:197|6:197|34:259,1,120,0|8,0:0|0:0,0:0:0:0:
93,290,155163,1,0,0:0:0:0:
153,250,155422,2,0,B|245:245|153:247|243:241,2,90,12|8|8,0:0|0:0|0:0,0:0:0:0:
59,359,156715,2,0,L|-11:364,2,60,0|8|0,0:0|0:0|0:0,0:0:0:0:
122,325,157491,5,8,0:0:0:0:
47,107,165767,6,0,P|97:98|293:65,1,240,8|8,0:0|0:0,0:0:0:0:
418,15,167318,1,0,0:0:0:0:
489,140,167836,6,0,P|473:235|351:295,1,240,8|8,0:0|0:0,0:0:0:0:
250,194,169387,1,0,0:0:0:0:
154,301,169905,6,0,P|132:148|119:52,1,240,8|8,0:0|0:0,0:0:0:0:
262,86,171456,1,0,0:0:0:0:
391,23,171974,6,0,P|376:137|360:270,1,240,8|8,0:0|0:0,0:0:0:0:
246,348,173525,1,8,0:0:0:0:
120,277,174043,6,0,P|117:225|102:150,1,120
57,22,175077,2,0,P|151:33|186:37,1,120
281,134,176112,6,0,P|381:120|412:115,1,120
497,223,177146,2,0,P|489:276|479:347,1,120
337,363,178181,6,0,B|302:353|302:353|282:323|282:323|228:308,1,120
104,252,179215,2,0,B|144:239|144:239|164:209|164:209|205:200,1,120
320,113,180250,6,0,P|290:56|237:42,1,120
148,152,181284,2,0,P|144:239|142:281,2,120,0|0|8,0:0|0:0|0:0,0:0:0:0:
