osu file format v14

[General]
AudioFilename: audio.mp3
AudioLeadIn: 0
PreviewTime: 140050
Countdown: 0
SampleSet: Drum
StackLeniency: 0.7
Mode: 0
LetterboxInBreaks: 0
WidescreenStoryboard: 1

[Editor]
Bookmarks: 41645,58197,74732,91300,107852,124403,157507,165767,174043,182318
DistanceSpacing: 0.3
BeatDivisor: 4
GridSize: 4
TimelineZoom: 1.776

[Metadata]
Title:Cemetery Drive
TitleUnicode:Cemetery Drive
Artist:My Chemical Romance
ArtistUnicode:My Chemical Romance
Creator:aishiteiru-
Version:Collab Hard
Source:
Tags:mcr pop punk emo alternative rock english gerard way mikey frank iero ray toro three cheers for sweet revenge mirash coven florescence fackel myahkey myah godsenger blitzifyyy
BeatmapID:3812249
BeatmapSetID:1081808

[Difficulty]
HPDrainRate:4
CircleSize:4.2
OverallDifficulty:6
ApproachRate:8
SliderMultiplier:1.1
SliderTickRate:0.5

[Events]
//Background and Video events
0,0,"bg.jpg",0,0
//Break Periods
2,157691,165017
//Storyboard Layer 0 (Background)
//Storyboard Layer 1 (Fail)
//Storyboard Layer 2 (Pass)
//Storyboard Layer 3 (Foreground)
//Storyboard Layer 4 (Overlay)
//Storyboard Sound Samples

[TimingPoints]
250,258.620689655173,4,3,1,50,1,0
8008,-133.333333333333,4,3,1,50,0,0
24560,-133.333333333333,4,2,1,50,0,0
24689,-133.333333333333,4,3,1,50,0,0
39560,-100,4,3,1,50,0,0
40077,-83.3333333333333,4,3,1,54,0,0
40594,-71.4285714285714,4,3,1,58,0,0
41112,-71.4285714285714,4,3,1,62,0,0
41629,-80,4,2,1,65,0,1
42922,-80,4,3,1,65,0,1
43181,-80,4,2,1,65,0,1
43309,-80,4,3,1,65,0,1
43568,-80,4,2,1,65,0,1
44991,-80,4,3,1,65,0,1
45250,-80,4,2,1,65,0,1
45379,-80,4,3,1,65,0,1
45637,-80,4,2,1,65,0,1
47060,-80,4,3,1,65,0,1
47318,-80,4,2,1,65,0,1
47448,-80,4,3,1,65,0,1
47706,-80,4,2,1,65,0,1
48224,-80,4,3,1,65,0,1
48353,-80,4,2,1,65,0,1
48482,-80,4,3,1,65,0,1
48612,-80,4,2,1,65,0,1
49517,-80,4,3,1,65,0,1
49905,-80,4,2,1,65,0,1
51198,-80,4,3,1,65,0,1
51456,-80,4,2,1,65,0,1
51586,-80,4,3,1,65,0,1
51844,-80,4,2,1,65,0,1
53267,-80,4,3,1,65,0,1
53525,-80,4,2,1,65,0,1
53655,-80,4,3,1,65,0,1
53913,-80,4,2,1,65,0,1
55336,-80,4,3,1,65,0,1
55594,-80,4,2,1,65,0,1
55724,-80,4,3,1,65,0,1
55982,-80,4,2,1,65,0,1
56500,-80,4,3,1,65,0,1
56629,-80,4,2,1,65,0,1
56758,-80,4,3,1,65,0,1
56887,-80,4,2,1,65,0,1
57017,-80,4,3,1,65,0,1
57146,-80,4,2,1,65,0,1
57793,-80,4,3,1,65,0,1
58181,-133.333333333333,4,3,1,45,0,0
58698,-133.333333333333,4,2,1,45,0,0
58827,-133.333333333333,4,3,1,45,0,0
59732,-133.333333333333,4,2,1,45,0,0
60250,-133.333333333333,4,3,1,45,0,0
60767,-133.333333333333,4,2,1,45,0,0
60896,-133.333333333333,4,3,1,45,0,0
61801,-133.333333333333,4,2,1,45,0,0
62060,-133.333333333333,4,3,1,45,0,0
62836,-133.333333333333,4,2,1,45,0,0
62965,-133.333333333333,4,3,1,45,0,0
63870,-133.333333333333,4,2,1,45,0,0
64387,-133.333333333333,4,3,1,45,0,0
64905,-133.333333333333,4,2,1,45,0,0
65034,-133.333333333333,4,3,1,45,0,0
66974,-133.333333333333,4,2,1,45,0,0
67103,-133.333333333333,4,3,1,45,0,0
68008,-133.333333333333,4,2,1,45,0,0
68267,-133.333333333333,4,3,1,45,0,0
69043,-133.333333333333,4,2,1,45,0,0
69172,-133.333333333333,4,3,1,45,0,0
70077,-133.333333333333,4,2,1,45,0,0
70594,-133.333333333333,4,3,1,45,0,0
71112,-133.333333333333,4,2,1,45,0,0
71241,-133.333333333333,4,3,1,45,0,0
72146,-133.333333333333,4,2,1,45,0,0
72405,-133.333333333333,4,3,1,45,0,0
73181,-133.333333333333,4,2,1,45,0,0
73310,-133.333333333333,4,3,1,45,0,0
76543,-133.333333333333,4,2,1,45,0,0
76801,-133.333333333333,4,3,1,45,0,0
77060,-133.333333333333,4,2,1,45,0,0
77318,-133.333333333333,4,3,1,45,0,0
78612,-133.333333333333,4,2,1,45,0,0
78870,-133.333333333333,4,3,1,45,0,0
79129,-133.333333333333,4,2,1,45,0,0
79387,-133.333333333333,4,3,1,45,0,0
80681,-133.333333333333,4,2,1,45,0,0
80939,-133.333333333333,4,3,1,45,0,0
81198,-133.333333333333,4,2,1,45,0,0
81456,-133.333333333333,4,3,1,45,0,0
83267,-133.333333333333,4,2,1,45,0,0
83525,-133.333333333333,4,3,1,45,0,0
83655,-133.333333333333,4,2,1,45,0,0
84560,-133.333333333333,4,3,1,45,0,0
84818,-133.333333333333,4,2,1,45,0,0
85077,-133.333333333333,4,3,1,45,0,0
85336,-133.333333333333,4,2,1,45,0,0
85594,-133.333333333333,4,3,1,45,0,0
85724,-133.333333333333,4,2,1,45,0,0
85982,-133.333333333333,4,3,1,45,0,0
86112,-133.333333333333,4,2,1,45,0,0
86629,-133.333333333333,4,3,1,45,0,0
86887,-133.333333333333,4,2,1,45,0,0
87146,-133.333333333333,4,3,1,45,0,0
87405,-133.333333333333,4,2,1,45,0,0
87663,-133.333333333333,4,3,1,45,0,0
87793,-133.333333333333,4,2,1,45,0,0
88051,-133.333333333333,4,3,1,45,0,0
89215,-100,4,3,1,45,0,0
89732,-83.3333333333333,4,3,1,54,0,0
90250,-71.4285714285714,4,3,1,58,0,0
90767,-71.4285714285714,4,3,1,62,0,0
91284,-80,4,2,1,65,0,1
92577,-80,4,3,1,65,0,1
92836,-80,4,2,1,65,0,1
92965,-80,4,3,1,65,0,1
93224,-80,4,2,1,65,0,1
94646,-80,4,3,1,65,0,1
94905,-80,4,2,1,65,0,1
95034,-80,4,3,1,65,0,1
95293,-80,4,2,1,65,0,1
96715,-80,4,3,1,65,0,1
96974,-80,4,2,1,65,0,1
97103,-80,4,3,1,65,0,1
97362,-80,4,2,1,65,0,1
97879,-80,4,3,1,65,0,1
98008,-80,4,2,1,65,0,1
98137,-80,4,3,1,65,0,1
98267,-80,4,2,1,65,0,1
99172,-80,4,3,1,65,0,1
99560,-80,4,2,1,65,0,1
100853,-80,4,3,1,65,0,1
101112,-80,4,2,1,65,0,1
101241,-80,4,3,1,65,0,1
101500,-80,4,2,1,65,0,1
102922,-80,4,3,1,65,0,1
103181,-80,4,2,1,65,0,1
103310,-80,4,3,1,65,0,1
103568,-80,4,2,1,65,0,1
104991,-80,4,3,1,65,0,1
105250,-80,4,2,1,65,0,1
105379,-80,4,3,1,65,0,1
105637,-80,4,2,1,65,0,1
106155,-80,4,3,1,65,0,1
106284,-80,4,2,1,65,0,1
106413,-80,4,3,1,65,0,1
106543,-80,4,2,1,65,0,1
107836,-100,4,3,1,55,0,0
122836,-100,4,3,1,58,0,0
123353,-100,4,3,1,61,0,0
123870,-100,4,3,1,63,0,0
124387,-80,4,2,1,65,0,1
125681,-80,4,3,1,65,0,1
125939,-80,4,2,1,65,0,1
126068,-80,4,3,1,65,0,1
126327,-80,4,2,1,65,0,1
127750,-80,4,3,1,65,0,1
128008,-80,4,2,1,65,0,1
128137,-80,4,3,1,65,0,1
128396,-80,4,2,1,65,0,1
129818,-80,4,3,1,65,0,1
130077,-80,4,2,1,65,0,1
130206,-80,4,3,1,65,0,1
130465,-80,4,2,1,65,0,1
130982,-80,4,3,1,65,0,1
131112,-80,4,2,1,65,0,1
131241,-80,4,3,1,65,0,1
131370,-80,4,2,1,65,0,1
133956,-80,4,3,1,65,0,1
134215,-80,4,2,1,65,0,1
134344,-80,4,3,1,65,0,1
134603,-80,4,2,1,65,0,1
136025,-80,4,3,1,65,0,1
136284,-80,4,2,1,65,0,1
136413,-80,4,3,1,65,0,1
136672,-80,4,2,1,65,0,1
138094,-80,4,3,1,65,0,1
138353,-80,4,2,1,65,0,1
138482,-80,4,3,1,65,0,1
138741,-80,4,2,1,65,0,1
139258,-80,4,3,1,65,0,1
139387,-80,4,2,1,65,0,1
139517,-80,4,3,1,65,0,1
139646,-80,4,2,1,65,0,1
140810,-80,4,2,1,65,0,0
140939,-80,4,2,1,65,0,1
152577,-80,4,3,1,65,0,1
152836,-80,4,2,1,65,0,1
152965,-80,4,3,1,65,0,1
153224,-80,4,2,1,65,0,1
154646,-80,4,3,1,65,0,1
154905,-80,4,2,1,65,0,1
155034,-80,4,3,1,65,0,1
155293,-80,4,2,1,65,0,1
156715,-80,4,3,1,65,0,1
156974,-80,4,2,1,65,0,1
157103,-80,4,3,1,65,0,1
157362,-80,4,2,1,65,0,1
157491,-133.333333333333,4,2,1,45,0,0
157620,-133.333333333333,4,3,1,45,0,0
159560,-133.333333333333,4,2,1,45,0,0
159689,-133.333333333333,4,3,1,45,0,0
161629,-133.333333333333,4,2,1,45,0,0
161758,-133.333333333333,4,3,1,45,0,0
163698,-133.333333333333,4,2,1,45,0,0
163827,-133.333333333333,4,3,1,45,0,0
173525,-399.999999999997,4,3,1,45,0,0
174043,-200,4,3,1,45,0,0
182318,-200,4,2,1,45,0,0
182448,-200,4,3,1,5,0,0
185163,-200,4,2,1,15,0,0
185228,-200,4,2,1,5,0,0

[Colours]
Combo1 : 251,222,191
Combo2 : 48,84,116
Combo3 : 212,171,172
Combo4 : 136,55,71

[HitObjects]
69,266,8008,5,8,0:0:0:0:
69,266,8525,2,0,P|150:255|251:250,2,165.000006294251,8|0|8,0:0|0:0|0:0,0:0:0:0:
197,369,10077,1,0,0:0:0:0:
278,340,10336,1,0,0:0:0:0:
278,340,10465,1,0,0:0:0:0:
278,340,10594,6,0,P|354:304|451:274,1,165.000006294251,8|0,0:0|0:0,0:0:0:0:
427,114,11629,1,8,0:0:0:0:
427,114,12146,2,0,P|418:146|413:224,1,82.5000031471254,8|0,0:0|0:0,0:0:0:0:
336,226,12663,6,0,P|327:167|319:141,1,82.5000031471254,8|0,0:0|0:0,0:0:0:0:
275,75,13181,1,0,0:0:0:0:
275,75,13310,1,0,0:0:0:0:
275,75,13439,2,0,P|232:69|166:67,1,82.5000031471254,0|8,0:0|0:0,0:0:0:0:
123,112,13956,2,0,P|84:88|18:80,1,82.5000031471254
51,163,14474,2,0,P|60:204|58:261,1,82.5000031471254,0|8,0:0|0:0,0:0:0:0:
141,257,14991,6,0,P|132:298|134:355,1,82.5000031471254
232,335,15508,2,0,P|231:293|222:253,1,82.5000031471254,0|8,0:0|0:0,0:0:0:0:
177,184,16025,2,0,P|217:167|291:154,1,82.5000031471254,0|8,0:0|0:0,0:0:0:0:
255,158,16413,1,12,0:0:0:0:
338,249,16801,6,0,P|344:305|365:357,2,82.5000031471254,8|0|0,0:0|0:0|0:0,0:0:0:0:
338,249,17448,1,0,0:0:0:0:
460,268,17836,2,0,P|467:180|494:66,1,165.000006294251,8|0,0:0|0:0,0:0:0:0:
469,32,18612,1,0,0:0:0:0:
469,32,18741,1,0,0:0:0:0:
469,32,18870,6,0,L|278:11,1,165.000006294251,8|0,0:0|0:0,0:0:0:0:
207,101,19905,1,8,0:0:0:0:
33,70,20422,6,0,P|79:54|123:52,1,82.5000031471254,8|0,0:0|0:0,0:0:0:0:
207,101,20939,1,8,0:0:0:0:
157,193,21198,2,0,P|120:173|80:164,1,82.5000031471254
49,240,21715,2,0,P|89:249|125:268,1,82.5000031471254,0|8,0:0|0:0,0:0:0:0:
207,262,22232,2,0,P|275:230|317:226,1,82.5000031471254
275,338,22750,1,0,0:0:0:0:
275,338,22879,1,0,0:0:0:0:
275,338,23008,6,0,L|92:356,1,165.000006294251,8|0,0:0|0:0,0:0:0:0:
160,198,24043,1,12,0:0:0:0:
315,278,24560,1,8,0:0:0:0:
315,278,24689,1,0,0:0:0:0:
315,278,24818,1,0,0:0:0:0:
356,206,25077,6,0,P|359:123|374:12,1,165.000006294251
209,0,26112,2,0,P|218:81|222:164,1,165.000006294251
198,262,26887,1,0,0:0:0:0:
198,262,27017,1,0,0:0:0:0:
198,262,27146,6,0,L|366:276,1,165.000006294251,8|8,0:0|0:0,0:0:0:0:
484,163,28181,2,0,L|316:177,1,165.000006294251
237,184,28956,1,0,0:0:0:0:
178,125,29215,2,0,P|137:109|83:108,1,82.5000031471254,8|0,0:0|0:0,0:0:0:0:
56,177,29732,1,0,0:0:0:0:
61,259,29991,2,0,P|101:274|155:275,1,82.5000031471254
234,216,30508,2,0,P|276:194|336:194,1,82.5000031471254
340,112,31025,6,0,P|380:137|410:189,1,82.5000031471254,0|8,0:0|0:0,0:0:0:0:
483,165,31543,2,0,P|481:212|451:264,1,82.5000031471254
404,297,32060,2,0,L|293:290,1,82.5000031471254
250,333,32577,2,0,L|139:340,1,82.5000031471254
21,262,33353,6,0,P|60:248|132:252,1,82.5000031471254,8|0,0:0|0:0,0:0:0:0:
155,185,33870,1,0,0:0:0:0:
155,185,34000,1,0,0:0:0:0:
155,185,34129,2,0,P|192:213|260:221,1,82.5000031471254,0|8,0:0|0:0,0:0:0:0:
260,298,34646,2,0,P|303:279|344:225,1,82.5000031471254
455,158,35163,1,0,0:0:0:0:
455,158,35293,1,0,0:0:0:0:
455,158,35422,6,0,L|277:178,2,165.000006294251,8|0|0,0:0|0:0|0:0,0:0:0:0:
74,209,36974,5,0,0:0:0:0:
118,120,37232,1,0,0:0:0:0:
208,78,37491,2,0,P|235:169|246:273,1,165.000006294251,8|0,0:0|0:0,0:0:0:0:
334,355,38267,2,0,P|346:273|371:194,1,165.000006294251
391,97,39043,2,0,P|345:96|291:126,1,82.5000031471254
230,157,39560,6,0,P|245:183|262:245,3,55,14|12|12|12,0:0|0:0|0:0|0:0,0:0:0:0:
291,316,40077,6,0,P|307:287|329:262,3,65.9999979858399,2|8|8|8,0:0|0:0|0:0|0:0,0:0:0:0:
218,383,40594,6,0,P|204:344|165:300,3,76.9999976501466,2|8|8|8,0:0|0:0|0:0|0:0,0:0:0:0:
118,220,41112,6,0,P|67:297|68:313,3,76.9999976501466,2|8|8|8,0:0|0:0|0:0|0:0,0:0:0:0:
43,158,41629,6,0,P|114:133|217:146,1,137.5,12|2,0:0|0:0,0:0:0:0:
203,211,42017,2,0,L|370:258,1,137.5,8|2,0:0|0:0,0:0:0:0:
345,258,42405,1,8,0:0:0:0:
469,323,42663,2,0,L|399:380,1,68.75,0|10,0:0|0:0,0:0:0:0:
407,377,42922,1,0,0:0:0:0:
421,251,43181,6,0,P|431:183|447:109,1,137.5,8|0,0:0|0:0,0:0:0:0:
443,102,43568,1,8,0:0:0:0:
438,88,43698,2,0,P|381:55|295:110,1,137.5,12|2,0:0|0:0,0:0:0:0:
359,154,44086,2,0,P|301:135|201:129,1,137.5,8|2,0:0|0:0,0:0:0:0:
214,136,44474,1,8,0:0:0:0:
106,237,44732,6,0,P|133:333|153:434,2,137.5,0|0|8,0:0|0:0|0:0,0:0:0:0:
4,136,45508,1,0,0:0:0:0:
92,36,45767,2,0,P|150:15|286:22,1,137.5,12|2,0:0|0:0,0:0:0:0:
298,28,46155,2,0,P|284:99|283:184,1,137.5,8|2,0:0|0:0,0:0:0:0:
264,241,46543,2,8,P|198:212|215:138,1,137.5,8|0,0:0|0:0,0:0:0:0:
357,123,47060,1,0,0:0:0:0:
454,219,47318,2,0,P|435:242|397:329,2,68.75,8|0|0,0:0|0:0|0:0,0:0:0:0:
454,219,47836,6,0,P|387:231|310:249,1,137.5,12|2,0:0|0:0,0:0:0:0:
268,304,48224,2,0,P|196:288|124:274,1,137.5
137,198,48612,2,0,P|63:212|-7:228,1,137.5,12|2,0:0|0:0,0:0:0:0:
18,341,49000,2,0,P|57:334|68:296,2,68.75,8|8|8,0:0|0:0|0:0,0:0:0:0:
166,249,49387,2,0,P|159:209|121:198,3,68.75,8|0|0|0,0:0|0:0|0:0|0:0,0:0:0:0:
49,162,49905,6,0,P|113:147|211:138,1,137.5,12|2,0:0|0:0,0:0:0:0:
242,196,50293,2,0,B|309:216|309:216|375:151,1,137.5,8|2,0:0|0:0,0:0:0:0:
415,109,50681,2,0,P|408:36|323:40,1,137.5,8|0,0:0|0:0,0:0:0:0:
287,110,51198,2,0,P|287:171|293:260,1,137.5,0|8,0:0|0:0,0:0:0:0:
459,349,51715,6,0,P|477:276|525:170,2,137.5,0|12|2,0:0|0:0|0:0,0:0:0:0:
463,361,52362,1,8,0:0:0:0:
280,373,52620,1,2,0:0:0:0:
272,361,52750,2,0,P|200:344|128:335,1,137.5,8|0,0:0|0:0,0:0:0:0:
35,248,53267,2,0,P|73:177|140:184,1,137.5,0|8,0:0|0:0,0:0:0:0:
137,335,53784,1,0,0:0:0:0:
225,215,54043,6,0,P|300:191|367:178,1,137.5,12|2,0:0|0:0,0:0:0:0:
357,179,54431,1,8,0:0:0:0:
235,116,54689,1,2,0:0:0:0:
225,105,54818,2,0,P|127:78|67:68,1,137.5,8|0,0:0|0:0,0:0:0:0:
45,218,55336,2,0,P|117:277|156:230,1,137.5,0|8,0:0|0:0,0:0:0:0:
147,252,55724,1,0,0:0:0:0:
154,240,55853,1,0,0:0:0:0:
295,162,56112,6,0,P|359:142|443:131,1,137.5,12|2,0:0|0:0,0:0:0:0:
439,139,56500,1,0,0:0:0:0:
511,262,56758,1,0,0:0:0:0:
501,252,56887,2,0,P|436:237|348:223,1,137.5,12|2,0:0|0:0,0:0:0:0:
354,232,57275,2,0,P|326:252|311:282,2,68.75,8|8|8,0:0|0:0|0:0,0:0:0:0:
226,283,57663,2,0,P|229:316|247:345,3,68.75,8|0|0|0,0:0|0:0|0:0|0:0,0:0:0:0:
326,359,58181,5,0,0:0:0:0:
96,341,58439,2,0,P|56:334|1:327,1,82.5000031471254,0|8,0:0|0:0,0:0:0:0:
1,328,58827,1,8,0:0:0:0:
142,228,59215,2,0,P|226:217|305:208,1,165.000006294251,0|8,0:0|0:0,0:0:0:0:
367,318,59991,1,8,0:0:0:0:
367,318,60120,1,8,0:0:0:0:
366,317,60250,6,0,P|435:294|407:198,1,165.000006294251,0|8,0:0|0:0,0:0:0:0:
422,207,60896,1,8,0:0:0:0:
290,65,61284,2,0,P|294:136|314:243,1,165.000006294251,0|8,0:0|0:0,0:0:0:0:
387,353,62060,1,0,0:0:0:0:
501,220,62318,6,0,P|451:204|393:219,2,82.5000031471254,0|0|8,0:0|0:0|0:0,0:0:0:0:
404,85,63094,2,0,P|365:120|349:178,1,82.5000031471254
245,124,63612,2,0,P|256:175|298:218,1,82.5000031471254,0|8,0:0|0:0,0:0:0:0:
371,313,64129,6,0,L|352:197,1,82.5000031471254,8|0,0:0|0:0,0:0:0:0:
353,147,64646,2,0,L|257:78,1,82.5000031471254,0|8,0:0|0:0,0:0:0:0:
210,49,65034,1,0,0:0:0:0:
210,49,65163,2,0,L|93:67,1,82.5000031471254,0|8,0:0|0:0,0:0:0:0:
121,72,65551,1,10,0:0:0:0:
34,225,65939,1,8,0:0:0:0:
44,230,66068,2,0,L|186:210,1,123.750004720688,10|0,0:0|0:0,0:0:0:0:
254,284,66715,6,0,P|241:327|196:345,1,82.5000031471254,0|8,0:0|0:0,0:0:0:0:
198,348,67103,1,0,0:0:0:0:
170,225,67491,2,0,P|160:129|149:51,1,165.000006294251,0|8,0:0|0:0,0:0:0:0:
15,49,68267,2,0,P|57:106|62:128,1,82.5000031471254
2,227,68784,2,0,P|44:255|86:243,1,82.5000031471254,0|8,0:0|0:0,0:0:0:0:
84,244,69172,1,0,0:0:0:0:
202,154,69560,2,0,P|258:143|364:135,1,123.750004720688
333,140,70077,1,8,0:0:0:0:
448,245,70336,1,8,0:0:0:0:
448,245,70465,1,8,0:0:0:0:
448,245,70594,6,0,P|385:238|280:236,1,165.000006294251,0|8,0:0|0:0,0:0:0:0:
173,249,71370,2,0,P|203:295|215:329,1,82.5000031471254
290,384,71887,2,0,P|305:346|329:312,1,82.5000031471254,0|8,0:0|0:0,0:0:0:0:
413,199,72405,2,0,P|296:153|286:241,1,247.500009441376,8|8,0:0|0:0,0:0:0:0:
390,340,73698,1,8,0:0:0:0:
390,340,73827,1,10,0:0:0:0:
201,338,74215,2,0,P|185:350|147:360,2,41.2500015735627,8|2|0,0:0|0:0|0:0,0:0:0:0:
11,240,74732,6,0,P|67:216|138:279,1,165.000006294251
278,86,75767,2,0,P|217:96|192:187,1,165.000006294251
90,145,76543,2,0,L|80:96,2,41.2500015735627,8|8|0,0:0|0:0|0:0,0:0:0:0:
32,229,77060,2,0,L|48:319,1,82.5000031471254,8|0,0:0|0:0,0:0:0:0:
192,186,77577,2,0,L|176:276,1,82.5000031471254
332,156,78094,2,0,L|348:246,1,82.5000031471254
269,324,78612,1,8,0:0:0:0:
269,324,78741,1,8,0:0:0:0:
269,324,78870,6,0,P|259:228|242:139,1,165.000006294251
340,163,79646,2,0,P|348:80|362:-1,2,165.000006294251,0|0|8,0:0|0:0|0:0,0:0:0:0:
437,242,80939,1,0,0:0:0:0:
354,301,81198,2,0,P|326:307|271:323,1,82.5000031471254,8|0,0:0|0:0,0:0:0:0:
414,170,81715,2,0,P|448:161|498:161,1,82.5000031471254
357,90,82232,2,0,P|352:57|336:4,2,82.5000031471254
331,196,83008,5,0,0:0:0:0:
229,154,83267,2,0,P|189:146|117:145,1,82.5000031471254,8|0,0:0|0:0,0:0:0:0:
16,69,83784,2,0,P|89:63|194:32,1,165.000006294251
76,153,84818,2,0,P|91:216|105:342,1,165.000006294251,8|8,0:0|0:0,0:0:0:0:
215,384,85594,1,0,0:0:0:0:
215,384,85724,2,0,P|232:331|270:256,1,123.750004720688,8|8,0:0|0:0,0:0:0:0:
512,323,86629,6,0,P|467:330|420:347,1,82.5000031471254,0|8,0:0|0:0,0:0:0:0:
344,252,87146,2,0,P|329:215|293:197,2,82.5000031471254,0|8|0,0:0|0:0|0:0,0:0:0:0:
378,367,87922,2,0,L|392:182,1,165.000006294251
437,116,88698,2,0,L|426:-2,1,82.5000031471254
333,116,89215,6,0,L|264:168,3,55,14|12|12|12,0:0|0:0|0:0|0:0,0:0:0:0:
211,74,89732,6,0,L|200:162,3,65.9999979858399,2|8|8|8,0:0|0:0|0:0|0:0,0:0:0:0:
77,132,90250,6,0,P|108:149|133:207,3,76.9999976501466,2|8|8|8,0:0|0:0|0:0|0:0,0:0:0:0:
141,282,90767,6,0,P|112:309|54:316,3,76.9999976501466,2|8|8|8,0:0|0:0|0:0|0:0,0:0:0:0:
67,241,91284,6,0,P|133:236|270:230,1,137.5,12|2,0:0|0:0,0:0:0:0:
277,300,91672,2,0,P|352:307|428:318,1,137.5,8|2,0:0|0:0,0:0:0:0:
421,322,92060,1,8,0:0:0:0:
512,194,92318,2,0,P|485:147|453:135,1,68.75,0|10,0:0|0:0,0:0:0:0:
461,140,92577,1,0,0:0:0:0:
424,0,92836,2,0,P|356:15|291:36,1,137.5,8|0,0:0|0:0,0:0:0:0:
274,179,93353,6,0,P|282:247|284:315,1,137.5,12|2,0:0|0:0,0:0:0:0:
282,328,93741,1,8,0:0:0:0:
145,363,94000,1,2,0:0:0:0:
145,363,94129,1,8,0:0:0:0:
55,264,94387,2,0,P|57:195|65:127,2,137.5,0|0|8,0:0|0:0|0:0,0:0:0:0:
194,137,95163,1,0,0:0:0:0:
340,204,95422,6,0,P|330:245|241:237,1,137.5,12|2,0:0|0:0,0:0:0:0:
270,174,95810,2,0,P|267:115|291:0,1,137.5,8|2,0:0|0:0,0:0:0:0:
362,23,96198,2,0,P|419:30|420:109,1,137.5,8|0,0:0|0:0,0:0:0:0:
340,204,96715,1,0,0:0:0:0:
443,307,96974,2,0,P|469:284|504:269,2,68.75,8|0|0,0:0|0:0|0:0,0:0:0:0:
476,184,97491,6,0,L|289:211,1,137.5,12|2,0:0|0:0,0:0:0:0:
276,257,97879,2,0,L|114:233,1,137.5
102,156,98267,2,0,P|28:161|42:245,1,137.5,12|2,0:0|0:0,0:0:0:0:
62,289,98655,6,0,P|36:310|-3:315,2,68.75,8|8|8,0:0|0:0|0:0,0:0:0:0:
139,236,99043,2,0,P|173:241|200:263,3,68.75,8|0|0|0,0:0|0:0|0:0|0:0,0:0:0:0:
175,350,99560,6,0,P|248:337|343:330,1,137.5,12|2,0:0|0:0,0:0:0:0:
418,369,99948,2,0,P|473:314|418:261,1,137.5,8|2,0:0|0:0,0:0:0:0:
381,208,100336,2,0,L|215:194,1,137.5,8|0,0:0|0:0,0:0:0:0:
85,275,100853,2,0,P|22:260|40:197,1,137.5,0|8,0:0|0:0,0:0:0:0:
141,156,101370,6,0,P|150:88|169:21,2,137.5,0|12|2,0:0|0:0|0:0,0:0:0:0:
145,166,102017,1,8,0:0:0:0:
275,51,102275,1,2,0:0:0:0:
275,51,102405,2,0,P|347:43|460:40,1,137.5,8|0,0:0|0:0,0:0:0:0:
512,128,102922,2,0,P|497:193|484:269,1,137.5,0|8,0:0|0:0,0:0:0:0:
383,366,103439,1,0,0:0:0:0:
312,236,103698,6,0,P|254:252|137:312,1,137.5,12|2,0:0|0:0,0:0:0:0:
179,293,104086,1,8,0:0:0:0:
134,169,104344,1,2,0:0:0:0:
134,169,104474,2,0,P|57:149|-48:136,1,137.5,8|0,0:0|0:0,0:0:0:0:
0,308,104991,2,0,P|85:310|91:252,1,137.5,0|8,0:0|0:0,0:0:0:0:
94,264,105379,1,0,0:0:0:0:
91,255,105508,1,0,0:0:0:0:
36,104,105767,6,0,P|107:114|127:200,1,137.5,12|2,0:0|0:0,0:0:0:0:
133,176,106155,1,0,0:0:0:0:
310,198,106413,1,0,0:0:0:0:
300,190,106543,2,0,P|237:268|275:293,1,137.5,12|2,0:0|0:0,0:0:0:0:
250,284,106931,2,0,P|288:302|333:263,2,68.75,8|8|8,0:0|0:0|0:0,0:0:0:0:
412,362,107318,2,0,P|430:324|391:279,3,68.75,8|8|8|8,0:0|0:0|0:0|0:0,0:0:0:0:
420,198,107836,6,0,P|392:209|361:265,3,55,2|0|0|0,0:0|0:0|0:0|0:0,0:0:0:0:
467,139,108353,2,0,P|495:150|526:206,3,55,2|0|0|0,0:0|0:0|0:0|0:0,0:0:0:0:
387,130,108870,2,0,L|317:141,3,55
267,185,109387,1,2,0:0:0:0:
253,175,109517,1,0,0:0:0:0:
243,161,109646,1,0,0:0:0:0:
162,55,109905,6,0,L|192:9,3,55,2|0|0|0,0:0|0:0|0:0|0:0,0:0:0:0:
92,118,110422,2,0,L|81:63,3,55,2|0|0|0,0:0|0:0|0:0|0:0,0:0:0:0:
47,199,110939,2,0,L|1:168,3,55
71,274,111456,1,2,0:0:0:0:
87,271,111586,1,0,0:0:0:0:
103,268,111715,1,0,0:0:0:0:
285,260,111974,6,0,P|236:236|211:253,3,55,2|0|0|0,0:0|0:0|0:0|0:0,0:0:0:0:
177,288,112491,2,0,P|180:342|207:355,3,55,2|0|0|0,0:0|0:0|0:0|0:0,0:0:0:0:
254,374,113008,2,0,P|299:343|297:313,3,55
339,279,113525,1,2,0:0:0:0:
355,276,113655,1,0,0:0:0:0:
371,274,113784,1,2,0:0:0:0:
496,315,114043,6,0,L|512:263,3,55,2|0|0|0,0:0|0:0|0:0|0:0,0:0:0:0:
436,226,114560,2,0,L|420:173,3,55,2|0|0|0,0:0|0:0|0:0|0:0,0:0:0:0:
498,136,115077,2,0,L|513:83,3,55
421,61,115594,1,10,0:0:0:0:
404,61,115724,1,0,0:0:0:0:
387,61,115853,1,10,0:0:0:0:
235,125,116112,6,0,P|259:146|314:129,3,55,2|0|0|0,0:0|0:0|0:0|0:0,0:0:0:0:
158,95,116629,2,0,P|151:126|193:166,3,55,2|0|0|0,0:0|0:0|0:0|0:0,0:0:0:0:
137,14,117146,2,0,P|106:24|92:80,3,55
64,115,117663,1,2,0:0:0:0:
66,131,117793,1,0,0:0:0:0:
68,147,117922,1,0,0:0:0:0:
38,268,118181,6,0,L|127:252,3,55,2|0|0|0,0:0|0:0|0:0|0:0,0:0:0:0:
174,283,118698,2,0,L|263:299,3,55,2|0|0|0,0:0|0:0|0:0|0:0,0:0:0:0:
309,259,119215,2,0,L|398:243,3,55
255,200,119732,1,2,0:0:0:0:
238,196,119862,1,0,0:0:0:0:
221,193,119991,1,0,0:0:0:0:
133,134,120250,6,0,L|109:59,1,55,14|0,0:2|0:0,0:0:0:0:
247,32,120508,2,0,L|223:107,1,55
291,156,120767,2,0,L|366:180,1,55,14|0,0:2|0:0,0:0:0:0:
421,99,121025,2,0,L|445:174,1,55
457,238,121283,6,0,P|425:295|422:321,1,55,14|0,0:2|0:0,0:0:0:0:
347,332,121542,2,0,P|335:307|318:285,1,55
254,245,121800,2,0,P|226:242|199:246,1,55,14|0,0:2|0:0,0:0:0:0:
124,259,122059,2,0,P|108:281|98:307,1,55
167,357,122318,5,14,0:0:0:0:
183,354,122448,1,12,0:0:0:0:
198,349,122577,2,0,L|271:333,1,55,12|12,0:0|0:0,0:0:0:0:
354,239,122835,5,14,0:0:0:0:
351,255,122965,1,12,0:0:0:0:
346,270,123094,2,0,L|330:343,1,55,12|12,0:0|0:0,0:0:0:0:
238,160,123353,5,14,0:0:0:0:
241,176,123483,1,12,0:0:0:0:
246,191,123612,2,0,L|262:264,1,55,12|12,0:0|0:0,0:0:0:0:
355,93,123870,5,14,0:0:0:0:
352,109,124000,1,12,0:0:0:0:
347,124,124129,2,0,L|331:197,1,55,12|12,0:0|0:0,0:0:0:0:
300,304,124387,6,0,P|371:290|498:276,1,137.5,12|2,0:0|0:0,0:0:0:0:
512,227,124775,2,0,P|502:158|489:91,1,137.5,8|2,0:0|0:0,0:0:0:0:
479,71,125163,1,8,0:0:0:0:
316,9,125422,2,0,P|292:36|284:97,1,68.75,0|10,0:0|0:0,0:0:0:0:
286,78,125681,1,0,0:0:0:0:
366,196,125939,2,0,B|302:176|301:232|225:221,1,137.5,8|0,0:0|0:0,0:0:0:0:
216,220,126327,1,8,0:0:0:0:
200,216,126456,6,0,P|131:209|63:202,1,137.5,12|2,0:0|0:0,0:0:0:0:
6,256,126844,2,0,B|34:304|34:304|31:336|31:336|69:412,1,137.5,8|2,0:0|0:0,0:0:0:0:
54,381,127232,1,8,0:0:0:0:
253,256,127491,2,0,P|213:312|181:373,2,137.5,0|0|8,0:0|0:0|0:0,0:0:0:0:
387,333,128267,1,0,0:0:0:0:
461,212,128525,6,0,P|454:140|444:65,1,137.5,12|2,0:0|0:0,0:0:0:0:
388,23,128913,2,0,P|310:24|248:35,1,137.5,8|2,0:0|0:0,0:0:0:0:
192,101,129301,2,8,P|133:64|120:-7,2,137.5,8|0|0,0:0|0:0|0:0,0:0:0:0:
325,201,130077,1,8,0:0:0:0:
325,201,130206,1,0,0:0:0:0:
325,201,130336,2,0,P|329:246|313:284,1,68.75,0|8,0:0|0:0,0:0:0:0:
241,289,130594,6,0,P|165:263|75:251,1,137.5,12|2,0:0|0:0,0:0:0:0:
44,298,130982,2,0,P|7:230|38:144,1,137.5
80,129,131370,2,0,P|171:134|237:138,1,137.5,12|2,0:0|0:0,0:0:0:0:
302,67,131758,2,0,P|321:101|331:142,2,68.75,8|8|8,0:0|0:0|0:0,0:0:0:0:
430,161,132146,2,0,P|408:193|377:221,3,68.75,8|8|8|8,0:0|0:0|0:0|0:0,0:0:0:0:
350,288,132663,6,0,P|261:255|176:237,1,137.5,12|2,0:0|0:0,0:0:0:0:
150,282,133051,2,0,B|125:219|125:219|163:126,1,137.5,12|2,0:0|0:0,0:0:0:0:
198,91,133439,2,8,P|162:36|99:49,1,137.5,8|0,0:0|0:0,0:0:0:0:
258,167,133956,2,0,P|319:167|408:161,1,137.5,0|8,0:0|0:0,0:0:0:0:
470,219,134473,6,0,P|488:146|536:40,2,137.5,0|12|2,0:0|0:0|0:0,0:0:0:0:
470,234,135120,1,8,0:0:0:0:
504,371,135378,1,2,0:0:0:0:
496,359,135508,2,0,P|424:342|352:333,1,137.5,8|0,0:0|0:0,0:0:0:0:
147,263,136025,2,0,P|185:192|252:199,1,137.5,0|8,0:0|0:0,0:0:0:0:
329,240,136542,1,0,0:0:0:0:
111,369,136801,6,0,P|186:345|253:332,1,137.5,12|2,0:0|0:0,0:0:0:0:
257,336,137189,1,8,0:0:0:0:
148,266,137447,1,2,0:0:0:0:
138,255,137576,2,8,P|40:228|-20:218,1,137.5,8|0,0:0|0:0,0:0:0:0:
330,314,138094,2,0,P|389:242|342:203,1,137.5,0|8,0:0|0:0,0:0:0:0:
358,213,138482,1,0,0:0:0:0:
346,206,138611,1,0,0:0:0:0:
173,101,138870,6,0,P|237:81|321:70,1,137.5,12|2,0:0|0:0,0:0:0:0:
317,78,139258,1,0,0:0:0:0:
512,301,139516,1,0,0:0:0:0:
502,291,139646,2,0,P|437:276|349:262,1,137.5,12|2,0:0|0:0,0:0:0:0:
355,271,140033,2,0,P|327:291|312:321,2,68.75,8|8|8,0:0|0:0|0:0,0:0:0:0:
227,322,140421,2,0,P|230:355|248:384,3,68.75,8|8|8|8,0:0|0:0|0:0|0:0,0:0:0:0:
138,299,140939,6,0,P|54:318|-17:333,1,137.5,14|2,0:0|0:0,0:0:0:0:
3,328,141327,2,0,P|-2:234|-3:159,1,137.5,14|2,0:0|0:0,0:0:0:0:
49,137,141715,2,0,P|128:189|188:233,1,137.5,14|0,0:0|0:0,0:0:0:0:
305,351,142232,2,0,P|334:315|335:262,1,68.75,8|2,0:0|0:0,0:0:0:0:
311,227,142491,2,0,P|328:156|395:121,1,137.5,8|8,0:0|0:0,0:0:0:0:
506,62,143008,6,0,P|400:36|326:16,1,137.5,14|2,0:0|0:0,0:0:0:0:
372,28,143396,2,0,P|305:45|238:61,1,137.5,14|2,0:0|0:0,0:0:0:0:
199,127,143784,2,0,P|123:93|59:67,1,137.5,14|0,0:0|0:0,0:0:0:0:
60,65,144172,1,10,0:0:0:0:
47,56,144301,2,0,P|59:147|65:198,1,137.5,8|8,0:0|0:0,0:0:0:0:
0,308,144818,1,8,0:0:0:0:
123,369,145077,6,0,P|203:351|269:334,1,137.5,14|2,0:0|0:0,0:0:0:0:
256,337,145465,2,0,P|272:262|239:167,1,137.5,14|2,0:0|0:0,0:0:0:0:
209,143,145853,2,0,P|275:115|352:116,1,137.5,14|0,0:0|0:0,0:0:0:0:
429,227,146370,2,0,P|415:281|393:381,2,137.5,8|8|8,0:0|0:0|0:0,0:0:0:0:
424,76,147146,6,0,P|358:18|298:48,1,137.5,14|2,0:0|0:0,0:0:0:0:
317,29,147534,2,0,P|340:144|348:184,1,137.5,14|2,0:0|0:0,0:0:0:0:
316,238,147922,2,0,P|292:313|273:376,1,137.5,14|0,0:0|0:0,0:0:0:0:
149,310,148310,2,0,P|186:293|227:285,2,68.75,10|8|8,0:0|0:0|0:0,0:0:0:0:
84,367,148698,1,8,0:0:0:0:
55,375,148827,1,8,0:0:0:0:
28,361,148956,1,8,0:0:0:0:
21,332,149086,1,8,0:0:0:0:
34,302,149215,6,0,P|71:212|56:153,1,137.5,14|10,0:0|0:0,0:0:0:0:
14,115,149603,2,0,P|76:81|167:81,1,137.5,14|10,0:0|0:0,0:0:0:0:
195,20,149991,2,0,P|230:56|316:91,1,137.5,14|0,0:0|0:0,0:0:0:0:
389,22,150379,1,10,0:0:0:0:
421,15,150508,1,8,0:0:0:0:
452,25,150637,1,8,0:0:0:0:
473,52,150767,1,8,0:0:0:0:
474,85,150896,1,8,0:0:0:0:
465,117,151025,1,8,0:0:0:0:
465,150,151155,1,8,0:0:0:0:
475,180,151284,6,0,P|489:262|456:342,1,137.5,12|2,0:0|0:0,0:0:0:0:
419,369,151672,2,0,P|347:353|251:336,1,137.5,8|2,0:0|0:0,0:0:0:0:
190,232,152060,2,0,P|199:329|204:378,2,137.5,8|0|0,0:0|0:0|0:0,0:0:0:0:
66,127,152836,1,8,0:0:0:0:
149,5,153094,1,0,0:0:0:0:
274,87,153353,6,0,P|356:105|397:174,1,137.5,12|2,0:0|0:0,0:0:0:0:
450,203,153741,2,0,P|430:288|424:357,1,137.5,8|2,0:0|0:0,0:0:0:0:
424,337,154129,2,0,P|353:319|275:307,1,137.5,8|0,0:0|0:0,0:0:0:0:
277,311,154517,1,10,0:0:0:0:
263,305,154646,2,0,P|192:282|94:257,2,137.5,0|8|0,0:0|0:0|0:0,0:0:0:0:
320,187,155422,6,0,P|314:89|282:25,1,137.5,12|2,0:0|0:0,0:0:0:0:
222,13,155810,2,0,P|136:27|62:56,1,137.5,8|2,0:0|0:0,0:0:0:0:
20,108,156198,2,0,P|57:176|59:259,1,137.5,8|0,0:0|0:0,0:0:0:0:
15,362,156715,2,0,P|105:355|207:345,1,137.5,0|8,0:0|0:0,0:0:0:0:
207,297,157103,2,0,P|251:307|285:316,1,68.75
331,362,157362,1,8,0:0:0:0:
331,362,157491,5,8,0:0:0:0:
207,101,165767,5,8,0:0:0:0:
157,193,166026,2,0,P|120:173|80:164,1,82.5000031471254
56,171,166413,2,0,P|36:207|27:247,1,82.5000031471254
29,265,166801,1,8,0:0:0:0:
251,341,167318,2,0,P|319:309|361:305,1,82.5000031471254
396,348,167836,6,0,L|414:165,1,165.000006294251,8|0,0:0|0:0,0:0:0:0:
160,198,168871,1,8,0:0:0:0:
315,278,169388,1,0,0:0:0:0:
406,148,169646,2,0,P|385:143|361:138,1,41.2500015735627
350,117,169905,6,0,P|275:133|185:151,1,165.000006294251,8|0,0:0|0:0,0:0:0:0:
26,189,170939,1,8,0:0:0:0:
225,261,171456,1,0,0:0:0:0:
346,160,171715,2,0,P|354:184|362:208,1,41.2500015735627
380,215,171974,6,0,P|368:286|352:382,1,165.000006294251,8|0,0:0|0:0,0:0:0:0:
280,221,173008,1,8,0:0:0:0:
440,108,173525,2,0,P|438:91|436:60,1,41.25,8|0,0:0|0:0,0:0:0:0:
430,40,174043,6,0,P|407:34|386:29,7,27.5
331,65,175077,2,0,P|317:68|304:71,7,27.5
234,29,176112,6,0,P|211:23|190:18,7,27.5
140,60,177146,2,0,P|126:63|113:66,7,27.5
40,47,178181,6,0,P|35:71|39:92,3,27.5
83,135,178698,2,0,P|88:159|84:180,3,27.5
33,221,179215,2,0,P|28:245|32:266,3,27.5
76,309,179732,2,0,P|81:333|77:354,3,27.5
155,367,180250,6,0,P|174:364|197:358,3,27.5
255,332,180767,2,0,P|268:334|282:336,3,27.5
355,368,181284,2,0,P|374:365|397:359,3,27.5
455,333,181801,2,0,P|468:335|482:337,3,27.5
505,353,182318,5,8,0:0:0:0:
256,192,182448,12,0,185163,0:0:0:0:
