osu file format v14

[General]
AudioFilename: audio.mp3
AudioLeadIn: 0
PreviewTime: 102066
Countdown: 0
SampleSet: Soft
StackLeniency: 0.7
Mode: 0
LetterboxInBreaks: 0
EpilepsyWarning: 1
WidescreenStoryboard: 1

[Editor]
DistanceSpacing: 2
BeatDivisor: 8
GridSize: 4
TimelineZoom: 2.200001

[Metadata]
Title:Cancer
TitleUnicode:Cancer
Artist:My Chemical Romance
ArtistUnicode:My Chemical Romance
Creator:Blitzifyyy
Version:Turn away...
Source:
Tags:rock english the black parade theshadowofdark Bob Bryar Frank Iero Ray Toro Gerard Way Mikey Way -[ Hinoao ]- kittyadventure gokugohan12468
BeatmapID:2150518
BeatmapSetID:1028485

[Difficulty]
HPDrainRate:5
CircleSize:5
OverallDifficulty:7
ApproachRate:7
SliderMultiplier:1.4
SliderTickRate:1

[Events]
//Background and Video events
0,0,"wp2625665.jpg",0,0
//Break Periods
//Storyboard Layer 0 (Background)
//Storyboard Layer 1 (Fail)
//Storyboard Layer 2 (Pass)
//Storyboard Layer 3 (Foreground)
Sprite,Foreground,Centre,"sb\glow.png",0,0 C,0,170,,103,101,124 M,0,170,273,120,183,111.69,207.8872 F,2,170,1200,1,0 S,2,170,1200,0.7,0.14 P,0,170,1200,A M,0,273,377,111.69,207.8872,106.6978,233.6287 M,0,377,481,106.6978,233.6287,106.7158,259.8256 M,0,481,585,106.7158,259.8256,112.0473,285.4974 M,0,585,689,112.0473,285.4974,119.1113,310.7766 M,0,689,792,119.1113,310.7766,123.063,336.6895 M,0,792,896,123.063,336.6895,122.0405,362.8828 M,0,896,1000,122.0405,362.8828,116.9469,388.6147
Sprite,Foreground,Centre,"sb\glow.png",120,183 C,0,1796,,103,101,124 F,2,1796,1996,1,0 S,2,1796,1996,0.7,0.14 P,0,1796,1996,A
Sprite,Foreground,Centre,"sb\glow.png",203,132 C,0,2171,,103,101,124 F,2,2171,2371,1,0 S,2,2171,2371,0.7,0.14 P,0,2171,2371,A
Sprite,Foreground,Centre,"sb\glow.png",0,0 C,0,2592,,103,101,124 M,0,2592,2691,288,82,294.273,98.30991 F,2,2592,3389,1,0 S,2,2592,3389,0.7,0.14 P,0,2592,3389,A M,0,2691,2791,294.273,98.30991,297.9129,115.393 M,0,2791,2890,297.9129,115.393,298.8324,132.8282 M,0,2890,2990,298.8324,132.8282,297.0108,150.1861 M,0,2990,3089,297.0108,150.1861,292.4947,167.0394 M,0,3089,3189,292.4947,167.0394,285.5593,183.0677
Sprite,Foreground,Centre,"sb\glow.png",0,0 C,0,3388,,103,101,124 M,0,3388,3488,196,242,222.25,242 F,2,3388,5193,1,0 S,2,3388,5193,0.7,0.14 P,0,3388,5193,A M,0,3488,3588,222.25,242,248.5,242 M,0,3588,3689,248.5,242,272.9083,251.5633 M,0,3689,3789,272.9083,251.5633,297.9187,258 M,0,3789,3889,297.9187,258,324.1687,258 M,0,3889,3990,324.1687,258,350.4187,258 M,0,3990,4090,350.4187,258,376.6687,258 M,0,4090,4190,376.6687,258,402.9187,258 M,0,4190,4291,402.9187,258,376.6687,258 M,0,4291,4391,376.6687,258,350.4187,258 M,0,4391,4491,350.4187,258,324.1687,258 M,0,4491,4592,324.1687,258,297.9187,258 M,0,4592,4692,297.9187,258,272.9083,251.5633 M,0,4692,4792,272.9083,251.5633,248.5,242 M,0,4792,4893,248.5,242,222.25,242 M,0,4893,4993,222.25,242,196,242
Sprite,Foreground,Centre,"sb\glow.png",292,173 C,0,5394,,103,101,124 F,2,5394,5594,1,0 S,2,5394,5594,0.7,0.14 P,0,5394,5594,A
Sprite,Foreground,Centre,"sb\glow.png",0,0 C,0,5796,,103,101,124 M,0,5796,5903,402,257,409.1924,273.8228 F,2,5796,6612,1,0 S,2,5796,6612,0.7,0.14 P,0,5796,6612,A M,0,5903,6011,409.1924,273.8228,411.9726,291.8747 M,0,6011,6119,411.9726,291.8747,410.1796,310.0271 M,0,6119,6227,410.1796,310.0271,403.9347,327.1475 M,0,6227,6335,403.9347,327.1475,393.6337,342.1687 M,0,6335,6412,393.6337,342.1687,384.3668,351.3713
Sprite,Foreground,Centre,"sb\glow.png",0,0 C,0,6596,,172,177,189 M,0,6596,6695,319,413,344.9969,409.5279 F,2,6596,8383,1,0 S,2,6596,8383,0.7,0.14 P,0,6596,8383,A M,0,6695,6794,344.9969,409.5279,371.1843,410.5206 M,0,6794,6893,371.1843,410.5206,396.6197,416.8362 M,0,6893,6992,396.6197,416.8362,421.0731,426.3728 M,0,6992,7092,421.0731,426.3728,446.0547,434.3399 M,0,7092,7191,446.0547,434.3399,472.1086,437.0432 M,0,7191,7290,472.1086,437.0432,498.1988,434.4662 M,0,7290,7389,498.1988,434.4662,523.684,428.2355 M,0,7389,7488,523.684,428.2355,498.1988,434.4662 M,0,7488,7588,498.1988,434.4662,472.1086,437.0432 M,0,7588,7687,472.1086,437.0432,446.0547,434.3399 M,0,7687,7786,446.0547,434.3399,421.0731,426.3728 M,0,7786,7885,421.0731,426.3728,396.6197,416.8362 M,0,7885,7984,396.6197,416.8362,371.1843,410.5206 M,0,7984,8084,371.1843,410.5206,344.9969,409.5279 M,0,8084,8183,344.9969,409.5279,319,413
Sprite,Foreground,Centre,"sb\glow.png",228,362 C,0,8580,,172,177,189 F,2,8580,8780,1,0 S,2,8580,8780,0.7,0.14 P,0,8580,8780,A
Sprite,Foreground,Centre,"sb\glow.png",0,0 C,0,8976,,172,177,189 M,0,8976,9075,125,297,124.3271,323.2414 F,2,8976,9572,1,0 S,2,8976,9572,0.7,0.14 P,0,8976,9572,A M,0,9075,9174,124.3271,323.2414,123.6543,349.4828 M,0,9174,9273,123.6543,349.4828,122.9814,375.7241 M,0,9273,9372,122.9814,375.7241,122.3086,401.9655
Sprite,Foreground,Centre,"sb\glow.png",0,0 C,0,9780,,172,177,189 M,0,9780,9886,74,242,95.91261,227.733 F,2,9780,10832,1,0 S,2,9780,10832,0.7,0.14 P,0,9780,10832,A M,0,9886,9993,95.91261,227.733,121.3252,221.81 M,0,9993,10099,121.3252,221.81,147.2458,225.1637 M,0,10099,10206,147.2458,225.1637,171.007,232.1474 M,0,10206,10312,171.007,232.1474,192.1909,226.8457 M,0,10312,10419,192.1909,226.8457,217.5699,233.1303 M,0,10419,10525,217.5699,233.1303,243.5854,230.7849 M,0,10525,10632,243.5854,230.7849,267.6245,220.4547
Sprite,Foreground,Centre,"sb\glow.png",101,234 C,0,11401,,172,177,189 F,2,11401,11601,1,0 S,2,11401,11601,0.7,0.14 P,0,11401,11601,A
Sprite,Foreground,Centre,"sb\glow.png",197,299 C,0,11829,,172,177,189 F,2,11829,12029,1,0 S,2,11829,12029,0.7,0.14 P,0,11829,12029,A
Sprite,Foreground,Centre,"sb\glow.png",0,0 C,0,12187,,172,177,189 M,0,12187,12285,267,220,281.5569,210.3723 F,2,12187,12979,1,0 S,2,12187,12979,0.7,0.14 P,0,12187,12979,A M,0,12285,12384,281.5569,210.3723,297.7174,203.8312 M,0,12384,12483,297.7174,203.8312,314.8405,200.6297 M,0,12483,12581,314.8405,200.6297,332.2478,200.8899 M,0,12581,12680,332.2478,200.8899,349.2512,204.5985 M,0,12680,12779,349.2512,204.5985,365.3252,211.337
Sprite,Foreground,Centre,"sb\glow.png",0,0 C,0,12976,,103,101,124 M,0,12976,13076,414,277,422.4893,303.4462 F,2,12976,13976,1,0 S,2,12976,13976,0.7,0.14 P,0,12976,13976,A M,0,13076,13176,422.4893,303.4462,439.7888,325.0994 M,0,13176,13276,439.7888,325.0994,463.5793,339.3068 M,0,13276,13376,463.5793,339.3068,490.968,343.6158 M,0,13376,13476,490.968,343.6158,518.1517,338.1353 M,0,13476,13576,518.1517,338.1353,541.2838,322.8268 M,0,13576,13676,541.2838,322.8268,557.7384,300.4732 M,0,13676,13776,557.7384,300.4732,564.7284,273.5558
Sprite,Foreground,Centre,"sb\glow.png",0,0 C,0,14176,,103,101,124 M,0,14176,14276,571,156,544.0073,149.2613 F,2,14176,14576,1,0 S,2,14176,14576,0.7,0.14 P,0,14176,14576,A M,0,14276,14376,544.0073,149.2613,516.3275,151.5211
Sprite,Foreground,Centre,"sb\glow.png",411,178 C,0,14576,,103,101,124 F,2,14576,14776,1,0 S,2,14576,14776,0.7,0.14 P,0,14576,14776,A
Sprite,Foreground,Centre,"sb\glow.png",317,56 C,0,14976,,103,101,124 F,2,14976,15176,1,0 S,2,14976,15176,0.7,0.14 P,0,14976,15176,A
Sprite,Foreground,Centre,"sb\glow.png",0,0 C,0,15376,,103,101,124 M,0,15376,15476,205,148,232.2051,154.1585 F,2,15376,15976,1,0 S,2,15376,15976,0.7,0.14 P,0,15376,15976,A M,0,15476,15576,232.2051,154.1585,259.8315,150.4791 M,0,15576,15676,259.8315,150.4791,287.2988,145.37 M,0,15676,15776,287.2988,145.37,315.0771,148.1069
Sprite,Foreground,Centre,"sb\glow.png",0,0 C,0,16176,,172,177,189 M,0,16176,16273,136,108,125.2162,133.7109 F,2,16176,16959,1,0 S,2,16176,16959,0.7,0.14 P,0,16176,16959,A M,0,16273,16370,125.2162,133.7109,123.6676,161.5262 M,0,16370,16467,123.6676,161.5262,118.2282,186.8477 M,0,16467,16565,118.2282,186.8477,121.6519,214.5468 M,0,16565,16662,121.6519,214.5468,117.4679,242.1517 M,0,16662,16759,117.4679,242.1517,107,268
Sprite,Foreground,Centre,"sb\glow.png",0,0 C,0,16954,,172,177,189 M,0,16954,17053,64,354,91.8884,351.5025 F,2,16954,17352,1,0 S,2,16954,17352,0.7,0.14 P,0,16954,17352,A M,0,17053,17152,91.8884,351.5025,119.7768,349.0051
Sprite,Foreground,Centre,"sb\glow.png",201,288 C,0,17351,,172,177,189 F,2,17351,17551,1,0 S,2,17351,17551,0.7,0.14 P,0,17351,17551,A
Sprite,Foreground,Centre,"sb\glow.png",0,0 C,0,17550,,172,177,189 M,0,17550,17649,201,288,228.8884,290.4975 F,2,17550,17948,1,0 S,2,17550,17948,0.7,0.14 P,0,17550,17948,A M,0,17649,17748,228.8884,290.4975,256.7768,292.9949
Sprite,Foreground,Centre,"sb\glow.png",0,0 C,0,17948,,172,177,189 M,0,17948,18047,360,276,341.2484,296.3635 F,2,17948,18545,1,0 S,2,17948,18545,0.7,0.14 P,0,17948,18545,A M,0,18047,18146,341.2484,296.3635,332.8041,322.6363 M,0,18146,18246,332.8041,322.6363,335.9836,350.0446 M,0,18246,18345,335.9836,350.0446,350.6507,373.556
Sprite,Foreground,Centre,"sb\glow.png",0,0 C,0,18545,,172,177,189 M,0,18545,18643,439,378,466.9968,377.5758 F,2,18545,18941,1,0 S,2,18545,18941,0.7,0.14 P,0,18545,18941,A M,0,18643,18741,466.9968,377.5758,494.9936,377.1516
Sprite,Foreground,Centre,"sb\glow.png",570,315 C,0,18937,,172,177,189 F,2,18937,19137,1,0 S,2,18937,19137,0.7,0.14 P,0,18937,19137,A
Sprite,Foreground,Centre,"sb\glow.png",553,219 C,0,19133,,172,177,189 F,2,19133,19333,1,0 S,2,19133,19333,0.7,0.14 P,0,19133,19333,A
Sprite,Foreground,Centre,"sb\glow.png",0,0 C,0,19329,,103,101,124 M,0,19329,19433,444,213,436.8297,240.0353 F,2,19329,20154,1,0 S,2,19329,20154,0.7,0.14 P,0,19329,20154,A M,0,19433,19537,436.8297,240.0353,435.2563,267.9225 M,0,19537,19641,435.2563,267.9225,439.8156,295.5176 M,0,19641,19745,439.8156,295.5176,444.873,323.0382 M,0,19745,19849,444.873,323.0382,444.6835,350.9818 M,0,19849,19954,444.6835,350.9818,439.1981,378.4098
Sprite,Foreground,Centre,"sb\glow.png",0,0 C,0,20162,,103,101,124 M,0,20162,20262,316,342,343.857,339.1739 F,2,20162,20562,1,0 S,2,20162,20562,0.7,0.14 P,0,20162,20562,A M,0,20262,20362,343.857,339.1739,371.714,336.3478
Sprite,Foreground,Centre,"sb\glow.png",0,0 C,0,20563,,103,101,124 M,0,20563,20663,278,273,250.143,270.1739 F,2,20563,20963,1,0 S,2,20563,20963,0.7,0.14 P,0,20563,20963,A M,0,20663,20763,250.143,270.1739,222.286,267.3478
Sprite,Foreground,Centre,"sb\glow.png",146,331 C,0,20964,,103,101,124 F,2,20964,21164,1,0 S,2,20964,21164,0.7,0.14 P,0,20964,21164,A
Sprite,Foreground,Centre,"sb\glow.png",0,0 C,0,21159,,103,101,124 M,0,21159,21256,146,331,129.9519,308.2704 F,2,21159,21748,1,0 S,2,21159,21748,0.7,0.14 P,0,21159,21748,A M,0,21256,21353,129.9519,308.2704,121.9476,281.6725 M,0,21353,21450,121.9476,281.6725,122.6193,253.9034 M,0,21450,21548,122.6193,253.9034,132.5233,227.9401
Sprite,Foreground,Centre,"sb\glow.png",0,0 C,0,21742,,103,101,124 M,0,21742,21843,198,159,170.381,154.3968 F,2,21742,22144,1,0 S,2,21742,22144,0.7,0.14 P,0,21742,22144,A M,0,21843,21944,170.381,154.3968,142.7619,149.7937
Sprite,Foreground,Centre,"sb\glow.png",0,0 C,0,22147,,103,101,124 M,0,22147,22248,243,235,270.619,230.3968 F,2,22147,22549,1,0 S,2,22147,22549,0.7,0.14 P,0,22147,22549,A M,0,22248,22349,270.619,230.3968,298.2381,225.7937
Sprite,Foreground,Centre,"sb\glow.png",0,0 C,0,22552,,172,177,189 M,0,22552,22653,170,289,167.0688,316.8462 F,2,22552,22954,1,0 S,2,22552,22954,0.7,0.14 P,0,22552,22954,A M,0,22653,22754,167.0688,316.8462,164.1376,344.6923
Sprite,Foreground,Centre,"sb\glow.png",0,0 C,0,22957,,172,177,189 M,0,22957,23058,247,421,244.0688,393.1538 F,2,22957,23359,1,0 S,2,22957,23359,0.7,0.14 P,0,22957,23359,A M,0,23058,23159,244.0688,393.1538,241.1376,365.3077
Sprite,Foreground,Centre,"sb\glow.png",0,0 C,0,23362,,172,177,189 M,0,23362,23463,122,399,147.0347,410.9551 F,2,23362,23764,1,0 S,2,23362,23764,0.7,0.14 P,0,23362,23764,A M,0,23463,23564,147.0347,410.9551,174.6655,412.4734
Sprite,Foreground,Centre,"sb\glow.png",97,320 C,0,23768,,172,177,189 F,2,23768,23968,1,0 S,2,23768,23968,0.7,0.14 P,0,23768,23968,A
Sprite,Foreground,Centre,"sb\glow.png",0,0 C,0,23985,,172,177,189 M,0,23985,24082,97,320,122.0347,308.0449 F,2,23985,24380,1,0 S,2,23985,24380,0.7,0.14 P,0,23985,24380,A M,0,24082,24180,122.0347,308.0449,149.6655,306.5266
Sprite,Foreground,Centre,"sb\glow.png",0,0 C,0,24374,,172,177,189 M,0,24374,24471,238,347,265.9455,345.2534 F,2,24374,24768,1,0 S,2,24374,24768,0.7,0.14 P,0,24374,24768,A M,0,24471,24568,265.9455,345.2534,293.8909,343.5068
Sprite,Foreground,Centre,"sb\glow.png",0,0 C,0,24762,,172,177,189 M,0,24762,24859,363,284,390.9455,285.7466 F,2,24762,25156,1,0 S,2,24762,25156,0.7,0.14 P,0,24762,25156,A M,0,24859,24956,390.9455,285.7466,418.8909,287.4932
Sprite,Foreground,Centre,"sb\glow.png",0,0 C,0,25156,,172,177,189 M,0,25156,25256,508,365,496.3804,339.766 F,2,25156,25856,1,0 S,2,25156,25856,0.7,0.14 P,0,25156,25856,A M,0,25256,25356,496.3804,339.766,494.3,312.1189 M,0,25356,25456,494.3,312.1189,501.9841,285.5013 M,0,25456,25556,501.9841,285.5013,518.8148,263.4687 M,0,25556,25656,518.8148,263.4687,542.1875,248.5024
Sprite,Foreground,Centre,"sb\glow.png",0,0 C,0,25756,,103,101,124 M,0,25756,25857,576,238,548.2814,234.0402 F,2,25756,26769,1,0 S,2,25756,26769,0.7,0.14 P,0,25756,26769,A M,0,25857,25959,548.2814,234.0402,520.5629,230.0804 M,0,25959,26060,520.5629,230.0804,492.8442,226.1206 M,0,26060,26162,492.8442,226.1206,465.1257,222.1608 M,0,26162,26264,465.1257,222.1608,492.8442,226.1206 M,0,26264,26365,492.8442,226.1206,520.5629,230.0804 M,0,26365,26467,520.5629,230.0804,548.2814,234.0402 M,0,26467,26569,548.2814,234.0402,576,238
Sprite,Foreground,Centre,"sb\glow.png",547,146 C,0,26771,,103,101,124 F,2,26771,26971,1,0 S,2,26771,26971,0.7,0.14 P,0,26771,26971,A
Sprite,Foreground,Centre,"sb\glow.png",0,0 C,0,26974,,103,101,124 M,0,26974,27075,444,159,420.2675,173.3192 F,2,26974,27376,1,0 S,2,26974,27376,0.7,0.14 P,0,26974,27376,A M,0,27075,27176,420.2675,173.3192,404.1962,195.8096
Sprite,Foreground,Centre,"sb\glow.png",0,0 C,0,27379,,103,101,124 M,0,27379,27479,446,291,423.4851,274.8037 F,2,27379,27979,1,0 S,2,27379,27979,0.7,0.14 P,0,27379,27979,A M,0,27479,27579,423.4851,274.8037,396.5483,268.495 M,0,27579,27679,396.5483,268.495,369.2517,272.9046 M,0,27679,27779,369.2517,272.9046,345.9901,287.8922
Sprite,Foreground,Centre,"sb\glow.png",0,0 C,0,28179,,103,101,124 M,0,28179,28277,386,440,400.1853,416.0309 F,2,28179,28774,1,0 S,2,28179,28774,0.7,0.14 P,0,28179,28774,A M,0,28277,28376,400.1853,416.0309,406.5855,388.967 M,0,28376,28475,406.5855,388.967,404.6418,361.2469 M,0,28475,28574,404.6418,361.2469,394.6892,335.2918
Sprite,Foreground,Centre,"sb\glow.png",311,379 C,0,28772,,103,101,124 F,2,28772,28972,1,0 S,2,28772,28972,0.7,0.14 P,0,28772,28972,A
Sprite,Foreground,Centre,"sb\glow.png",0,0 C,0,28970,,172,177,189 M,0,28970,29068,253,320,225.0026,320.3835 F,2,28970,29763,1,0 S,2,28970,29763,0.7,0.14 P,0,28970,29763,A M,0,29068,29167,225.0026,320.3835,197.0052,320.7671 M,0,29167,29266,197.0052,320.7671,170.7528,326.9446 M,0,29266,29365,170.7528,326.9446,143.6519,329.7206 M,0,29365,29464,143.6519,329.7206,115.6541,329.3707 M,0,29464,29563,115.6541,329.3707,87.65628,329.0207
Sprite,Foreground,Centre,"sb\glow.png",0,0 C,0,29762,,172,177,189 M,0,29762,29853,231,220,249.5437,240.7179 F,2,29762,30327,1,0 S,2,29762,30327,0.7,0.14 P,0,29762,30327,A M,0,29853,29944,249.5437,240.7179,260.1663,266.3586 M,0,29944,30036,260.1663,266.3586,261.7604,294.053 M,0,30036,30127,261.7604,294.053,253.6834,320.6088
Sprite,Foreground,Centre,"sb\glow.png",0,0 C,0,30310,,172,177,189 M,0,30310,30433,165,242,161.476,214.522 F,2,30310,30756,1,0 S,2,30310,30756,0.7,0.14 P,0,30310,30756,A M,0,30433,30556,161.476,214.522,169.4185,188.066
Sprite,Foreground,Centre,"sb\glow.png",0,0 C,0,30743,,172,177,189 M,0,30743,30836,262,119,236.0114,109.0392 F,2,30743,31318,1,0 S,2,30743,31318,0.7,0.14 P,0,30743,31318,A M,0,30836,30930,236.0114,109.0392,208.5152,112.4627 M,0,30930,31024,208.5152,112.4627,181.2462,117.9406 M,0,31024,31118,181.2462,117.9406,154.7072,109.7754
Sprite,Foreground,Centre,"sb\glow.png",0,0 C,0,31340,,172,177,189 M,0,31340,31438,306,60,322.949,82.02802 F,2,31340,31934,1,0 S,2,31340,31934,0.7,0.14 P,0,31340,31934,A M,0,31438,31537,322.949,82.02802,331.0569,108.5523 M,0,31537,31636,331.0569,108.5523,329.3239,136.2003 M,0,31636,31734,329.3239,136.2003,318.2328,161.6178
Sprite,Foreground,Centre,"sb\glow.png",260,235 C,0,31932,,172,177,189 F,2,31932,32132,1,0 S,2,31932,32132,0.7,0.14 P,0,31932,32132,A
Sprite,Foreground,Centre,"sb\glow.png",0,0 C,0,32153,,103,101,124 M,0,32153,32254,314,314,341.0347,320.7743 F,2,32153,32959,1,0 S,2,32153,32959,0.7,0.14 P,0,32153,32959,A M,0,32254,32355,341.0347,320.7743,368.4509,316.4323 M,0,32355,32456,368.4509,316.4323,392.3476,316.0364 M,0,32456,32557,392.3476,316.0364,416.3547,321.7413 M,0,32557,32658,416.3547,321.7413,443.3105,314.4862 M,0,32658,32759,443.3105,314.4862,471.1251,315.9513
Sprite,Foreground,Centre,"sb\glow.png",0,0 C,0,32961,,103,101,124 M,0,32961,33062,551,375,555.1169,347.3043 F,2,32961,33363,1,0 S,2,32961,33363,0.7,0.14 P,0,32961,33363,A M,0,33062,33163,555.1169,347.3043,559.2339,319.6086
Sprite,Foreground,Centre,"sb\glow.png",0,0 C,0,33365,,103,101,124 M,0,33365,33466,463,260,467.1169,287.6957 F,2,33365,33767,1,0 S,2,33365,33767,0.7,0.14 P,0,33365,33767,A M,0,33466,33567,467.1169,287.6957,471.2339,315.3914
Sprite,Foreground,Centre,"sb\glow.png",521,199 C,0,33770,,103,101,124 F,2,33770,33970,1,0 S,2,33770,33970,0.7,0.14 P,0,33770,33970,A
Sprite,Foreground,Centre,"sb\glow.png",0,0 C,0,33984,,103,101,124 M,0,33984,34091,521,199,496.5537,185.6352 F,2,33984,34398,1,0 S,2,33984,34398,0.7,0.14 P,0,33984,34398,A M,0,34091,34198,496.5537,185.6352,469.2965,180.0545
Sprite,Foreground,Centre,"sb\glow.png",0,0 C,0,34412,,103,101,124 M,0,34412,34503,338,153,365.6297,149.1581 F,2,34412,34977,1,0 S,2,34412,34977,0.7,0.14 P,0,34412,34977,A M,0,34503,34594,365.6297,149.1581,392.4175,141.4094 M,0,34594,34685,392.4175,141.4094,417.8682,130.0068 M,0,34685,34777,417.8682,130.0068,441.5866,114.7926
Sprite,Foreground,Centre,"sb\glow.png",0,0 C,0,34977,,103,101,124 M,0,34977,35077,281,105,269.1264,130.1526 F,2,34977,35377,1,0 S,2,34977,35377,0.7,0.14 P,0,34977,35377,A M,0,35077,35177,269.1264,130.1526,266.7343,157.8175
Sprite,Foreground,Centre,"sb\glow.png",0,0 C,0,35377,,172,177,189 M,0,35377,35477,344,233,316.0327,234.3533 F,2,35377,35777,1,0 S,2,35377,35777,0.7,0.14 P,0,35377,35777,A M,0,35477,35577,316.0327,234.3533,288.0654,235.7065
Sprite,Foreground,Centre,"sb\glow.png",0,0 C,0,35777,,172,177,189 M,0,35777,35877,225,296,197.0327,294.6467 F,2,35777,36177,1,0 S,2,35777,36177,0.7,0.14 P,0,35777,36177,A M,0,35877,35977,197.0327,294.6467,169.0654,293.2935
Sprite,Foreground,Centre,"sb\glow.png",0,0 C,0,36177,,172,177,189 M,0,36177,36277,101,252,95.23067,224.9726 F,2,36177,36577,1,0 S,2,36177,36577,0.7,0.14 P,0,36177,36577,A M,0,36277,36377,95.23067,224.9726,102.2554,198.2393
Sprite,Foreground,Centre,"sb\glow.png",0,0 C,0,36577,,172,177,189 M,0,36577,36677,160,144,165.7693,116.9726 F,2,36577,36977,1,0 S,2,36577,36977,0.7,0.14 P,0,36577,36977,A M,0,36677,36777,165.7693,116.9726,158.7446,90.23927
Sprite,Foreground,Centre,"sb\glow.png",176,227 C,0,36977,,172,177,189 F,2,36977,37177,1,0 S,2,36977,37177,0.7,0.14 P,0,36977,37177,A
Sprite,Foreground,Centre,"sb\glow.png",0,0 C,0,37179,,172,177,189 M,0,37179,37280,176,227,203.0539,220.1621 F,2,37179,37784,1,0 S,2,37179,37784,0.7,0.14 P,0,37179,37784,A M,0,37280,37381,203.0539,220.1621,230.614,223.7557 M,0,37381,37483,230.614,223.7557,257.468,231.5006 M,0,37483,37584,257.468,231.5006,285.2247,229.5556
Sprite,Foreground,Centre,"sb\glow.png",0,0 C,0,37787,,172,177,189 M,0,37787,37887,377,170,365.2937,195.2766 F,2,37787,38387,1,0 S,2,37787,38387,0.7,0.14 P,0,37787,38387,A M,0,37887,37987,365.2937,195.2766,361.3156,222.8085 M,0,37987,38087,361.3156,222.8085,365.3088,250.3303 M,0,38087,38187,365.3088,250.3303,377.367,275.4029
Sprite,Foreground,Centre,"sb\glow.png",0,0 C,0,38587,,103,101,124 M,0,38587,38687,576,139,548.0712,137.0051 F,2,38587,38987,1,0 S,2,38587,38987,0.7,0.14 P,0,38587,38987,A M,0,38687,38787,548.0712,137.0051,520.1423,135.0102
Sprite,Foreground,Centre,"sb\glow.png",0,0 C,0,38987,,103,101,124 M,0,38987,39087,437,219,464.9262,216.969 F,2,38987,39387,1,0 S,2,38987,39387,0.7,0.14 P,0,38987,39387,A M,0,39087,39187,464.9262,216.969,492,215
Sprite,Foreground,Centre,"sb\glow.png",0,0 C,0,39387,,103,101,124 M,0,39387,39484,364,202,360.9073,229.5648 F,2,39387,39782,1,0 S,2,39387,39782,0.7,0.14 P,0,39387,39782,A M,0,39484,39582,360.9073,229.5648,368.5801,256.2267
Sprite,Foreground,Centre,"sb\glow.png",0,0 C,0,39777,,103,101,124 M,0,39777,39874,448,341,451.0927,313.4352 F,2,39777,40172,1,0 S,2,39777,40172,0.7,0.14 P,0,39777,40172,A M,0,39874,39972,451.0927,313.4352,443.42,286.7733
Sprite,Foreground,Centre,"sb\glow.png",0,0 C,0,40167,,103,101,124 M,0,40167,40264,362,373,334.001,372.7667 F,2,40167,41147,1,0 S,2,40167,41147,0.7,0.14 P,0,40167,41147,A M,0,40264,40362,334.001,372.7667,306.002,372.5334 M,0,40362,40459,306.002,372.5334,278.0029,372.3 M,0,40459,40557,278.0029,372.3,250.0039,372.0667 M,0,40557,40654,250.0039,372.0667,278.0029,372.3 M,0,40654,40752,278.0029,372.3,306.002,372.5334 M,0,40752,40850,306.002,372.5334,334.001,372.7667 M,0,40850,40947,334.001,372.7667,362,373
Sprite,Foreground,Centre,"sb\glow.png",0,0 C,0,41368,,103,101,124 M,0,41368,41473,199,287,184.2842,310.391 F,2,41368,41778,1,0 S,2,41368,41778,0.7,0.14 P,0,41368,41778,A M,0,41473,41578,184.2842,310.391,180.9911,337.863
Sprite,Foreground,Centre,"sb\glow.png",0,0 C,0,41788,,172,177,189 M,0,41788,41888,180,426,152.4169,422.1333 F,2,41788,42388,1,0 S,2,41788,42388,0.7,0.14 P,0,41788,42388,A M,0,41888,41988,152.4169,422.1333,125.3678,428.9623 M,0,41988,42088,125.3678,428.9623,97.89417,433.4167 M,0,42088,42188,97.89417,433.4167,70.42519,428.4094
Sprite,Foreground,Centre,"sb\glow.png",0,0 C,0,42588,,172,177,189 M,0,42588,42686,103,252,106.8668,279.5831 F,2,42588,43180,1,0 S,2,42588,43180,0.7,0.14 P,0,42588,43180,A M,0,42686,42784,106.8668,279.5831,100.0377,306.6323 M,0,42784,42882,100.0377,306.6323,95.58337,334.1058 M,0,42882,42980,95.58337,334.1058,100.5906,361.5748
Sprite,Foreground,Centre,"sb\glow.png",0,0 C,0,43372,,172,177,189 M,0,43372,43470,173,219,159.6727,194.6965 F,2,43372,44356,1,0 S,2,43372,44356,0.7,0.14 P,0,43372,44356,A M,0,43470,43568,159.6727,194.6965,137.7849,177.8195 M,0,43568,43666,137.7849,177.8195,111.0251,170.7743 M,0,43666,43764,111.0251,170.7743,83.68386,175.5337 M,0,43764,43862,83.68386,175.5337,111.0251,170.7743 M,0,43862,43960,111.0251,170.7743,137.7849,177.8195 M,0,43960,44058,137.7849,177.8195,159.6727,194.6965 M,0,44058,44156,159.6727,194.6965,173,219
Sprite,Foreground,Centre,"sb\glow.png",225,295 C,0,44359,,172,177,189 F,2,44359,44559,1,0 S,2,44359,44559,0.7,0.14 P,0,44359,44559,A
Sprite,Foreground,Centre,"sb\glow.png",0,0 C,0,44562,,172,177,189 M,0,44562,44663,281,201,308.9569,199.4468 F,2,44562,44965,1,0 S,2,44562,44965,0.7,0.14 P,0,44562,44965,A M,0,44663,44765,308.9569,199.4468,336.9138,197.8937
Sprite,Foreground,Centre,"sb\glow.png",0,0 C,0,44969,,103,101,124 M,0,44969,45070,444,117,425.8328,138.1331 F,2,44969,45779,1,0 S,2,44969,45779,0.7,0.14 P,0,44969,45779,A M,0,45070,45172,425.8328,138.1331,414.2024,163.4192 M,0,45172,45274,414.2024,163.4192,409.8259,190.9084 M,0,45274,45375,409.8259,190.9084,413.6277,218.4908 M,0,45375,45477,413.6277,218.4908,424.6392,244.0795 M,0,45477,45579,424.6392,244.0795,442.6928,265.2952
Sprite,Foreground,Centre,"sb\glow.png",0,0 C,0,45783,,103,101,124 M,0,45783,45883,518,265,512.5955,292.2602 F,2,45783,46788,1,0 S,2,45783,46788,0.7,0.14 P,0,45783,46788,A M,0,45883,45984,512.5955,292.2602,498.0429,315.8667 M,0,45984,46085,498.0429,315.8667,476.3677,333.2283 M,0,46085,46185,476.3677,333.2283,449.7902,341.4553 M,0,46185,46286,449.7902,341.4553,476.3677,333.2283 M,0,46286,46387,476.3677,333.2283,498.0429,315.8667 M,0,46387,46487,498.0429,315.8667,512.5955,292.2602 M,0,46487,46588,512.5955,292.2602,518,265
Sprite,Foreground,Centre,"sb\glow.png",0,0 C,0,46985,,103,101,124 M,0,46985,47084,393,372,384.3701,345.7123 F,2,46985,47383,1,0 S,2,46985,47383,0.7,0.14 P,0,46985,47383,A M,0,47084,47183,384.3701,345.7123,388.5966,318.3741
Sprite,Foreground,Centre,"sb\glow.png",0,0 C,0,47382,,103,101,124 M,0,47382,47482,479,433,452.2013,425.9149 F,2,47382,48387,1,0 S,2,47382,48387,0.7,0.14 P,0,47382,48387,A M,0,47482,47583,452.2013,425.9149,425.6239,433.9897 M,0,47583,47684,425.6239,433.9897,398.9279,441.8893 M,0,47684,47784,398.9279,441.8893,371.2604,438.7067 M,0,47784,47885,371.2604,438.7067,398.9279,441.8893 M,0,47885,47986,398.9279,441.8893,425.6239,433.9897 M,0,47986,48086,425.6239,433.9897,452.2013,425.9149 M,0,48086,48187,452.2013,425.9149,479,433
Sprite,Foreground,Centre,"sb\glow.png",348,363 C,0,48584,,172,177,189 F,2,48584,48784,1,0 S,2,48584,48784,0.7,0.14 P,0,48584,48784,A
Sprite,Foreground,Centre,"sb\glow.png",0,0 C,0,48981,,172,177,189 M,0,48981,49083,214,432,240.7987,424.9149 F,2,48981,49589,1,0 S,2,48981,49589,0.7,0.14 P,0,48981,49589,A M,0,49083,49185,240.7987,424.9149,267.3761,432.9896 M,0,49185,49287,267.3761,432.9896,294.0722,440.8893 M,0,49287,49389,294.0722,440.8893,321.7396,437.7067
Sprite,Foreground,Centre,"sb\glow.png",0,0 C,0,49797,,172,177,189 M,0,49797,49896,222,337,202.3764,356.4453 F,2,49797,50395,1,0 S,2,49797,50395,0.7,0.14 P,0,49797,50395,A M,0,49896,49996,202.3764,356.4453,193.7647,382.5871 M,0,49996,50095,193.7647,382.5871,197.7011,409.8387 M,0,50095,50195,197.7011,409.8387,213.9696,432.2122
Sprite,Foreground,Centre,"sb\glow.png",300,368 C,0,50394,,172,177,189 F,2,50394,50594,1,0 S,2,50394,50594,0.7,0.14 P,0,50394,50594,A
Sprite,Foreground,Centre,"sb\glow.png",0,0 C,0,50593,,172,177,189 M,0,50593,50686,228,315,200.1713,311.9079 F,2,50593,50979,1,0 S,2,50593,50979,0.7,0.14 P,0,50593,50979,A M,0,50686,50779,200.1713,311.9079,172.3425,308.8159
Sprite,Foreground,Centre,"sb\glow.png",0,0 C,0,50966,,172,177,189 M,0,50966,51059,64,232,91.82874,228.9079 F,2,50966,51352,1,0 S,2,50966,51352,0.7,0.14 P,0,50966,51352,A M,0,51059,51152,91.82874,228.9079,119.6575,225.8158
Sprite,Foreground,Centre,"sb\glow.png",0,0 C,0,51340,,103,101,124 M,0,51340,51443,255,222,231.9651,237.2873 F,2,51340,52364,1,0 S,2,51340,52364,0.7,0.14 P,0,51340,52364,A M,0,51443,51546,231.9651,237.2873,218.3053,261.2079 M,0,51546,51649,218.3053,261.2079,216.3045,288.7654 M,0,51649,51752,216.3045,288.7654,227.7635,313.916 M,0,51752,51855,227.7635,313.916,216.3045,288.7654 M,0,51855,51958,216.3045,288.7654,218.3053,261.2079 M,0,51958,52061,218.3053,261.2079,231.9651,237.2873 M,0,52061,52164,231.9651,237.2873,255,222
Sprite,Foreground,Centre,"sb\glow.png",0,0 C,0,52558,,103,101,124 M,0,52558,52656,316,336,343.7289,338.3107 F,2,52558,53353,1,0 S,2,52558,53353,0.7,0.14 P,0,52558,53353,A M,0,52656,52755,343.7289,338.3107,368.4902,345.9869 M,0,52755,52854,368.4902,345.9869,385.3072,368.0301 M,0,52854,52952,385.3072,368.0301,413,370.7391 M,0,52952,53051,413,370.7391,440.6928,373.4482 M,0,53051,53153,440.6928,373.4482,469.4306,376.2595
Sprite,Foreground,Centre,"sb\glow.png",0,0 C,0,53353,,103,101,124 M,0,53353,53453,576,406,556.2923,386.4235 F,2,53353,53953,1,0 S,2,53353,53953,0.7,0.14 P,0,53353,53953,A M,0,53453,53553,556.2923,386.4235,544.9553,361.1325 M,0,53553,53653,544.9553,361.1325,543.0606,333.4388 M,0,53653,53753,543.0606,333.4388,551.9232,307.1266
Sprite,Foreground,Centre,"sb\glow.png",0,0 C,0,54153,,103,101,124 M,0,54153,54253,502,114,474.0892,111.7671 F,2,54153,54553,1,0 S,2,54153,54553,0.7,0.14 P,0,54153,54553,A M,0,54253,54353,474.0892,111.7671,446.1783,109.5343
Sprite,Foreground,Centre,"sb\glow.png",340,169 C,0,54553,,172,177,189 F,2,54553,54753,1,0 S,2,54553,54753,0.7,0.14 P,0,54553,54753,A
Sprite,Foreground,Centre,"sb\glow.png",0,0 C,0,55343,,172,177,189 M,0,55343,55439,340,169,331.4369,195.5964 F,2,55343,56119,1,0 S,2,55343,56119,0.7,0.14 P,0,55343,56119,A M,0,55439,55535,331.4369,195.5964,330.6306,223.4573 M,0,55535,55631,330.6306,223.4573,337.3406,250.6057 M,0,55631,55727,337.3406,250.6057,344.3793,277.6849 M,0,55727,55823,344.3793,277.6849,345.941,305.576 M,0,55823,55919,345.941,305.576,341.5455,333.188
Sprite,Foreground,Centre,"sb\glow.png",0,0 C,0,56180,,172,177,189 M,0,56180,56278,293,414,265.0497,412.3313 F,2,56180,56577,1,0 S,2,56180,56577,0.7,0.14 P,0,56180,56577,A M,0,56278,56377,265.0497,412.3313,237.0995,410.6627
Sprite,Foreground,Centre,"sb\glow.png",0,0 C,0,56574,,172,177,189 M,0,56574,56672,173,355,169.4853,327.3205 F,2,56574,57168,1,0 S,2,56574,57168,0.7,0.14 P,0,56574,57168,A M,0,56672,56771,169.4853,327.3205,179.1402,301.5136 M,0,56771,56870,179.1402,301.5136,190.3256,276.2188 M,0,56870,56968,190.3256,276.2188,188.6089,248.3896
Sprite,Foreground,Centre,"sb\glow.png",0,0 C,0,57381,,172,177,189 M,0,57381,57483,281,131,308.9503,129.3313 F,2,57381,57786,1,0 S,2,57381,57786,0.7,0.14 P,0,57381,57786,A M,0,57483,57586,308.9503,129.3313,336.9005,127.6627
Sprite,Foreground,Centre,"sb\glow.png",443,170 C,0,57792,,103,101,124 F,2,57792,57992,1,0 S,2,57792,57992,0.7,0.14 P,0,57792,57992,A
Sprite,Foreground,Centre,"sb\glow.png",180,155 C,0,60781,,172,177,189 F,2,60781,60981,1,0 S,2,60781,60981,0.7,0.14 P,0,60781,60981,A
Sprite,Foreground,Centre,"sb\glow.png",180,155 C,0,60983,,172,177,189 F,2,60983,61183,1,0 S,2,60983,61183,0.7,0.14 P,0,60983,61183,A
Sprite,Foreground,Centre,"sb\glow.png",180,155 C,0,62386,,103,101,124 F,2,62386,62586,1,0 S,2,62386,62586,0.7,0.14 P,0,62386,62586,A
Sprite,Foreground,Centre,"sb\glow.png",0,0 C,0,62568,,103,101,124 M,0,62568,62670,303,233,275.8419,239.3221 F,2,62568,62973,1,0 S,2,62568,62973,0.7,0.14 P,0,62568,62973,A M,0,62670,62773,275.8419,239.3221,248.0072,238.3462
Sprite,Foreground,Centre,"sb\glow.png",0,0 C,0,62978,,103,101,124 M,0,62978,63080,340,166,367.1581,159.6779 F,2,62978,63383,1,0 S,2,62978,63383,0.7,0.14 P,0,62978,63383,A M,0,63080,63183,367.1581,159.6779,394.9928,160.6538
Sprite,Foreground,Centre,"sb\glow.png",504,187 C,0,63389,,103,101,124 F,2,63389,63589,1,0 S,2,63389,63589,0.7,0.14 P,0,63389,63589,A
Sprite,Foreground,Centre,"sb\glow.png",439,77 C,0,63594,,103,101,124 F,2,63594,63794,1,0 S,2,63594,63794,0.7,0.14 P,0,63594,63794,A
Sprite,Foreground,Centre,"sb\glow.png",0,0 C,0,63784,,103,101,124 M,0,63784,63879,375,226,367.5126,252.6944 F,2,63784,64269,1,0 S,2,63784,64269,0.7,0.14 P,0,63784,64269,A M,0,63879,63974,367.5126,252.6944,370.9934,280.1294 M,0,63974,64069,370.9934,280.1294,384.8564,304.0285
Sprite,Foreground,Centre,"sb\glow.png",397,350 C,0,134559,,103,101,124 F,2,134559,134759,1,0 S,2,134559,134759,1,0.2 P,0,134559,134759,A
Sprite,Foreground,Centre,"sb\glow.png",320,248 C,0,134658,,103,101,124 F,2,134658,142727,1,0 S,2,134658,142727,1,0.2 P,0,134658,142727,A
//Storyboard Layer 4 (Overlay)
//Storyboard Sound Samples

[TimingPoints]
170,830.449826989619,4,2,2,40,1,0
170,-66.6666666666667,4,2,2,40,0,0
1000,796.28400796284,4,2,2,40,1,8
1000,-66.6666666666667,4,2,2,40,0,0
1796,750,4,2,2,40,1,8
2171,842.105263157895,4,2,2,40,1,8
2592,796.28400796284,4,2,2,40,1,8
3388,802.675585284281,4,2,2,40,1,8
3388,-66.6666666666667,4,2,2,40,0,0
5796,863.309352517986,4,2,2,40,1,8
5796,-95.2380952380952,4,2,2,40,0,8
6227,738.461538461538,4,2,2,40,1,8
6596,793.650793650794,4,2,2,40,1,8
6596,-66.6666666666667,4,2,2,40,0,0
9780,852.272727272727,4,2,2,40,1,8
9780,-66.6666666666667,4,2,2,40,0,0
10633,768.245838668374,4,2,2,40,1,8
10633,-66.6666666666667,4,2,2,40,0,0
11401,857.142857142857,4,2,2,40,1,8
11401,-66.6666666666667,4,2,2,40,0,0
11829,717.703349282297,4,2,2,40,1,8
12187,789.473684210526,4,2,2,40,1,8
12976,800,4,2,2,40,1,0
12976,-62.5,4,2,2,40,0,0
16176,778.210116731518,4,2,2,40,1,8
16176,-62.5,4,2,2,40,0,0
16759,-62.5,4,2,2,15,0,0
16954,795.755968169761,4,2,2,40,1,8
16954,-62.5,4,2,2,40,0,0
18545,784.313725490196,4,2,2,40,1,8
18545,-62.5,4,2,2,40,0,0
19329,833.333333333333,4,2,2,40,1,8
19329,-62.5,4,2,2,40,0,0
20162,802.675585284281,4,2,2,40,1,8
20162,-62.5,4,2,2,40,0,0
20964,778.210116731518,4,2,2,40,1,8
20964,-62.5,4,2,2,40,0,0
21742,810.810810810811,4,2,2,40,1,8
21742,-62.5,4,2,2,40,0,0
22552,810.810810810811,4,2,2,40,1,8
22552,-62.5,4,2,2,40,0,8
23985,781.758957654723,4,2,2,40,1,8
23985,-62.5,4,2,2,40,0,0
24180,776.196636481242,4,2,2,40,1,8
24180,-62.5,4,2,2,40,0,0
24956,800,4,2,2,40,1,8
24956,-62.5,4,2,2,40,0,0
25656,-62.5,4,2,2,5,0,0
25756,813.008130081301,4,2,2,40,1,0
25756,-62.5,4,2,2,40,0,0
26569,810.810810810811,4,2,2,40,1,8
26569,-62.5,4,2,2,40,0,0
27379,800,4,2,2,40,1,8
27379,-62.5,4,2,2,40,0,0
28179,791.55672823219,4,2,2,40,1,8
28179,-62.5,4,2,2,40,0,0
28970,791.55672823219,4,2,2,40,1,8
28970,-62.5,4,2,2,40,0,0
29762,731.707317073171,4,2,2,40,1,8
29762,-62.5,4,2,2,40,0,0
30310,987.654320987654,4,2,2,40,1,8
30310,-62.5,4,2,2,40,0,0
30556,750,4,2,2,40,1,8
30556,-62.5,4,2,2,40,0,0
31118,888.888888888889,4,2,2,40,1,8
31118,-62.5,4,2,2,40,0,0
31340,789.473684210526,4,2,2,40,1,8
31340,-62.5,4,2,2,40,0,0
31932,885.608856088561,4,2,2,40,1,8
31932,-62.5,4,2,2,40,0,0
32153,808.625336927224,4,2,2,40,1,8
32153,-62.5,4,2,2,40,0,0
33770,857.142857142857,4,2,2,40,1,8
33770,-62.5,4,2,2,40,0,0
34412,728.597449908925,4,2,2,40,1,8
34412,-62.65664160401,4,2,2,40,0,0
34577,800,4,2,2,40,1,8
34577,-62.5,4,2,2,40,0,0
35377,800,4,2,2,40,1,8
35377,-62.5,4,2,2,40,0,0
36977,810.810810810811,4,2,2,40,1,8
36977,-62.5,4,2,2,40,0,0
37787,800,4,2,2,40,1,8
37787,-62.5,4,2,2,40,0,0
38587,800,4,2,2,40,1,0
38587,-62.5,4,2,2,40,0,0
39387,780.741704619388,4,2,2,40,1,8
39387,-62.5,4,2,2,40,0,0
40948,840.336134453781,4,2,2,40,1,8
40948,-62.5,4,2,2,40,0,0
41788,800,4,2,2,40,1,8
41788,-62.5,4,2,2,40,0,0
42588,784.313725490196,4,2,2,40,1,8
42588,-62.5,4,2,2,40,0,0
44156,813.559322033898,4,2,2,40,1,8
44156,-62.5,4,2,2,40,0,0
44969,813.559322033898,4,2,2,40,1,8
44969,-62.5,4,2,2,40,0,0
45783,805.369127516779,4,2,2,40,1,8
45783,-62.5,4,2,2,40,0,0
46588,794.701986754967,4,2,2,40,1,8
46588,-62.5,4,2,2,40,0,0
47382,805.369127516779,4,2,2,40,1,8
47382,-62.5,4,2,2,40,0,0
48187,794.701986754967,4,2,2,40,1,8
48187,-62.5,4,2,2,40,0,0
48981,816.326530612245,4,2,2,40,1,8
48981,-62.5,4,2,2,40,0,0
49797,796.812749003984,4,2,2,40,1,8
49797,-62.5,4,2,2,40,0,0
50593,747.19800747198,4,2,2,40,1,8
50593,-62.5,4,2,2,40,0,0
51340,824.742268041237,4,2,2,40,1,0
51340,-62.5,4,2,2,40,0,0
52164,789.473684210526,4,2,2,40,1,8
52164,-62.8930817610063,4,2,2,40,0,0
52953,800,4,2,2,40,1,8
52953,-62.5,4,2,2,40,0,0
54553,790.513833992095,4,2,2,40,1,8
54553,-62.5,4,2,2,40,0,0
55343,769.230769230769,4,2,2,40,1,8
55343,-62.5,4,2,2,40,0,0
55919,1046.2074978204,4,2,2,40,1,8
56180,789.473684210526,4,2,2,40,1,8
56180,-62.5,4,2,2,40,0,0
56971,821.917808219178,4,2,2,40,1,8
56971,-62.5,4,2,2,40,0,0
57792,771.704180064309,4,2,2,40,1,8
57792,-62.5,4,2,2,40,0,0
58567,805.369127516779,4,2,2,40,1,8
58567,-62.5,4,2,2,40,0,0
60985,766.283524904215,4,2,2,40,1,8
60985,-50,4,2,2,40,0,0
61753,845.070422535211,4,2,2,40,1,8
61753,-62.5,4,2,2,40,0,0
62386,731.707317073171,4,2,2,40,1,8
62386,-62.5,4,2,2,40,0,0
62568,821.917808219178,4,2,2,40,1,8
62568,-62.5,4,2,2,40,0,0
63389,821.917808219178,4,2,2,40,1,8
63389,-62.5,4,2,2,40,0,0
63594,761.904761904762,4,2,2,40,1,8
63594,-62.5,4,2,2,40,0,0
64070,-62.5,4,2,2,5,0,0
64165,827.586206896552,4,2,2,60,1,1
64165,-50,4,2,2,60,0,1
64991,800.800800800801,4,2,2,60,1,8
64991,-50,4,2,2,60,0,0
67393,800,4,2,2,60,1,8
67393,-50,4,2,2,60,0,0
72193,821.917808219178,4,2,2,60,1,8
72193,-50,4,2,2,60,0,0
73793,800,4,2,2,60,1,8
73793,-50,4,2,2,60,0,0
76993,800,4,2,2,60,1,0
76993,-50,4,2,2,60,0,0
82993,781.758957654723,4,2,2,60,1,8
82993,-50,4,2,2,60,0,8
83383,800,4,2,2,60,1,8
83383,-50,4,2,2,60,0,8
88197,800,4,2,2,60,1,8
88197,-50,4,2,2,60,0,0
89797,800,4,2,2,60,1,0
89797,-50,4,2,2,60,0,0
100197,833.333333333333,4,2,2,60,1,8
100197,-50,4,2,2,60,0,0
100597,797.34219269103,4,2,2,60,1,8
100597,-50,4,2,2,60,0,0
100796,761.904761904762,4,2,2,60,1,8
100796,-50,4,2,2,60,0,0
100986,795.755968169761,4,2,2,60,1,8
100986,-50,4,2,2,60,0,0
101383,800,4,2,2,60,1,8
101383,-50,4,2,2,60,0,0
101583,634.920634920635,4,2,2,60,1,8
101583,-50,4,2,2,60,0,0
101741,909.090909090909,4,2,2,60,1,8
101741,-50,4,2,2,60,0,0
101968,784.313725490196,4,2,2,60,1,8
101968,-50,4,2,2,60,0,0
102163,810.810810810811,4,2,2,60,1,8
102163,-50,4,2,2,60,0,0
102467,-50,4,2,2,5,0,0
102574,810.810810810811,4,2,3,80,1,1
102574,-41.6666666666667,4,2,3,80,0,1
104195,779.220779220779,4,2,3,80,1,9
104195,-41.6666666666667,4,2,3,80,0,1
105363,810.810810810811,4,2,3,80,1,9
105363,-41.6666666666667,4,2,3,80,0,1
105767,800,4,2,3,80,1,9
105767,-41.6666666666667,4,2,3,80,0,1
106567,805.369127516779,4,2,3,80,1,9
106567,-41.6666666666667,4,2,3,80,0,1
108177,784.313725490196,4,2,3,80,1,9
108177,-41.6666666666667,4,2,3,80,0,1
108569,810.810810810811,4,2,3,80,1,9
108569,-41.6666666666667,4,2,3,80,0,1
108974,800,4,2,3,80,1,9
108974,-41.6666666666667,4,2,3,80,0,1
114576,783.289817232376,4,2,3,80,1,9
114576,-41.6666666666667,4,2,3,80,0,1
115361,808.080808080808,4,2,3,80,1,1
115361,-41.6666666666667,4,2,3,80,0,1
118593,800,4,2,3,80,1,9
118593,-41.6666666666667,4,2,3,80,0,1
126589,754.716981132075,4,2,3,80,1,9
126589,-41.6666666666667,4,2,3,80,0,1
127343,805.369127516779,4,2,3,80,1,9
127343,-41.6666666666667,4,2,3,80,0,1
128148,830.449826989619,4,2,3,80,1,1
128148,-41.6666666666667,4,2,3,80,0,1
128978,792.079207920792,4,2,3,80,1,9
128978,-41.6666666666667,4,2,3,80,0,1
129770,797.34219269103,4,2,3,80,1,9
129770,-41.6666666666667,4,2,3,80,0,1
130567,804.289544235925,4,2,3,80,1,9
130567,-41.6666666666667,4,2,3,80,0,1
131372,796.812749003984,4,2,3,80,1,9
131372,-41.6666666666667,4,2,3,80,0,1
134459,-41.6666666666667,4,2,3,5,0,1
134559,-41.6666666666667,4,2,3,80,0,0
136152,-50,4,2,3,50,0,0
137746,-50,4,2,3,30,0,0
140933,-50,4,2,3,5,0,0

[Colours]
Combo1 : 172,177,189
Combo2 : 103,101,124

[HitObjects]
56,127,170,6,0,B|14:235|83:235|50:343,1,210.000008010865,2|2,0:0|0:0,0:0:0:0:
56,127,1796,1,2,0:0:0:0:
139,76,2171,1,2,0:0:0:0:
224,26,2592,2,0,P|235:72|220:130,1,105.000004005432,2|0,0:0|0:0,0:0:0:0:
132,186,3388,2,0,B|185:186|185:186|225:202|225:202|343:202,2,210.000008010865,2|2|2,0:0|0:0|0:0,0:0:0:0:
228,117,5394,1,0,0:0:0:0:
338,201,5796,2,0,P|347:252|317:298,1,105.000004005432,2|0,0:0|0:0,0:0:0:0:
255,357,6596,6,0,B|359:336|353:413|481:365,2,210.000008010865,2|2|2,0:0|0:0|0:0,0:0:0:0:
164,306,8580,1,0,0:0:0:0:
61,241,8976,2,0,L|58:358,1,105.000004005432,2|0,0:0|0:0,0:0:0:0:
10,186,9780,2,0,B|51:150|105:178|105:178|118:166|118:166|168:193|216:156,1,210.000008010865,2|2,0:0|0:0,0:0:0:0:
37,178,11401,1,2,0:0:0:0:
133,243,11829,1,0,0:0:0:0:
203,164,12187,2,0,P|259:144|314:164,1,105,2|0,0:0|0:0,0:0:0:0:
350,221,12976,6,0,P|428:288|501:214,1,224,2|0,1:2|0:0,0:0:0:0:
507,100,14176,2,0,P|480:93|443:98,1,56,2|0,0:0|0:0,0:0:0:0:
347,122,14576,1,2,0:0:0:0:
253,0,14976,1,2,0:0:0:0:
141,92,15376,2,0,B|195:112|199:76|262:95,1,112,2|0,0:0|0:0,0:0:0:0:
72,52,16176,6,0,B|53:83|62:118|62:118|54:130|54:130|65:170|43:212,1,168,2|0,0:0|0:0,0:0:0:0:
0,298,16954,2,0,L|67:292,1,56,2|0,0:0|0:0,0:0:0:0:
137,232,17351,1,2,0:0:0:0:
137,232,17550,2,0,L|204:238,1,56,2|0,0:0|0:0,0:0:0:0:
296,220,17948,2,0,P|268:273|288:319,1,112,2|0,0:0|0:0,0:0:0:0:
375,322,18545,2,0,L|441:321,1,56,2|0,0:0|0:0,0:0:0:0:
506,259,18937,1,2,0:0:0:0:
489,163,19133,1,2,0:0:0:0:
380,157,19329,6,0,B|352:238|401:244|372:333,1,168,2|0,1:2|0:0,0:0:0:0:
252,286,20162,2,0,L|321:279,1,56,2|0,0:0|0:0,0:0:0:0:
214,217,20563,2,0,L|145:210,1,56,2|0,0:0|0:0,0:0:0:0:
82,275,20964,1,2,0:0:0:0:
82,275,21159,2,0,P|57:220|74:163,1,112,2|2,0:0|0:0,0:0:0:0:
134,103,21742,2,0,L|68:92,1,56,2|2,0:0|0:0,0:0:0:0:
179,179,22147,2,0,L|245:168,1,56,2|0,0:0|0:0,0:0:0:0:
106,233,22552,6,0,L|100:290,1,56,2|0,0:0|0:0,0:0:0:0:
183,365,22957,2,0,L|177:308,1,56,2|0,0:0|0:0,0:0:0:0:
58,343,23362,2,0,P|82:355|120:355,1,56,2|0,0:0|0:0,0:0:0:0:
33,264,23768,1,2,0:0:0:0:
33,264,23985,2,0,P|57:252|95:252,1,56,2|0,0:0|0:0,0:0:0:0:
174,291,24374,2,0,L|238:287,1,56,2|0,0:0|0:0,0:0:0:0:
299,228,24762,2,0,L|363:232,1,56,2|0,0:0|0:0,0:0:0:0:
444,309,25156,2,0,P|434:238|482:191,1,140,2|0,0:0|0:0,0:0:0:0:
512,182,25756,6,0,L|386:164,2,112,2|2|2,1:2|0:0|0:0,0:0:0:0:
483,90,26771,1,0,0:0:0:0:
380,103,26974,2,0,P|345:130|334:164,1,56,2|2,0:0|0:0,0:0:0:0:
382,235,27379,2,0,P|329:212|267:252,1,112,2|0,0:0|0:0,0:0:0:0:
322,384,28179,2,0,P|343:332|317:261,1,112,2|0,0:0|0:0,0:0:0:0:
247,323,28772,1,0,0:0:0:0:
189,264,28970,6,0,B|116:265|116:265|102:274|102:274|22:273,1,168,2|0,0:0|0:0,0:0:0:0:
167,164,29762,2,0,P|196:208|181:279,1,112,2|2,0:0|0:0,0:0:0:0:
101,186,30310,2,0,P|97:161|110:124,1,56,2|0,0:0|0:0,0:0:0:0:
198,63,30743,2,0,B|143:31|139:86|81:48,1,112,2|0,0:0|0:0,0:0:0:0:
242,4,31340,2,0,P|268:63|238:123,1,112,2|2,0:0|0:0,0:0:0:0:
196,179,31932,1,2,0:0:0:0:
250,258,32153,6,0,B|288:274|318:253|318:253|343:270|343:270|383:250|417:263,1,168,2|0,1:2|0:0,0:0:0:0:
487,319,32961,2,0,L|498:245,1,56,2|0,0:0|0:0,0:0:0:0:
399,204,33365,2,0,L|410:278,1,56,2|0,0:0|0:0,0:0:0:0:
457,143,33770,1,2,0:0:0:0:
457,143,33984,2,0,P|425:127|384:125,1,56,2|0,0:0|0:0,0:0:0:0:
274,97,34412,2,0,P|330:85|380:57,1,112,2|0,0:0|0:0,0:0:0:0:
217,49,34977,2,0,P|205:74|205:116,1,56,2|0,0:0|0:0,0:0:0:0:
280,177,35377,6,0,L|218:180,1,56,2|0,0:0|0:0,0:0:0:0:
161,240,35777,2,0,L|99:237,1,56,2|0,0:0|0:0,0:0:0:0:
37,196,36177,2,0,P|31:167|40:139,1,56,2|0,0:0|0:0,0:0:0:0:
96,88,36577,2,0,P|102:59|93:31,1,56,2|0,0:0|0:0,0:0:0:0:
112,171,36977,1,2,0:0:0:0:
112,171,37179,2,0,B|171:148|173:190|230:171,1,112,2|0,0:0|0:0,0:0:0:0:
313,114,37787,2,0,P|297:169|324:233,1,112,2|2,0:0|0:0,0:0:0:0:
512,83,38587,6,0,L|456:79,1,56,2|0,1:2|0:0,0:0:0:0:
373,163,38987,2,0,L|428:159,1,56,2|0,0:0|0:0,0:0:0:0:
300,146,39387,2,0,P|297:177|306:203,1,56,2|0,0:0|0:0,0:0:0:0:
384,285,39777,2,0,P|387:254|378:228,1,56,2|0,0:0|0:0,0:0:0:0:
298,317,40167,2,0,L|178:316,2,112,2|2|2,0:0|0:0|0:0,0:0:0:0:
135,231,41368,2,0,P|120:254|117:282,1,56,2|0,0:0|0:0,0:0:0:0:
116,370,41788,6,0,B|63:354|65:393|-1:370,1,112,2|0,0:0|0:0,0:0:0:0:
39,196,42588,2,0,B|55:249|16:247|39:313,1,112,2|0,0:0|0:0,0:0:0:0:
109,163,43372,2,0,P|82:126|16:121,2,112,2|2|0,0:0|0:0|0:0,0:0:0:0:
161,239,44359,1,0,0:0:0:0:
217,145,44562,2,0,L|289:141,1,56,2|2,0:0|0:0,0:0:0:0:
380,61,44969,6,0,P|346:144|388:217,1,168,2|0,1:2|0:0,0:0:0:0:
454,209,45783,2,0,P|437:257|381:286,2,112,2|0|2,0:0|0:0|0:0,0:0:0:0:
329,316,46985,2,0,P|320:287|327:257,1,56
415,377,47382,2,0,B|363:351|363:407|291:377,2,112,2|2|2,0:0|0:0|0:0,0:0:0:0:
284,307,48584,5,0,0:0:0:0:
150,376,48981,2,0,B|202:350|202:406|274:376,1,112,2|2,0:0|0:0,0:0:0:0:
158,281,49797,2,0,P|129:332|152:378,1,112,2|0,0:0|0:0,0:0:0:0:
236,312,50394,1,0,0:0:0:0:
164,259,50593,2,0,L|92:251,1,56,2|0,0:0|0:0,0:0:0:0:
0,176,50966,2,0,L|72:168,1,56,2|0,0:0|0:0,0:0:0:0:
191,166,51340,6,0,P|153:208|173:268,2,112,2|2|2,1:2|0:0|0:0,0:0:0:0:
252,280,52558,2,0,B|300:284|300:284|321:312|321:312|413:321,1,168,2|0,0:0|0:0,0:0:0:0:
512,350,53353,2,0,P|479:297|495:240,1,112,2|0,0:0|0:0,0:0:0:0:
438,58,54153,2,0,L|363:52,1,56,2|0,0:0|0:0,0:0:0:0:
276,113,54553,5,2,0:0:0:0:
276,113,55343,2,0,B|244:186|300:198|276:283,1,168,2|2,0:0|0:0,0:0:0:0:
229,358,56180,2,0,L|162:354,1,56,2|0,0:0|0:0,0:0:0:0:
109,299,56574,2,0,B|92:231|142:258|122:181,1,112,2|0,0:0|0:0,0:0:0:0:
217,75,57381,2,0,L|284:71,1,56,2|0,0:0|0:0,0:0:0:0:
379,114,57792,5,0,3:0:0:0:
116,99,60781,5,0,3:0:0:0:
116,99,60983,1,0,3:0:0:0:
116,99,62386,5,0,3:0:0:0:
239,177,62568,2,0,P|205:184|166:178,1,56,8|0,0:0|0:0,0:0:0:0:
276,110,62978,2,0,P|310:103|349:109,1,56,8|0,0:3|0:0,0:0:0:0:
440,131,63389,1,10,0:0:0:0:
375,21,63594,1,10,0:0:0:0:
311,170,63784,2,0,P|305:219|336:261,1,84,4|0,0:3|0:0,0:0:0:0:
368,277,64165,6,0,B|302:252|303:299|225:271,1,140,6|2,3:2|0:0,0:0:0:0:
368,277,64992,1,8,0:0:0:0:
448,331,65191,1,0,0:0:0:0:
497,253,65391,2,0,L|500:177,1,70,2|2,0:0|0:0,0:0:0:0:
494,63,65791,2,0,P|470:120|416:89,2,140,0|0|8,3:0|3:0|0:0,0:0:0:0:
402,18,66792,1,0,0:0:0:0:
312,69,66993,2,0,P|274:79|240:70,1,70
168,0,67393,6,0,B|149:30|164:55|164:55|155:75|155:75|175:101|161:139,2,140,0|0|10,3:0|0:0|0:0,0:0:0:0:
240,73,68393,2,0,B|277:78|277:78|327:70,1,70,2|0,0:0|0:0,0:0:0:0:
386,18,68793,2,0,L|383:92,1,70,2|0,0:0|3:0,0:0:0:0:
470,140,69193,2,0,B|441:136|424:151|424:151|376:184|331:143,1,140,2|0,0:0|0:0,0:0:0:0:
465,209,69793,2,0,P|470:248|458:284,1,70,10|0,0:0|0:0,0:0:0:0:
385,323,70193,2,0,P|380:284|392:248,1,70,2|2,0:0|0:0,0:0:0:0:
323,361,70593,6,0,P|258:384|179:354,2,140,0|0|8,3:0|0:0|0:0,0:0:0:0:
278,283,71593,1,0,0:0:0:0:
159,306,71793,2,0,P|132:332|126:365,1,70,2|0,0:0|0:0,0:0:0:0:
52,308,72193,2,0,P|25:282|19:249,1,70,2|0,3:2|0:0,0:0:0:0:
23,167,72603,2,0,L|93:177,1,70,2|0,3:2|0:0,0:0:0:0:
155,242,73014,2,0,L|86:252,1,70,10|0,0:0|0:0,0:0:0:0:
173,174,73425,2,0,L|242:183,1,70,2|0,0:0|0:0,0:0:0:0:
335,252,73793,6,0,P|322:186|368:129,2,140,2|2|10,3:2|0:0|0:0,0:0:0:0:
426,216,74793,1,0,0:0:0:0:
498,296,74993,2,0,P|465:305|425:296,1,70,2|0,0:0|0:0,0:0:0:0:
335,252,75393,1,2,3:2:0:0:
267,353,75593,2,0,P|258:320|267:280,1,70,2|0,0:0|3:0,0:0:0:0:
194,201,75993,2,0,P|203:234|194:274,1,70,2|8,0:0|0:0,0:0:0:0:
131,336,76393,2,0,B|175:336|175:336|204:352|204:352|279:353,1,140,2|0,0:0|0:0,0:0:0:0:
361,312,76993,6,0,L|439:310,1,70,2|0,3:2|0:0,0:0:0:0:
459,375,77393,2,0,P|500:324|461:246,2,140,2|8|2,0:0|0:0|0:0,0:0:0:0:
364,344,78393,1,2,0:0:0:0:
408,261,78593,2,0,L|486:258,1,70,0|0,3:0|0:0,0:0:0:0:
377,188,78993,2,0,L|299:185,1,70,0|0,3:0|0:0,0:0:0:0:
456,188,79393,2,0,P|469:154|454:110,1,70,8|0,0:0|0:0,0:0:0:0:
390,56,79793,2,0,P|377:90|392:134,1,70
509,0,80193,6,0,B|481:-10|461:1|461:1|439:18|439:18|410:29|349:22,2,140,0|0|10,3:0|0:0|0:0,0:0:0:0:
479,87,81193,1,0,0:0:0:0:
389,144,81393,2,0,P|352:156|313:145,1,70,2|2,0:0|0:0,0:0:0:0:
251,78,81793,2,0,L|256:230,2,140,0|0|10,3:0|3:0|0:0,0:0:0:0:
160,64,82793,5,2,0:0:0:0:
94,148,82993,2,0,P|131:167|181:161,1,70,2|0,0:0|0:0,0:0:0:0:
29,98,83383,6,0,B|-10:160|38:176|20:244,2,140,2|2|10,3:2|0:0|0:0,0:0:0:0:
105,158,84383,1,0,0:0:0:0:
181,98,84583,2,0,P|195:135|190:175,1,70
113,259,84983,2,0,L|187:256,1,70,2|0,3:2|0:0,0:0:0:0:
263,182,85383,2,0,L|189:179,1,70,2|0,3:2|0:0,0:0:0:0:
283,287,85783,1,10,0:0:0:0:
263,182,85983,1,0,0:0:0:0:
283,287,86183,2,0,B|320:282|320:282|369:303,1,70,2|0,0:0|0:0,0:0:0:0:
457,354,86583,6,0,B|387:331|387:380|317:356,2,140,2|2|10,3:2|0:0|0:0,0:0:0:0:
408,271,87583,1,0,0:0:0:0:
471,207,87783,2,0,P|480:170|472:131,1,70,2|2,0:0|0:0,0:0:0:0:
415,74,88197,2,0,L|488:68,1,70,0|2,3:0|0:0,0:0:0:0:
409,166,88597,2,0,L|336:160,1,70,0|0,3:0|0:0,0:0:0:0:
234,197,88997,2,0,P|269:150|234:77,1,140,8|2,0:0|0:0,0:0:0:0:
161,135,89597,1,0,0:0:0:0:
57,77,89797,5,2,3:2:0:0:
57,77,89997,2,0,P|51:118|63:146,1,70,2|0,0:0|0:0,0:0:0:0:
131,208,90397,1,2,0:0:0:0:
113,298,90597,2,0,P|64:288|55:371,1,140,8|2,0:0|0:0,0:0:0:0:
133,384,91197,1,2,0:0:0:0:
198,321,91397,2,0,P|234:312|274:325,1,70,2|0,3:2|0:0,0:0:0:0:
339,359,91797,2,0,P|375:368|415:355,1,70,2|0,3:2|0:0,0:0:0:0:
472,249,92197,2,0,B|436:312|491:323|468:387,1,140,10|2,0:0|0:0,0:0:0:0:
374,304,92797,1,0,0:0:0:0:
472,249,92997,6,0,L|400:242,1,70,0|0,3:0|0:0,0:0:0:0:
318,177,93397,2,0,L|390:170,1,70,0|0,0:0|0:0,0:0:0:0:
296,249,93797,2,0,B|252:246|252:246|221:257|221:257|145:249,1,140,10|0,0:0|0:0,0:0:0:0:
92,184,94397,1,0,0:0:0:0:
164,123,94597,2,0,P|186:186|155:253,2,140,2|2|8,3:2|3:2|0:0,0:0:0:0:
69,76,95597,1,2,0:0:0:0:
153,22,95797,2,0,L|228:18,1,70,2|2,0:0|0:0,0:0:0:0:
311,82,96197,6,0,P|299:47|309:10,1,70,2|0,3:2|0:0,0:0:0:0:
421,83,96597,2,0,P|433:118|423:155,1,70,2|0,0:0|0:0,0:0:0:0:
379,207,96997,2,0,L|310:210,1,70,8|0,0:0|0:0,0:0:0:0:
415,287,97397,2,0,L|485:290,1,70,2|0,0:0|0:0,0:0:0:0:
324,333,97797,2,0,P|291:283|326:194,2,140,2|2|8,3:2|3:2|0:0,0:0:0:0:
402,384,98797,1,2,0:0:0:0:
480,345,98997,2,0,P|491:313|483:265,1,70,2|0,0:0|0:0,0:0:0:0:
444,211,99397,6,0,B|372:245|375:190|296:212,2,140,2|2|8,3:2|0:0|0:0,0:0:0:0:
511,140,100405,1,2,0:0:0:0:
441,66,100597,1,2,0:0:0:0:
403,157,100796,1,2,3:2:0:0:
320,56,100986,2,0,B|297:50|266:63|266:63|242:53|242:53|211:68|176:57,1,140,8|0,0:0|0:0,0:0:0:0:
108,28,101583,1,0,3:0:0:0:
30,194,101741,1,8,0:0:0:0:
0,56,101968,1,8,0:0:0:0:
135,208,102164,2,0,P|185:220|230:184,1,105,10|0,0:0|0:0,0:0:0:0:
257,146,102574,6,0,B|283:236|217:222|257:319,1,167.999994873047,6|0,3:2|0:0,0:0:0:0:
196,373,103182,1,0,0:0:0:0:
323,265,103384,2,0,P|366:253|409:267,1,83.9999974365235,10|0,0:0|0:0,0:0:0:0:
403,352,103790,2,0,P|360:364|317:350,1,83.9999974365235,2|0,0:0|0:0,0:0:0:0:
202,210,104195,2,0,B|236:294|168:296|200:389,1,167.999994873047,10|2,0:0|3:2,0:0:0:0:
113,253,104779,1,0,0:0:0:0:
202,210,104974,2,0,L|286:206,1,83.9999974365235,10|0,0:0|0:0,0:0:0:0:
113,253,105363,2,0,L|29:249,1,83.9999974365235,2|0,3:2|0:0,0:0:0:0:
202,210,105768,6,0,P|233:138|182:58,1,167.999994873047,10|0,0:0|0:0,0:0:0:0:
75,141,106367,1,0,0:0:0:0:
202,210,106567,2,0,P|246:215|282:187,1,83.9999974365235,10|0,0:0|0:0,0:0:0:0:
150,124,106969,2,0,P|106:119|70:147,1,83.9999974365235,2|0,3:2|0:0,0:0:0:0:
1,268,107372,2,0,B|38:180|-22:182|10:100,1,167.999994873047,10|2,0:0|3:2,0:0:0:0:
64,11,107976,1,0,0:0:0:0:
150,124,108177,2,0,P|191:138|231:122,1,83.9999974365235,10|0,0:0|0:0,0:0:0:0:
317,44,108569,2,0,P|275:31|235:47,1,83.9999974365235,2|0,3:2|0:0,0:0:0:0:
150,124,108974,6,0,L|145:210,1,83.9999974365235,10|0,0:0|0:0,0:0:0:0:
141,332,109374,2,0,P|197:286|264:339,2,167.999994873047,2|8|2,0:0|0:0|0:0,0:0:0:0:
68,258,110374,1,0,0:0:0:0:
168,183,110574,2,0,P|213:170|248:185,1,83.9999974365235,10|0,0:0|0:0,0:0:0:0:
347,265,110974,2,0,P|302:252|267:267,1,83.9999974365235,2|0,3:2|0:0,0:0:0:0:
419,336,111374,2,0,P|452:270|416:189,1,167.999994873047,10|2,0:0|3:2,0:0:0:0:
343,121,111974,1,0,0:0:0:0:
507,36,112174,6,0,B|464:28|464:28|419:39,1,83.9999974365235,10|0,0:0|0:0,0:0:0:0:
343,121,112574,2,0,B|386:129|386:129|431:118,1,83.9999974365235,2|0,0:0|0:0,0:0:0:0:
277,46,112974,2,0,P|237:106|272:201,1,167.999994873047,10|2,0:0|0:0,0:0:0:0:
326,243,113574,1,0,3:0:0:0:
429,155,113774,2,0,L|520:158,1,83.9999974365235,10|0,0:0|0:0,0:0:0:0:
410,249,114174,2,0,L|320:243,1,83.9999974365235,0|2,3:0|0:0,0:0:0:0:
213,171,114574,1,10,3:2:0:0:
326,243,114771,1,10,3:2:0:0:
184,314,114967,1,10,3:2:0:0:
184,314,115361,6,0,B|105:292|107:350|18:322,2,167.999994873047,6|2|10,3:2|0:0|0:0,0:0:0:0:
61,252,116371,1,2,0:0:0:0:
116,194,116573,2,0,P|125:149|116:110,1,83.9999974365235,2|0,0:0|0:0,0:0:0:0:
89,11,116977,2,0,P|129:48|239:41,2,167.999994873047,2|2|10,3:2|3:2|0:0,0:0:0:0:
44,95,117987,1,2,0:0:0:0:
92,165,118189,2,0,P|103:207|89:250,1,83.9999974365235,2|0,0:0|0:0,0:0:0:0:
44,319,118593,6,0,B|100:313|100:313|136:332|136:332|220:323,1,167.999994873047,2|0,3:2|0:0,0:0:0:0:
271,259,119193,1,0,0:0:0:0:
174,179,119393,2,0,P|168:230|185:276,1,83.9999974365235,10|0,0:0|0:0,0:0:0:0:
266,151,119793,2,0,P|271:99|254:53,1,83.9999974365235,2|0,0:0|0:0,0:0:0:0:
129,10,120193,2,0,B|216:48|215:-13|292:3,2,167.999994873047,2|2|10,3:2|3:2|0:0,0:0:0:0:
62,73,121193,1,2,0:0:0:0:
159,148,121393,2,0,P|120:160|76:143,1,83.9999974365235,2|0,0:0|0:0,0:0:0:0:
226,94,121793,6,0,P|246:161|184:229,2,167.999994873047,6|0|8,3:2|0:0|0:0,0:0:0:0:
157,30,122793,1,0,0:0:0:0:
278,0,122993,2,0,L|364:3,1,83.9999974365235,6|0,3:2|0:0,0:0:0:0:
426,114,123393,2,0,L|340:117,2,83.9999974365235,6|0|0,3:2|0:0|0:0,0:0:0:0:
454,9,123993,1,0,0:0:0:0:
426,114,124193,2,0,P|417:157|430:202,1,83.9999974365235,10|0,0:0|0:0,0:0:0:0:
510,300,124593,2,0,P|519:257|506:212,1,83.9999974365235,6|0,3:2|0:0,0:0:0:0:
370,344,124993,6,0,P|410:354|451:345,1,83.9999974365235,6|0,3:2|0:0,0:0:0:0:
285,384,125393,2,0,P|244:393|203:384,1,83.9999974365235,2|0,3:2|0:0,0:0:0:0:
253,237,125793,2,0,L|246:332,2,83.9999974365235,10|0|2,0:0|0:0|0:0,0:0:0:0:
132,260,126393,1,0,3:0:0:0:
218,169,126589,2,0,B|300:133|289:217|384:170,1,167.999994873047,14|0,0:0|0:0,0:0:0:0:
491,96,127155,1,0,3:0:0:0:
340,12,127343,1,10,0:0:0:0:
340,176,127544,1,8,0:0:0:0:
215,82,127745,1,10,0:0:0:0:
215,82,128148,6,0,B|192:119|211:149|211:149|206:178|206:178|228:213|212:259,2,167.999994873047,6|2|10,3:2|0:0|0:0,0:0:0:0:
136,158,129176,1,2,0:0:0:0:
53,57,129374,2,0,P|40:99|51:141,1,83.9999974365235,2|0,0:0|0:0,0:0:0:0:
131,238,129770,2,0,P|144:196|133:154,1,83.9999974365235,2|0,3:2|0:0,0:0:0:0:
0,277,130168,2,0,L|84:282,1,83.9999974365235,2|0,3:2|0:0,0:0:0:0:
177,360,130567,2,0,L|93:365,1,83.9999974365235,10|0,0:0|0:0,0:0:0:0:
222,299,130969,6,0,B|299:263|304:330|389:293,1,167.999994873047,2|2,0:0|3:2,0:0:0:0:
388,113,131770,1,2,0:0:0:0:
304,193,131969,1,2,0:0:0:0:
408,231,132168,2,0,P|435:250|456:300,1,83.9999974365235,10|0,0:0|0:0,0:0:0:0:
491,199,132567,2,0,L|497:107,1,83.9999974365235,2|0,0:0|0:0,0:0:0:0:
443,42,132965,2,0,B|392:51|392:51|352:32|352:32|269:41,1,167.999994873047,2|2,3:2|3:2,0:0:0:0:
198,96,133563,1,0,0:0:0:0:
349,186,133762,1,10,0:0:0:0:
162,231,133961,1,10,0:0:0:0:
415,145,134160,2,0,P|426:204|383:261,1,125.999996154785,8|0,0:3|0:0,0:0:0:0:
333,294,134559,5,4,3:2:0:0:
256,192,134658,12,0,142527,0:0:0:0:
