osu file format v14

[General]
AudioFilename: audio.mp3
AudioLeadIn: 0
PreviewTime: 12407
Countdown: 0
SampleSet: Soft
StackLeniency: 0.7
Mode: 0
LetterboxInBreaks: 0
WidescreenStoryboard: 0

[Editor]
Bookmarks: 33391,43883,54375,59620,70112,80604,91096,101588,112079,121260,122571,133063,143555,154047,164538
DistanceSpacing: 1
BeatDivisor: 4
GridSize: 32
TimelineZoom: 2.899999

[Metadata]
Title:Boy Division
TitleUnicode:Boy Division
Artist:My Chemical Romance
ArtistUnicode:My Chemical Romance
Creator:wafer
Version:Normal
Source:
Tags:english punk rock emo mcr goopert kami no kotoba Conventional Weapons indie alternative kanocchi dragonicz john mapping
BeatmapID:3921760
BeatmapSetID:1899810

[Difficulty]
HPDrainRate:3
CircleSize:3
OverallDifficulty:4
ApproachRate:5.5
SliderMultiplier:1.1
SliderTickRate:0.5

[Events]
//Background and Video events
0,0,"gaot.jpg",0,0
//Break Periods
2,54574,55872
2,112279,113577
2,164738,166036
//Storyboard Layer 0 (Background)
//Storyboard Layer 1 (Fail)
//Storyboard Layer 2 (Pass)
//Storyboard Layer 3 (Foreground)
//Storyboard Layer 4 (Overlay)
//Storyboard Sound Samples

[TimingPoints]
1916,327.868852459016,4,2,1,80,1,0
22899,-111.111111111111,4,2,1,60,0,0
25522,-100,4,2,1,70,0,0
33391,-100,4,2,1,90,0,0
43883,-90.9090909090909,4,2,1,95,0,0
56834,-100,4,2,1,60,0,0
59293,-100,4,2,1,40,0,0
59620,-100,4,2,1,80,0,0
80604,-111.111111111111,4,2,1,60,0,0
83227,-100,4,2,1,70,0,0
91096,-100,4,2,1,90,0,0
101588,-90.9090909090909,4,2,1,95,0,0
114538,-90.9090909090909,4,2,1,60,0,0
114702,-100,4,2,1,60,0,0
117325,-100,4,2,1,70,0,0
121260,-100,4,2,1,80,0,0
126724,-100,4,2,1,75,0,0
126943,-100,4,2,1,70,0,0
127161,-100,4,2,1,65,0,0
127817,-100,4,2,1,85,0,0
133063,-100,4,2,1,90,0,0
143555,-90.9090909090909,4,2,1,95,0,0
154047,-90.9090909090909,4,2,1,100,0,0
164620,-90.9090909090909,4,2,1,80,0,0
167161,-100,4,2,1,80,0,0
169784,-100,4,2,1,90,0,0
172407,-100,4,2,1,95,0,0
174375,-100,4,2,1,100,0,0

[Colours]
Combo1 : 201,201,201
Combo2 : 95,95,95

[HitObjects]
54,82,1915,22,0,P|108:75|147:111,1,110,6|10,1:0|0:0,0:0:0:0:
197,134,2407,2,0,P|250:140|289:104,1,110,2|0,0:0|1:0,0:0:0:0:
323,60,2899,1,10,0:0:0:0:
420,111,3227,2,0,B|445:137|445:137|433:222,1,110,6|10,1:0|0:0,0:0:0:0:
468,253,3719,1,2,0:0:0:0:
381,321,4047,1,0,1:0:0:0:
381,321,4211,1,10,0:0:0:0:
274,296,4538,2,0,P|220:289|181:325,1,110,6|8,1:0|0:0,0:0:0:0:
126,324,5030,2,0,P|72:330|33:294,1,110,2|0,0:0|1:0,0:0:0:0:
36,239,5522,1,10,0:0:0:0:
110,158,5850,5,6,1:0:0:0:
217,182,6178,1,14,1:2:0:0:
322,214,6506,1,6,1:0:0:0:
428,243,6834,2,0,B|434:227|434:227|438:183,1,55,14|0,2:0|0:0,0:0:0:0:
472,146,7161,5,6,1:0:0:0:
407,63,7489,1,10,0:0:0:0:
407,63,7653,2,0,P|353:56|314:92,1,110,2|0,0:0|1:0,0:0:0:0:
292,143,8145,1,10,0:0:0:0:
194,92,8473,2,0,B|168:117|168:117|83:105,1,110,6|10,1:0|0:0,0:0:0:0:
58,64,8965,1,2,0:0:0:0:
24,171,9293,1,0,1:0:0:0:
24,171,9457,1,10,0:0:0:0:
73,269,9784,2,0,P|126:275|165:239,1,110,6|8,1:0|0:0,0:0:0:0:
218,223,10276,2,0,P|271:216|310:252,1,110,2|0,0:0|1:0,0:0:0:0:
331,303,10768,1,10,0:0:0:0:
423,243,11096,5,6,1:0:0:0:
403,134,11424,1,14,1:2:0:0:
318,64,11752,1,6,1:0:0:0:
212,33,12080,2,0,B|206:49|206:49|202:93,1,55,14|0,2:0|0:0,0:0:0:0:
193,141,12407,5,6,1:0:0:0:
90,181,12735,1,10,1:0:0:0:
168,257,13063,2,0,B|172:278|172:278|171:331,2,55,2|0|10,1:0|1:0|1:0,0:0:0:0:
264,201,13719,5,6,1:0:0:0:
341,278,14047,1,10,1:0:0:0:
393,187,14375,2,0,B|413:183|413:183|466:184,2,55,2|0|10,1:0|1:0|1:0,0:0:0:0:
311,113,15030,5,6,1:0:0:0:
257,16,15358,1,10,1:0:0:0:
195,107,15686,2,0,B|187:117|187:117|180:180,2,55,2|0|10,1:0|1:0|1:0,0:0:0:0:
84,112,16342,2,0,P|68:72|65:0,2,110,4|12|4,1:0|1:0|1:0,0:0:0:0:
44,149,17161,2,0,B|129:158|102:192|207:211,1,165,0|4,1:0|1:0,0:0:0:0:
280,279,17981,5,10,0:0:0:0:
378,229,18309,2,0,P|386:192|381:165,2,55,0|0|10,1:0|1:0|0:0,0:0:0:0:
299,307,18965,5,4,1:0:0:0:
189,312,19293,1,10,0:0:0:0:
84,274,19620,2,0,P|72:249|69:222,1,55,2|0,1:2|1:0,0:0:0:0:
40,174,19948,1,10,0:0:0:0:
104,85,20276,5,4,1:0:0:0:
212,69,20604,1,10,0:0:0:0:
313,104,20931,2,0,P|324:128|327:155,1,55,2|0,1:2|1:0,0:0:0:0:
364,200,21259,1,10,0:0:0:0:
471,224,21588,6,0,P|486:175|470:103,1,110,4|10,1:0|0:0,0:0:0:0:
403,36,22243,1,2,1:2:0:0:
313,104,22571,1,10,0:0:0:0:
214,57,22899,6,0,B|106:67|146:95|21:120,1,197.99999395752,14|10,0:2|0:2,0:0:0:0:
16,219,23883,1,8,0:0:0:0:
47,312,24211,2,0,B|155:322|115:350|240:375,1,197.99999395752,10|0,0:2|1:0,0:0:0:0:
314,316,25194,2,0,L|369:308,1,49.4999984893799,4|4,3:0|3:0,0:0:0:0:
416,296,25522,5,4,1:0:0:0:
485,210,25850,1,8,0:0:0:0:
404,136,26178,2,0,B|368:156|368:156|359:177|359:177|314:200,1,110,2|8,1:2|0:0,0:0:0:0:
232,267,26834,1,6,1:2:0:0:
137,211,27162,1,8,0:0:0:0:
40,262,27489,2,0,B|24:246|24:246|40:155,1,110,6|8,1:2|0:0,0:0:0:0:
50,105,27981,1,2,0:0:0:0:
50,105,28145,6,0,P|102:102|131:47,1,110,4|8,1:0|0:0,0:0:0:0:
234,18,28801,2,0,P|272:25|295:47,1,55,2|0,1:2|1:0,0:0:0:0:
299,87,29129,1,8,0:0:0:0:
365,173,29456,2,0,P|417:170|446:115,2,110,6|8|6,1:2|0:0|1:2,0:0:0:0:
321,206,30276,1,0,0:0:0:0:
321,206,30440,2,0,P|330:250|334:267,1,55,8|0,0:0|1:0,0:0:0:0:
319,313,30768,5,12,1:2:0:0:
209,299,31096,1,8,0:0:0:0:
110,347,31424,2,0,B|102:335|102:335|95:275,1,55,12|0,1:2|1:0,0:0:0:0:
51,263,31752,1,8,0:0:0:0:
121,178,32079,6,0,B|129:166|129:166|136:106,1,55,12|0,1:2|1:0,0:0:0:0:
186,101,32407,1,12,1:2:0:0:
186,101,32571,1,0,1:0:0:0:
186,101,32735,2,0,B|201:118|201:118|234:122|291:153,1,110,8|4,0:0|3:0,0:0:0:0:
353,233,33391,6,2,P|408:222|442:174,1,110,4|8,1:0|0:0,0:1:0:0:
498,88,34047,2,0,B|498:67|498:67|485:32,1,55,2|0,1:2|1:0,0:0:0:0:
432,21,34375,1,8,0:0:0:0:
337,77,34702,2,0,L|205:61,1,110,6|8,1:2|0:0,0:0:0:0:
125,105,35358,2,0,P|130:131|136:179,1,55,6|0,1:2|1:0,0:0:0:0:
90,191,35686,1,8,0:0:0:0:
129,293,36014,6,0,P|183:306|226:267,1,110,6|8,1:0|0:0,0:0:0:0:
280,267,36506,1,0,1:0:0:0:
280,267,36670,2,0,B|297:279|300:294|300:294|396:311,1,110,4|8,1:0|0:0,0:0:0:0:
464,244,37325,2,0,P|485:220|473:182,1,55,2|0,1:2|0:0,0:0:0:0:
443,160,37653,2,0,P|402:161|376:190,1,55,10|0,0:2|0:0,0:0:0:0:
338,187,37981,2,0,P|282:175|253:121,1,110,4|8,1:2|0:0,0:0:0:0:
162,73,38637,6,2,B|145:84|135:98|135:98|46:89,1,110,4|8,1:0|0:0,0:1:0:0:
32,199,39293,1,2,1:2:0:0:
32,199,39456,2,0,P|68:209|104:221,1,55,0|8,1:0|0:0,0:0:0:0:
133,319,39948,1,6,1:2:0:0:
133,319,40111,2,0,P|169:308|205:296,1,55,0|8,1:0|0:0,0:0:0:0:
267,228,40604,2,0,B|290:248|290:248|319:244|365:268,1,110,6|8,1:2|0:0,0:0:0:0:
456,206,41260,6,0,B|461:195|461:195|455:139,1,55,6|0,1:0|0:0,0:0:0:0:
417,112,41588,1,8,0:0:0:0:
331,42,41915,2,0,B|320:37|320:37|264:43,1,55,2|0,1:2|1:0,0:0:0:0:
237,81,42243,1,10,0:0:0:0:
132,114,42571,2,0,B|101:128|101:128|21:109,1,110,4|4,1:0|3:0,0:0:0:0:
80,206,43227,1,10,0:0:0:0:
142,296,43555,2,0,L|152:358,1,55,8|8,0:0|0:0,0:0:0:0:
209,367,43883,5,4,1:0:0:0:
283,271,44211,1,8,0:0:0:0:
283,271,44375,1,2,0:0:0:0:
283,271,44539,2,0,B|266:142,1,121.000003692627,6|8,1:2|0:0,0:0:0:0:
152,190,45194,2,0,B|122:163|122:163|135:61,1,121.000003692627,6|10,1:2|0:0,0:0:0:0:
229,10,45850,2,0,B|238:79,1,60.5000018463135,6|0,1:2|1:0,0:0:0:0:
286,105,46178,1,10,0:0:0:0:
399,62,46506,6,0,P|461:86|477:155,1,121.000003692627,6|8,1:0|0:0,0:0:0:0:
450,193,46998,1,0,1:0:0:0:
450,193,47162,2,0,B|430:207|427:223|427:223|322:241,1,121.000003692627,4|8,1:0|0:0,0:0:0:0:
250,307,47817,1,6,1:0:0:0:
250,307,47981,1,2,0:0:0:0:
250,307,48145,1,10,0:2:0:0:
164,220,48473,2,0,L|104:230,1,60.5000018463135,6|2,1:2|1:2,0:0:0:0:
69,279,48801,1,8,0:0:0:0:
15,170,49129,6,2,B|26:153|40:143|40:143|26:38,1,121.000003692627,4|8,1:0|0:0,0:1:0:0:
149,29,49785,1,2,1:2:0:0:
149,29,49948,2,0,B|158:45|158:45|150:109,1,60.5000018463135,0|8,1:0|0:0,0:0:0:0:
259,155,50440,1,6,1:2:0:0:
259,155,50603,2,0,B|268:139|268:139|260:75,1,60.5000018463135,0|8,1:0|0:0,0:0:0:0:
369,39,51096,2,0,B|385:67|385:67|370:183,1,121.000003692627,6|10,1:2|0:0,0:0:0:0:
456,224,51752,5,6,1:0:0:0:
381,318,52079,2,0,P|324:291|304:236,1,121.000003692627,10|6,0:0|1:0,0:0:0:0:
268,190,52571,2,0,P|230:199|196:201,1,60.5000018463135,0|10,1:0|0:0,0:0:0:0:
113,275,53063,1,6,1:0:0:0:
113,275,53227,2,0,P|75:266|41:264,1,60.5000018463135,0|4,0:0|3:0,0:0:0:0:
19,158,53719,1,4,1:2:0:0:
19,158,53883,1,2,1:2:0:0:
19,158,54047,2,0,B|64:120|64:120|141:146,1,121.000003692627,6|4,1:0|1:0,0:0:0:0:
256,192,56997,6,0,B|308:200|309:178|376:185,1,110,4|4,1:2|1:2,0:0:0:0:
357,73,57653,2,0,B|305:81|304:59|237:66,1,110,4|4,1:2|1:2,0:0:0:0:
149,15,58309,2,0,P|95:22|71:76,1,110,4|4,1:2|1:0,0:0:0:0:
146,147,58965,1,8,0:0:0:0:
347,63,59620,6,0,L|458:74,1,110,6|10,1:2|0:0,0:0:0:0:
497,111,60112,2,0,B|505:145|505:145|487:222,1,110,6|0,1:2|1:0,0:0:0:0:
448,256,60604,1,10,0:0:0:0:
365,328,60932,2,0,B|339:303|339:303|254:315,1,110,6|10,1:0|0:0,0:0:0:0:
219,343,61424,1,6,1:0:0:0:
119,311,61752,1,0,1:0:0:0:
119,311,61916,1,10,0:0:0:0:
39,235,62243,2,0,P|35:186|33:111,1,110,6|8,1:0|0:0,0:0:0:0:
63,79,62735,2,0,P|117:74|160:106,1,110,6|0,1:2|1:0,0:0:0:0:
183,157,63227,1,10,0:0:0:0:
151,262,63555,5,6,1:0:0:0:
258,238,63883,1,14,1:2:0:0:
363,206,64211,1,6,1:0:0:0:
470,182,64539,2,0,B|476:166|476:166|480:122,1,55,14|0,2:0|0:0,0:0:0:0:
457,77,64866,5,6,1:2:0:0:
355,112,65194,1,10,0:0:0:0:
355,112,65358,2,0,P|301:119|262:83,1,110,6|0,1:2|1:0,0:0:0:0:
240,38,65850,1,10,0:0:0:0:
145,94,66178,2,0,B|123:123|123:123|132:205,1,110,6|10,1:0|0:0,0:0:0:0:
97,239,66670,1,6,1:0:0:0:
174,324,66998,1,0,1:0:0:0:
174,324,67162,1,10,0:0:0:0:
252,247,67489,2,0,P|305:241|344:277,1,110,6|8,1:0|0:0,0:0:0:0:
397,293,67981,2,0,P|450:300|489:264,1,110,6|0,1:2|1:0,0:0:0:0:
510,213,68473,1,10,0:0:0:0:
411,164,68801,5,6,1:0:0:0:
302,183,69129,1,14,1:2:0:0:
195,210,69457,1,6,1:0:0:0:
90,245,69785,2,0,B|84:261|84:261|80:305,1,55,14|0,2:0|0:0,0:0:0:0:
36,331,70112,5,6,1:0:0:0:
142,358,70440,1,10,1:0:0:0:
214,274,70768,2,0,B|218:253|218:253|217:200,2,55,2|0|10,1:0|1:0|1:1,0:0:0:0:
317,310,71424,5,6,1:0:0:0:
410,252,71752,1,10,1:0:0:0:
506,304,72080,2,0,B|510:324|510:324|509:377,2,55,2|0|10,1:0|1:0|1:0,0:0:0:0:
412,246,72735,5,6,1:0:0:0:
309,285,73063,1,10,1:0:0:0:
221,218,73391,2,0,B|221:197|221:197|233:166,2,55,2|0|10,1:0|1:0|1:1,0:0:0:0:
120,263,74047,2,0,P|80:279|8:282,2,110,4|12|4,1:0|1:0|1:0,0:0:0:0:
160,300,74866,2,0,B|245:309|218:343|323:362,1,165,0|4,1:0|1:0,0:0:0:0:
408,307,75686,5,10,0:0:0:0:
506,257,76014,2,0,P|514:220|509:193,2,55,0|0|10,1:0|1:0|0:0,0:0:0:0:
402,296,76670,5,4,1:0:0:0:
323,218,76998,1,10,0:0:0:0:
350,111,77325,2,0,P|375:99|402:96,1,55,2|0,1:2|1:0,0:0:0:0:
454,112,77653,1,10,0:0:0:0:
511,203,77981,5,4,1:0:0:0:
433,282,78309,1,10,0:0:0:0:
332,237,78636,2,0,P|307:225|280:222,1,55,2|0,1:2|1:0,0:0:0:0:
228,238,78964,1,10,0:0:0:0:
119,260,79293,6,0,P|104:211|120:139,1,110,4|10,1:0|0:0,0:0:0:0:
180,66,79948,1,2,1:2:0:0:
265,134,80276,1,10,0:0:0:0:
323,39,80604,6,0,P|418:54|480:129,1,197.99999395752,14|10,0:2|0:2,0:0:0:0:
485,228,81588,1,8,0:0:0:0:
438,315,81915,2,0,P|342:300|280:225,1,197.99999395752,10|0,0:2|1:0,0:0:0:0:
202,287,82899,2,0,L|147:279,1,49.4999984893799,4|4,3:0|3:0,0:0:0:0:
102,302,83227,5,4,1:0:0:0:
15,234,83555,1,8,0:0:0:0:
102,167,83883,2,0,B|116:147|116:147|126:43,1,110,0|8,1:0|0:0,0:0:0:0:
225,16,84539,1,6,1:2:0:0:
289,104,84867,1,8,0:0:0:0:
379,41,85194,2,0,B|393:61|393:61|403:165,1,110,6|8,1:2|0:0,0:0:0:0:
447,185,85686,1,2,0:0:0:0:
447,185,85850,6,0,P|444:237|389:266,1,110,4|8,1:0|0:0,0:0:0:0:
308,329,86506,2,0,P|270:336|247:358,1,55,2|0,1:2|1:0,0:0:0:0:
207,370,86834,1,8,0:0:0:0:
127,294,87161,2,0,P|80:307|17:305,2,110,6|8|6,1:2|0:0|1:2,0:0:0:0:
168,257,87981,1,0,0:0:0:0:
168,257,88145,2,0,P|196:249|234:250,1,55,8|0,0:0|1:0,0:0:0:0:
277,245,88473,5,12,1:2:0:0:
375,294,88801,1,8,0:0:0:0:
481,267,89129,2,0,B|489:255|489:255|496:195,1,55,12|0,1:2|1:0,0:0:0:0:
470,164,89457,1,8,0:0:0:0:
369,120,89784,6,0,B|361:108|361:108|354:48,1,55,12|0,1:2|1:0,0:0:0:0:
304,43,90112,1,12,1:2:0:0:
304,43,90276,1,0,1:0:0:0:
304,43,90440,1,8,3:0:0:0:
88,86,91096,6,2,P|74:140|94:198,1,110,4|8,1:0|0:0,0:1:0:0:
55,296,91752,2,0,B|76:296|76:296|111:309,1,55,2|0,1:2|1:0,0:0:0:0:
152,340,92080,1,8,0:0:0:0:
246,284,92407,2,0,L|378:268,1,110,6|8,1:2|0:0,0:0:0:0:
456,313,93063,2,0,P|461:287|467:239,1,55,6|0,1:2|1:0,0:0:0:0:
507,222,93391,1,8,0:0:0:0:
452,126,93719,6,0,P|399:115|355:145,1,110,6|8,1:0|0:0,0:0:0:0:
322,194,94211,1,0,1:0:0:0:
322,194,94375,2,0,B|271:217|271:217|222:183,1,110,4|8,1:0|0:0,0:0:0:0:
155,102,95030,2,0,P|131:81|93:93,1,55,2|0,1:2|0:0,0:0:0:0:
64,114,95358,2,0,P|65:155|94:181,1,55,10|0,0:2|0:0,0:0:0:0:
113,202,95686,2,0,P|123:247|129:315,1,110,4|8,1:2|0:0,0:0:0:0:
234,343,96342,6,2,B|268:329|268:329|271:299|288:239,1,110,4|8,1:0|0:0,0:1:0:0:
359,177,96998,1,2,1:2:0:0:
359,177,97161,2,0,P|395:187|431:199,1,55,0|8,1:0|0:0,0:0:0:0:
499,124,97653,1,6,1:2:0:0:
499,124,97816,2,0,P|488:88|476:52,1,55,0|8,1:0|0:0,0:0:0:0:
391,8,98309,2,0,B|356:21|356:21|354:52|336:111,1,110,6|8,1:2|0:0,0:0:0:0:
256,163,98965,6,0,B|245:168|245:168|187:155,1,55,6|0,1:0|0:0,0:0:0:0:
162,124,99293,1,8,0:0:0:0:
55,151,99620,2,0,B|50:162|50:162|63:220,1,55,2|0,1:2|1:0,0:0:0:0:
94,245,99948,1,10,0:0:0:0:
198,280,100276,2,0,B|229:294|229:294|309:275,1,110,4|4,1:0|3:0,0:0:0:0:
404,232,100932,1,10,0:0:0:0:
503,183,101260,2,0,L|493:121,1,55,8|8,0:0|0:0,0:0:0:0:
454,90,101588,5,4,1:0:0:0:
352,147,101915,1,8,0:0:0:0:
352,147,102080,1,2,0:0:0:0:
352,147,102244,2,0,B|223:130,1,121.000003692627,6|8,1:2|0:0,0:0:0:0:
195,246,102899,2,0,B|188:259|165:273|165:273|180:369,1,121.000003692627,6|10,1:2|0:0,0:0:0:0:
56,360,103555,2,0,B|47:291,1,60.5000018463135,6|0,1:2|1:0,0:0:0:0:
31,241,103883,1,10,0:0:0:0:
51,121,104211,6,0,P|113:145|129:214,1,121.000003692627,6|8,1:0|0:0,0:0:0:0:
187,229,104703,1,0,1:0:0:0:
187,229,104867,2,0,B|217:206|217:206|235:170|221:97,1,121.000003692627,4|8,1:0|0:0,0:0:0:0:
260,14,105522,1,6,1:0:0:0:
260,14,105686,1,2,0:0:0:0:
260,14,105850,1,10,0:2:0:0:
356,86,106178,2,0,L|366:146,1,60.5000018463135,6|2,1:2|1:2,0:0:0:0:
417,177,106506,1,8,0:0:0:0:
458,290,106834,6,2,B|441:279|431:265|431:265|327:285,1,121.000003692627,4|8,1:0|0:0,0:1:0:0:
234,313,107490,1,2,1:2:0:0:
234,313,107653,2,0,B|225:297|225:297|233:233,1,60.5000018463135,0|8,1:0|0:0,0:0:0:0:
114,241,108145,1,6,1:2:0:0:
114,241,108308,2,0,B|123:225|123:225|115:161,1,60.5000018463135,0|8,1:0|0:0,0:0:0:0:
20,120,108801,1,6,1:2:0:0:
20,120,108964,2,0,B|11:104|11:104|19:40,1,60.5000018463135,0|10,1:0|0:0,0:0:0:0:
130,19,109457,5,6,1:0:0:0:
248,40,109784,2,0,P|269:99|244:152,1,121.000003692627,10|6,0:0|1:0,0:0:0:0:
270,205,110276,2,0,P|261:243|259:277,1,60.5000018463135,0|10,1:0|0:0,0:0:0:0:
359,342,110768,1,6,1:0:0:0:
359,342,110932,2,0,P|397:333|431:331,1,60.5000018463135,0|4,0:0|3:0,0:0:0:0:
481,233,111424,1,4,1:2:0:0:
481,233,111588,1,2,1:2:0:0:
481,233,111752,2,0,B|427:197|427:197|359:221,1,121.000003692627,6|4,1:0|1:0,0:0:0:0:
177,280,114702,6,0,B|125:272|124:294|57:287,1,110,4|4,1:0|3:0,0:0:0:0:
14,191,115358,2,0,B|46:149|28:138|67:83,1,110,4|4,3:0|3:0,0:0:0:0:
171,86,116014,2,0,B|190:135|209:124|237:186,1,110,4|4,3:0|3:0,0:0:0:0:
342,182,116670,2,0,B|374:140|356:129|395:74,1,110,4|4,3:0|3:0,0:0:0:0:
493,119,117325,5,4,1:0:0:0:
459,223,117653,1,4,3:0:0:0:
459,223,117817,2,0,L|443:284,1,55,8|4,0:0|3:0,0:0:0:0:
424,326,118145,2,0,P|345:338|290:281,1,165,4|4,3:0|3:0,0:0:0:0:
188,239,118965,2,0,P|134:241|95:278,2,110,4|4|4,3:0|3:0|3:0,0:0:0:0:
229,202,119784,1,4,3:0:0:0:
229,202,119948,5,4,1:0:0:0:
320,262,120276,2,0,P|361:255|382:243,1,55,4|0,3:0|0:0,0:0:0:0:
427,245,120604,1,4,3:0:0:0:
426,245,120768,2,0,P|462:171|449:91,2,165,4|8|4,3:0|0:0|3:0,0:0:0:0:
372,249,121915,1,4,1:2:0:0:
174,345,122571,5,4,1:2:0:0:
45,250,123063,1,0,1:0:0:0:
45,250,123227,1,8,0:2:0:0:
110,161,123555,1,12,0:2:0:0:
180,76,123883,5,4,1:2:0:0:
309,171,124375,1,0,1:0:0:0:
309,171,124539,1,8,0:2:0:0:
244,260,124867,1,12,0:2:0:0:
174,345,125194,5,4,1:2:0:0:
45,250,125686,1,0,1:0:0:0:
45,250,125850,2,0,L|35:186,1,55,8|0,0:0|0:0,0:0:0:0:
27,141,126178,1,12,0:2:0:0:
122,86,126506,6,0,P|110:48|104:8,2,73.3333333333333,14|6|6,1:2|1:2|1:2,0:0:0:0:
228,177,127161,2,0,P|255:145|245:9,1,165,6|0,1:2|0:0,0:0:0:0:
205,6,127817,5,4,1:2:0:0:
368,53,128309,1,0,1:0:0:0:
368,53,128473,1,8,0:2:0:0:
382,162,128801,1,12,0:2:0:0:
316,250,129129,5,4,1:2:0:0:
153,203,129621,1,0,1:0:0:0:
153,203,129785,1,8,0:2:0:0:
139,94,130113,1,12,0:2:0:0:
205,6,130440,5,4,3:0:0:0:
268,95,130768,1,4,3:0:0:0:
336,181,131096,1,4,3:0:0:0:
404,267,131424,1,4,3:0:0:0:
337,354,131752,2,0,L|274:344,1,55,4|4,3:0|3:0,0:0:0:0:
242,307,132079,1,4,3:0:0:0:
139,346,132407,1,8,0:0:0:0:
139,346,132571,1,4,3:0:0:0:
139,346,132735,1,12,0:0:0:0:
44,288,133063,5,4,1:0:0:0:
44,288,133227,2,0,P|53:249|53:172,1,110,2|2,0:0|0:0,0:0:0:0:
26,131,133719,1,2,1:2:0:0:
140,137,134047,1,8,0:0:0:0:
140,137,134211,2,0,P|179:146|256:146,1,110,2|2,0:0|1:2,0:0:0:0:
297,119,134703,1,2,1:2:0:0:
389,177,135030,1,6,1:2:0:0:
493,143,135358,1,14,0:0:0:0:
449,48,135686,5,4,1:0:0:0:
449,48,135850,2,0,P|463:16|483:-4,2,55,2|8|2,0:0|0:0|0:0,0:0:0:0:
400,74,136342,1,2,1:2:0:0:
296,53,136670,1,8,0:0:0:0:
296,53,136834,2,0,P|282:21|262:1,2,55,2|0|2,0:0|1:0|1:2,0:0:0:0:
257,92,137326,1,2,1:2:0:0:
184,174,137653,5,6,1:2:0:0:
80,140,137981,1,14,0:0:0:0:
20,232,138309,5,12,1:2:0:0:
20,232,138473,2,0,L|34:293,1,55,2|8,1:2|0:0,0:0:0:0:
82,309,138801,2,0,L|96:370,1,55,2|10,1:2|0:2,0:0:0:0:
208,367,139293,1,10,0:0:0:0:
208,367,139457,2,0,L|269:353,1,55,2|8,1:2|0:0,0:0:0:0:
285,305,139784,2,0,L|346:291,1,55,2|10,1:2|1:2,0:0:0:0:
400,201,140276,5,14,1:2:0:0:
506,227,140604,1,14,0:0:0:0:
512,121,140932,5,12,1:2:0:0:
512,121,141096,2,0,L|498:60,1,55,2|8,1:2|0:0,0:0:0:0:
491,13,141424,1,2,1:2:0:0:
491,13,141588,1,10,0:2:0:0:
386,36,141916,1,10,0:0:0:0:
386,36,142080,2,0,L|372:97,1,55,2|8,1:2|0:0,0:0:0:0:
365,144,142408,1,2,1:2:0:0:
365,144,142572,1,10,1:2:0:0:
265,189,142899,6,0,B|200:199|240:216|146:232,1,110,4|4,0:2|0:0,0:0:0:0:
68,153,143555,6,2,P|79:98|146:64,1,121.000003692627,4|8,1:0|0:0,0:1:0:0:
246,26,144211,2,0,B|271:29|271:29|301:56,1,60.5000018463135,2|0,1:2|1:0,0:0:0:0:
335,99,144539,1,8,0:0:0:0:
383,209,144866,2,0,B|421:219|421:219|515:193,1,121.000003692627,6|8,1:2|0:0,0:0:0:0:
455,79,145522,2,0,L|381:90,1,60.5000018463135,6|0,1:2|1:0,0:0:0:0:
335,99,145850,1,8,0:0:0:0:
271,202,146178,6,0,P|258:256|293:317,1,121.000003692627,6|8,1:0|0:0,0:0:0:0:
234,338,146670,1,0,1:0:0:0:
234,338,146834,2,0,B|213:341|204:354|204:354|95:324,1,121.000003692627,4|8,1:0|0:0,0:0:0:0:
40,240,147489,2,0,P|19:216|30:168,1,60.5000018463135,2|0,1:2|0:0,0:0:0:0:
62,147,147817,2,0,P|103:148|129:177,1,60.5000018463135,10|0,0:2|0:0,0:0:0:0:
157,204,148145,2,0,P|209:194|245:137,1,121.000003692627,4|8,1:2|0:0,0:0:0:0:
334,59,148801,6,2,B|351:70|361:84|361:84|452:73,1,121.000003692627,4|8,1:0|0:0,0:1:0:0:
483,188,149457,1,2,1:2:0:0:
483,188,149620,2,0,P|447:198|405:213,1,60.5000018463135,0|8,1:0|0:0,0:0:0:0:
381,318,150112,1,6,1:2:0:0:
381,318,150275,2,0,P|345:307|307:292,1,60.5000018463135,0|8,1:0|0:0,0:0:0:0:
220,234,150768,2,0,B|197:254|197:254|168:250|110:278,1,121.000003692627,6|8,1:2|0:0,0:0:0:0:
28,188,151424,6,0,B|23:177|23:177|30:121,1,60.5000018463135,6|0,1:0|0:0,0:0:0:0:
80,96,151752,1,8,0:0:0:0:
186,36,152079,2,0,B|197:31|197:31|255:40,1,60.5000018463135,2|0,1:2|1:0,0:0:0:0:
285,84,152407,1,10,0:0:0:0:
402,64,152735,2,0,B|416:95|416:95|397:181,1,121.000003692627,4|4,1:0|3:0,0:0:0:0:
494,252,153391,1,10,0:0:0:0:
431,356,153719,2,0,L|362:347,1,60.5000018463135,8|8,0:0|0:0,0:0:0:0:
321,313,154047,5,4,1:0:0:0:
209,341,154375,1,8,0:0:0:0:
209,341,154539,1,2,0:0:0:0:
209,341,154703,2,0,B|192:212,1,121.000003692627,6|8,1:2|0:0,0:0:0:0:
73,205,155358,2,0,P|52:177|40:69,1,121.000003692627,6|10,1:2|0:0,0:0:0:0:
134,24,156014,2,0,B|143:93,1,60.5000018463135,6|0,1:2|1:0,0:0:0:0:
194,115,156342,1,10,0:0:0:0:
299,174,156670,6,0,P|361:150|377:81,1,121.000003692627,6|8,1:0|0:0,0:0:0:0:
349,56,157162,1,0,1:0:0:0:
349,56,157326,2,0,B|329:42|326:26|326:26|221:8,1,121.000003692627,4|8,1:0|0:0,0:0:0:0:
132,13,157981,1,6,1:0:0:0:
132,13,158145,1,2,1:2:0:0:
132,13,158309,1,10,0:2:0:0:
57,108,158637,2,0,L|67:168,1,60.5000018463135,6|2,1:2|1:2,0:0:0:0:
114,207,158965,1,8,0:0:0:0:
70,320,159293,5,4,1:0:0:0:
190,325,159620,1,8,0:0:0:0:
304,364,159948,1,2,1:2:0:0:
424,359,160275,1,8,0:0:0:0:
505,269,160604,1,6,1:2:0:0:
505,269,160767,2,0,B|514:253|514:253|506:189,1,60.5000018463135,0|8,1:0|0:0,0:0:0:0:
404,147,161260,2,0,B|388:175|388:175|403:291,1,121.000003692627,6|10,1:2|0:0,0:0:0:0:
309,344,161915,6,0,B|291:347|291:347|242:333,1,60.5000018463135,6|0,1:0|1:0,0:0:0:0:
224,280,162243,2,0,B|206:277|206:277|157:291,1,60.5000018463135,10|2,0:0|0:0,0:0:0:0:
133,340,162571,2,0,B|100:345|100:345|12:320,1,121.000003692627,6|10,1:0|0:0,0:0:0:0:
24,200,163227,1,14,1:2:0:0:
24,200,163391,2,0,B|42:203|42:203|91:189,1,60.5000018463135,0|4,0:0|3:0,0:0:0:0:
169,107,163883,1,4,1:2:0:0:
169,107,164047,1,2,1:2:0:0:
169,107,164211,2,0,B|214:145|214:145|291:119,1,121.000003692627,6|4,1:0|1:0,0:0:0:0:
322,166,167161,6,0,B|330:114|308:113|315:46,1,110,4|4,1:2|1:2,0:0:0:0:
207,84,167817,2,0,B|215:136|193:137|200:204,1,110,4|4,1:2|1:2,0:0:0:0:
190,303,168473,2,0,P|160:298|135:289,2,55,4|0|4,1:2|0:0|1:0,0:0:0:0:
285,247,169129,1,4,3:0:0:0:
390,277,169456,1,4,3:0:0:0:
477,209,169784,6,0,B|488:187|488:187|481:133,1,55,10|0,0:0|1:0,0:0:0:0:
459,107,170112,2,0,B|443:87|443:87|391:71,1,55,10|0,0:0|1:0,0:0:0:0:
366,104,170440,1,10,0:0:0:0:
282,175,170768,2,0,B|268:195|268:195|218:216,1,55,10|0,0:0|1:0,0:0:0:0:
184,210,171096,2,0,B|159:206|159:206|119:169,1,55,10|0,0:0|1:0,0:0:0:0:
135,131,171424,1,10,0:0:0:0:
219,60,171752,2,0,B|243:61|243:61|286:94,1,55,10|0,0:0|1:0,3:0:0:0:
298,128,172079,1,14,0:0:0:0:
362,223,172407,5,12,1:2:0:0:
362,223,172571,1,0,1:2:0:0:
362,223,172735,2,0,L|371:287,1,55,12|0,1:2|1:2,0:0:0:0:
350,329,173063,1,6,1:0:0:0:
251,311,173391,5,12,1:2:0:0:
251,311,173555,1,0,1:2:0:0:
251,311,173719,2,0,L|187:320,1,55,12|0,1:2|1:2,0:0:0:0:
145,299,174047,1,6,1:0:0:0:
55,235,174375,5,12,0:0:0:0:
30,186,174538,1,12,0:0:0:0:
66,145,174702,2,0,P|71:101|70:72,1,55,12|12,0:0|0:0,0:0:0:0:
