osu file format v14

[General]
AudioFilename: MCR - All I Want for Christmas is You.mp3
AudioLeadIn: 0
PreviewTime: 66886
Countdown: 1
SampleSet: None
StackLeniency: 0.7
Mode: 0
LetterboxInBreaks: 1
WidescreenStoryboard: 1

[Editor]
DistanceSpacing: 1.1
BeatDivisor: 6
GridSize: 4
TimelineZoom: 2

[Metadata]
Title:All I Want For Christmas Is You
TitleUnicode:All I Want For Christmas Is You
Artist:My Chemical Romance
ArtistUnicode:My Chemical Romance
Creator:Bakari
Version:Normal
Source:
Tags:Gift Wrapped aiwfciy mcr emo punk gerard way matt pelissier ray toro mikey frank iero
BeatmapID:494453
BeatmapSetID:208736

[Difficulty]
HPDrainRate:4
CircleSize:3
OverallDifficulty:3
ApproachRate:4.5
SliderMultiplier:1.1
SliderTickRate:1

[Events]
//Background and Video events
0,0,"1555040.jpg",0,0
//Break Periods
2,148896,159480
//Storyboard Layer 0 (Background)
//Storyboard Layer 1 (Fail)
//Storyboard Layer 2 (Pass)
//Storyboard Layer 3 (Foreground)
//Storyboard Sound Samples

[TimingPoints]
625,952.380952380952,4,3,0,70,1,0
8244,869.565217391304,4,3,0,70,1,0
15300,923.076923076923,4,3,0,70,1,0
18069,845.070422535211,4,3,0,70,1,0
18914,923.076923076923,4,3,0,70,1,0
19252,821.917808219178,4,3,0,70,1,0
21717,967.741935483871,4,3,0,70,1,0
22684,1000,4,3,0,70,1,0
28684,2112.67605633803,4,3,0,70,1,0
31541,2272.72727272727,4,3,0,70,1,0
33813,857.142857142857,4,3,0,70,1,0
34670,845.070422535211,4,3,0,70,1,0
35515,810.810810810811,4,3,0,70,1,0
36325,800,4,3,0,70,1,0
37125,857.142857142857,4,3,0,70,1,0
38410,1666.66666666667,4,3,0,70,1,0
39243,740.740740740741,4,3,0,70,1,0
42212,361.44578313253,4,3,0,70,1,0
43296,375,4,3,0,70,1,0
43671,362.100181050091,4,3,0,70,1,0
46567,364.298724954463,4,3,0,70,1,0
48024,367.421922841396,4,3,0,70,1,0
49493,364.963503649635,4,3,0,70,1,0
54967,377.358490566038,4,3,0,70,1,0
55344,365.853658536585,4,3,0,70,1,0
56807,365.185636031649,4,3,0,70,1,0
58998,369.230769230769,4,3,0,70,1,0
59736,362.537764350453,4,3,0,70,1,0
61186,364.298724954463,4,3,0,70,1,0
63371,372.670807453416,4,3,0,70,1,0
64116,369.230769230769,4,3,0,70,1,0
65592,352.941176470588,4,3,0,70,1,0
67003,370.828182941904,4,3,0,70,1,1
67003,-100,4,3,0,70,0,1
68486,366.97247706422,4,3,0,70,1,1
69953,363.636363636364,4,3,0,70,1,1
71407,361.44578313253,4,3,0,70,1,1
72852,365.853658536585,4,3,0,70,1,1
73949,382.165605095541,4,3,0,70,1,1
74331,365.853658536585,4,3,0,70,1,1
75062,363.636363636364,4,3,0,70,1,1
75789,369.230769230769,4,3,0,70,1,1
77265,366.636113657195,4,3,0,70,1,1
81297,351.906158357771,4,3,0,70,1,1
81648,359.281437125748,4,3,0,70,1,1
83085,368.098159509202,4,3,0,70,1,0
84189,382.165605095541,4,3,0,70,1,0
84571,368.098159509202,4,3,0,70,1,0
86043,365.853658536585,4,3,0,70,1,0
87506,362.537764350453,4,3,0,70,1,0
88956,364.741641337386,4,3,0,70,1,0
95886,359.281437125748,4,3,0,70,1,0
96245,368.098159509202,4,3,0,70,1,0
99189,361.44578313253,4,3,0,70,1,0
100634,365.853658536585,4,3,0,70,1,0
101731,378.548895899054,4,3,0,70,1,0
102109,368.098159509202,4,3,0,70,1,0
106526,359.281437125748,4,3,0,70,1,0
107244,352.941176470588,4,3,0,70,1,0
107949,365.853658536585,4,3,0,70,1,1
112339,363.636363636364,4,3,0,70,1,1
113793,365.853658536585,4,3,0,70,1,1
115988,359.281437125748,4,3,0,70,1,1
116706,368.776889981561,4,3,0,70,1,1
119656,367.421922841396,4,3,0,70,1,1
122595,354.400472533963,4,3,0,70,1,0
124012,365.853658536585,4,3,0,70,1,0
125109,394.736842105263,4,3,0,70,1,0
125503,370.37037037037,4,3,0,70,1,0
125503,-100,4,3,0,70,0,0
125525,-100,4,3,0,70,0,0
126984,363.19612590799,4,3,0,70,1,0
126984,-100,4,3,0,70,0,0
128436,364.741641337386,4,3,0,70,1,0
128436,-100,4,3,0,70,0,0
131353,-100,4,3,0,70,0,0
137189,377.358490566038,4,3,0,70,1,0
137189,-100,4,3,0,70,0,0
137943,364.741641337386,4,3,0,70,1,0
137943,-100,4,3,0,70,0,0
138672,362.537764350453,4,3,0,70,1,0
138672,-100,4,3,0,70,0,0
143022,369.230769230769,4,3,0,70,1,0
143022,-100,4,3,0,70,0,0
145975,360.36036036036,4,3,0,70,1,0
147416,366.97247706422,4,3,0,70,1,0
148149,373.831775700935,4,3,0,70,1,0
148896,366.97247706422,4,3,0,70,1,0
151831,363.636363636364,4,3,0,70,1,0
154740,368.098159509202,4,3,0,70,1,0
157684,365.853658536585,4,3,0,70,1,0
159147,359.281437125748,4,3,0,70,1,0
159865,875.912408759124,4,3,0,70,1,0
160740,805.369127516779,4,3,0,70,1,1
160740,-50,4,3,0,70,0,1
161545,779.220779220779,4,3,0,70,1,1
161545,-50,4,3,0,70,0,1
162324,789.473684210526,4,3,0,70,1,1
162324,-50,4,3,0,70,0,1
163902,798.403193612774,4,3,0,70,1,1
163902,-50,4,3,0,70,0,1
165498,796.812749003984,4,3,0,70,1,1
165498,-50,4,3,0,70,0,1
167091,800,4,3,0,70,1,1
167091,-50,4,3,0,70,0,1
168691,789.473684210526,4,3,0,70,1,1
168691,-50,4,3,0,70,0,1
170269,794.701986754967,4,3,0,70,1,1
170269,-50,4,3,0,70,0,1
171461,800,4,3,0,70,1,0
171861,771.431326540452,4,3,0,70,1,0
171861,-52.6315789473684,4,3,0,70,0,0
174175,745.341614906832,4,3,0,70,1,0
174175,-50,4,3,0,70,0,0
174920,379.746835443038,4,3,0,70,1,0
176438,375.93984962406,4,3,0,70,1,0
177941,379.746835443038,4,3,0,70,1,0
179459,368.098159509202,4,3,0,70,1,0
180931,382.165605095541,4,3,0,70,1,0
182459,370.37037037037,4,3,0,70,1,0
183940,375,4,3,0,70,1,0
185440,355.029585798817,4,3,0,70,1,0
186860,375,4,3,0,70,1,0
189860,384.615384615385,4,3,0,70,1,0
191398,361.44578313253,4,3,0,70,1,0
192843,375,4,3,0,70,1,0
194343,379.746835443038,4,3,0,70,1,0
195861,370.37037037037,4,3,0,70,1,0
197342,355.029585798817,4,3,0,70,1,0
198762,378.548895899054,4,3,0,70,1,0
203304,372.670807453416,4,3,0,70,1,0
204049,359.281437125748,4,3,0,70,1,0
204767,382.165605095541,4,3,0,70,1,0
206295,368.098159509202,4,3,0,70,1,0
207767,379.746835443038,4,3,0,70,1,0
209285,357.142857142857,4,3,0,70,1,0
210713,377.358490566038,4,3,0,70,1,0
212222,375,4,3,0,70,1,0
213722,382.165605095541,4,3,0,70,1,0
215250,370.37037037037,4,3,0,70,1,0
215990,368.098159509202,4,3,0,70,1,0
216726,379.746835443038,4,3,0,70,1,0
218244,372.670807453416,4,3,0,70,1,0
219734,379.746835443038,4,3,0,70,1,0
221252,375,4,3,0,70,1,0
222752,377.358490566038,4,3,0,70,1,0

[Colours]
Combo1 : 129,180,133
Combo2 : 204,179,130
Combo3 : 139,151,119
Combo4 : 220,105,108

[HitObjects]
444,132,43671,6,0,P|448:100|396:32,2,110,4|8|0,0:0|0:0|0:0,0:0:0:0:
368,196,44757,2,0,L|144:184,1,220,8|8,0:0|0:0,0:0:0:0:
68,244,45843,2,0,P|64:276|116:344,1,110,0|8,0:0|0:0,0:0:0:0:
164,260,46567,6,0,P|140:172|8:164,2,220,4|0|4,0:0|0:0|0:0,0:0:0:0:
124,352,48391,1,8,0:0:0:0:
312,292,49126,1,8,0:0:0:0:
396,348,49493,6,0,B|432:280|384:220|384:220|352:192|380:164|380:164|432:96|384:32,1,330,4|8,0:0|0:0,0:0:0:0:
312,92,50952,1,4,0:0:0:0:
216,76,51317,1,8,0:0:0:0:
116,100,51682,2,0,L|108:220,1,110,0|8,0:0|0:0,0:0:0:0:
88,308,52412,6,0,L|316:292,1,220,4|0,0:0|0:0,0:0:0:0:
392,348,53507,1,8,0:0:0:0:
456,272,53872,1,4,0:0:0:0:
380,208,54237,2,0,P|376:137|516:78,1,220,8|8,0:0|0:0,0:0:0:0:
472,168,55344,5,4,0:0:0:0:
459,272,55709,2,0,P|416:302|281:208,1,220,8|8,0:0|0:0,0:0:0:0:
304,136,56807,1,4,0:0:0:0:
208,124,57172,2,0,P|168:96|136:20,2,110,8|0|8,0:0|0:0|0:0,0:0:0:0:
212,224,58267,6,0,P|188:248|32:204,1,220,4|0,0:0|0:0,0:0:0:0:
128,164,59367,1,8,0:0:0:0:
216,120,59736,2,0,P|260:132|300:196,2,110,4|8|0,0:0|0:0|0:0,0:0:0:0:
128,164,60823,1,8,0:0:0:0:
80,80,61186,5,4,0:0:0:0:
24,164,61550,2,0,L|16:288,1,110,8|0,0:0|0:0,0:0:0:0:
112,300,62278,1,8,0:0:0:0:
196,244,62643,2,0,L|192:132,1,110,4|10,0:0|0:0,0:0:0:0:
252,56,63371,2,0,L|376:64,1,110,6|10,0:0|0:0,0:0:0:0:
256,192,64116,12,4,65592,0:0:0:0:
124,53,67003,6,0,B|124:165|124:165|206:238|206:238|206:353,1,330,6|8,0:0|0:0,0:0:0:0:
306,346,68486,2,0,B|306:238|306:238|388:165|388:165|388:53,1,330,4|8,0:0|0:0,0:0:0:0:
300,16,69953,6,0,B|300:100|300:100|300:144|256:200|212:144|212:100|212:100|212:16,1,330,4|8,0:0|0:0,0:0:0:0:
112,48,71407,2,0,P|64:179|208:251,1,330,4|8,0:0|0:0,0:0:0:0:
308,252,72852,6,0,P|446:192|404:48,1,330,4|8,0:0|0:0,0:0:0:0:
296,32,74331,1,4,0:0:0:0:
96,20,75062,1,2,0:0:0:0:
56,112,75425,1,8,0:0:0:0:
148,140,75789,6,0,L|136:360,1,220,4|2,0:0|0:0,0:0:0:0:
232,376,76896,1,8,0:0:0:0:
280,288,77265,2,0,L|276:160,2,110,4|8|2,0:0|0:0|0:0,0:0:0:0:
344,360,78364,1,8,0:0:0:0:
432,316,78731,6,0,P|524:196|420:72,2,330,4|8|2,0:0|0:0|0:0,0:0:0:0:
236,328,81648,6,0,B|236:284|296:240|296:240|348:200|348:132,1,220,4|8,0:0|0:0,0:0:0:0:
160,108,83085,2,0,B|108:112|56:72,2,110,6|0|4,0:0|0:0|0:0,0:0:0:0:
348,32,84571,5,4,0:0:0:0:
336,128,84939,2,0,P|364:164|436:196,1,110,8|0,0:0|0:0,0:0:0:0:
480,272,85675,1,8,0:0:0:0:
396,328,86043,1,4,0:0:0:0:
312,272,86408,2,0,L|192:272,2,110,8|0|8,0:0|0:0|0:0,0:0:0:0:
400,240,87506,6,0,P|424:191|400:144,1,110,4|8,0:0|0:0,0:0:0:0:
312,112,88231,2,0,L|192:112,1,110,0|8,0:0|0:0,0:0:0:0:
144,32,88956,1,4,0:0:0:0:
64,96,89320,2,0,P|16:192|64:288,1,220,8|8,0:0|0:0,0:0:0:0:
152,332,90414,5,4,0:0:0:0:
192,240,90779,2,0,P|256:168|320:244,2,220,8|8|8,0:0|0:0|0:0,0:0:0:0:
256,316,92603,1,0,0:0:0:0:
356,328,92968,1,8,0:0:0:0:
436,272,93332,6,0,P|456:152|308:32,1,330,4|8,0:0|0:0,0:0:0:0:
204,31,94791,2,0,P|70:114|76:272,1,330,4|8,0:0|0:0,0:0:0:0:
160,328,96245,6,0,P|176:280|160:208,2,110,4|8|0,0:0|0:0|0:0,0:0:0:0:
256,356,97349,1,8,0:0:0:0:
352,328,97717,2,0,P|336:280|352:208,1,110,4|8,0:0|0:0,0:0:0:0:
440,172,98453,1,0,0:0:0:0:
432,72,98821,1,8,0:0:0:0:
336,48,99189,6,0,P|256:112|176:48,1,220,4|0,0:0|0:0,0:0:0:0:
80,72,100273,1,8,0:0:0:0:
116,164,100634,2,0,L|112:284,2,110,4|8|0,0:0|0:0|0:0,0:0:0:0:
192,104,101731,1,8,0:0:0:0:
256,180,102109,5,4,0:0:0:0:
320,104,102477,1,8,0:0:0:0:
396,164,102845,2,0,L|400:284,1,110,0|8,0:0|0:0,0:0:0:0:
308,312,103581,1,4,0:0:0:0:
204,312,103949,1,2,0:0:0:0:
112,273,104317,2,0,L|116:164,1,110,0|10,0:0|0:0,0:0:0:0:
256,192,105053,12,6,106526,0:0:0:0:
20,48,107949,6,4,P|76:184|208:112,1,330,6|8,0:0|0:0,0:0:0:0:
305,117,109412,2,0,P|436:183|492:48,1,330,4|8,0:0|0:0,0:0:0:0:
402,89,110875,6,0,B|401:228|401:228|432:320,1,220,4|2,0:0|0:0,0:0:0:0:
344,356,111973,1,8,0:0:0:0:
256,308,112339,2,0,L|256:76,1,220,4|2,0:0|0:0,0:0:0:0:
180,28,113429,1,8,0:0:0:0:
112,92,113793,6,0,P|84:128|12:140,1,110,4|8,0:0|0:0,0:0:0:0:
23,241,114524,2,0,P|76:251|112:292,1,110,2|8,0:0|0:0,0:0:0:0:
200,336,115256,2,0,L|416:280,1,220,4|2,0:0|0:0,0:0:0:0:
452,192,116347,1,8,0:0:0:0:
412,103,116706,6,0,L|200:48,1,220,4|2,0:0|0:0,0:0:0:0:
120,108,117812,1,8,0:0:0:0:
172,192,118181,2,0,L|284:192,2,110,4|8|2,0:0|0:0|0:0,0:0:0:0:
120,276,119287,1,8,0:0:0:0:
196,340,119656,6,0,P|428:192|184:52,1,660,4|2,0:0|0:0,0:0:0:0:
256,192,122595,12,6,124012,0:0:0:0:
112,332,125503,6,0,L|44:240,1,110,6|8,0:0|0:0,0:0:0:0:
46,140,126243,2,0,L|112:52,1,110,2|0,0:0|0:0,0:0:0:0:
208,16,126984,2,0,B|320:16|320:16|464:16|464:160,1,330,4|0,0:0|0:0,0:0:0:0:
464,240,128436,6,0,B|464:368|320:371|320:371|208:371,1,330,4|8,0:0|0:0,0:0:0:0:
127,319,129894,2,0,P|40:191|128:64,1,330,4|8,0:0|0:0,0:0:0:0:
216,104,131353,6,0,L|336:104,2,110,4|8|2,0:0|0:0|0:0,0:0:0:0:
168,192,132448,1,8,0:0:0:0:
216,280,132812,2,0,L|336:280,1,110,4|8,0:0|0:0,0:0:0:0:
376,192,133542,2,0,L|496:192,1,110,2|8,0:0|0:0,0:0:0:0:
448,96,134271,5,4,0:0:0:0:
256,40,135001,1,2,0:0:0:0:
64,96,135730,2,0,L|64:208,2,110,4|0|2,0:0|0:0|0:0,0:0:0:0:
192,248,137189,6,0,P|192:288|144:336,2,110,4|8|0,0:0|0:0|0:0,0:0:0:0:
256,168,138307,1,8,0:0:0:0:
320,248,138672,2,0,P|320:288|368:336,1,110,4|8,0:0|0:0,0:0:0:0:
448,280,139397,2,0,L|456:160,1,110,0|8,0:0|0:0,0:0:0:0:
392,96,140122,5,4,0:0:0:0:
308,152,140484,2,0,L|316:264,2,110,8|0|8,0:0|0:0|0:0,0:0:0:0:
204,152,141572,2,0,L|196:264,2,110,4|8|0,0:0|0:0|0:0,0:0:0:0:
120,96,142659,1,8,0:0:0:0:
24,64,143022,6,0,B|1:127|43:172|74:187|74:187|72:280,1,220,4|0,0:0|0:0,0:0:0:0:
136,336,144129,1,8,0:0:0:0:
208,272,144498,2,0,B|210:208|210:208|256:194|307:160|299:90,1,220,4|0,0:0|0:0,0:0:0:0:
200,104,145606,1,8,0:0:0:0:
256,192,145975,12,6,147416,0:0:0:0:
64,176,160740,6,0,L|72:48,2,110,6|8|2,0:0|0:0|0:0,0:0:0:0:
16,260,161934,1,8,0:0:0:0:
104,308,162324,2,0,P|132:296|192:244,1,110,4|8,0:0|0:0,0:0:0:0:
172,148,163113,1,0,0:0:0:0:
352,144,163902,5,4,0:0:0:0:
384,240,164301,2,0,L|391:349,2,110,8|0|8,0:0|0:0|0:0,0:0:0:0:
448,168,165498,2,0,L|440:58,1,110,4|8,0:0|0:0,0:0:0:0:
344,32,166294,2,0,L|336:144,1,110,2|8,0:0|0:0,0:0:0:0:
256,200,167091,5,4,0:0:0:0:
175,141,167491,2,0,L|168:32,2,110,8|2|8,0:0|0:0|0:0,0:0:0:0:
166,235,168691,2,0,P|257:291|344:236,1,220,4|2,0:0|0:0,0:0:0:0:
256,192,169875,1,8,0:0:0:0:
307,108,170269,6,0,P|256:93|203:108,2,110,4|8|2,0:0|0:0|0:0,0:0:0:0:
400,136,171460,1,8,0:0:0:0:
383,232,171861,6,0,P|256:368|127:232,1,417.999988838196,0|6,0:0|0:0,0:0:0:0:
256,72,174175,1,2,0:0:0:0:
256,192,174920,12,6,180931,0:0:0:0:
