osu file format v14

[General]
AudioFilename: MCR - All I Want for Christmas is You.mp3
AudioLeadIn: 0
PreviewTime: 66886
Countdown: 1
SampleSet: None
StackLeniency: 0.7
Mode: 0
LetterboxInBreaks: 1
WidescreenStoryboard: 1

[Editor]
DistanceSpacing: 1
BeatDivisor: 4
GridSize: 4
TimelineZoom: 1.700001

[Metadata]
Title:All I Want For Christmas Is You
TitleUnicode:All I Want For Christmas Is You
Artist:My Chemical Romance
ArtistUnicode:My Chemical Romance
Creator:Bakari
Version:Insane
Source:
Tags:Gift Wrapped aiwfciy mcr emo punk gerard way matt pelissier ray toro mikey frank iero
BeatmapID:491393
BeatmapSetID:208736

[Difficulty]
HPDrainRate:7
CircleSize:4.5
OverallDifficulty:8
ApproachRate:9
SliderMultiplier:2.2
SliderTickRate:1

[Events]
//Background and Video events
0,0,"1555040.jpg",0,0
//Break Periods
2,148896,159843
//Storyboard Layer 0 (Background)
//Storyboard Layer 1 (Fail)
//Storyboard Layer 2 (Pass)
//Storyboard Layer 3 (Foreground)
//Storyboard Sound Samples

[TimingPoints]
625,952.380952380952,4,3,0,70,1,0
8244,869.565217391304,4,3,0,70,1,0
15300,923.076923076923,4,3,0,70,1,0
18069,845.070422535211,4,3,0,70,1,0
18914,923.076923076923,4,3,0,70,1,0
19252,821.917808219178,4,3,0,70,1,0
21717,967.741935483871,4,3,0,70,1,0
22684,1000,4,3,0,70,1,0
28684,2112.67605633803,4,3,0,70,1,0
31541,2272.72727272727,4,3,0,70,1,0
33813,857.142857142857,4,3,0,70,1,0
34670,845.070422535211,4,3,0,70,1,0
35515,810.810810810811,4,3,0,70,1,0
36325,800,4,3,0,70,1,0
37125,857.142857142857,4,3,0,70,1,0
38410,1666.66666666667,4,3,0,70,1,0
39243,740.740740740741,4,3,0,70,1,0
42212,361.44578313253,4,3,0,70,1,0
43296,375,4,3,0,70,1,0
43671,362.100181050091,4,3,0,70,1,0
46567,364.298724954463,4,3,0,70,1,0
48024,367.421922841396,4,3,0,70,1,0
49493,364.963503649635,4,3,0,70,1,0
54967,377.358490566038,4,3,0,70,1,0
55344,365.853658536585,4,3,0,70,1,0
56807,365.185636031649,4,3,0,70,1,0
58998,369.230769230769,4,3,0,70,1,0
59736,362.537764350453,4,3,0,70,1,0
61186,364.298724954463,4,3,0,70,1,0
63371,372.670807453416,4,3,0,70,1,0
64116,369.230769230769,4,3,0,70,1,0
65592,352.941176470588,4,3,0,70,1,0
67003,370.828182941904,4,3,0,70,1,1
67003,-83.3333333333333,4,3,0,70,0,1
68486,366.97247706422,4,3,0,70,1,1
68486,-83.3333333333333,4,3,0,70,0,1
69953,363.636363636364,4,3,0,70,1,1
69953,-83.3333333333333,4,3,0,70,0,1
71407,361.44578313253,4,3,0,70,1,1
71407,-83.3333333333333,4,3,0,70,0,1
72852,365.853658536585,4,3,0,70,1,1
72852,-83.3333333333333,4,3,0,70,0,1
73949,382.165605095541,4,3,0,70,1,1
73949,-83.3333333333333,4,3,0,70,0,1
74331,365.853658536585,4,3,0,70,1,1
74331,-83.3333333333333,4,3,0,70,0,1
75062,363.636363636364,4,3,0,70,1,1
75789,369.230769230769,4,3,0,70,1,1
75789,-83.3333333333333,4,3,0,70,0,1
77265,366.636113657195,4,3,0,70,1,1
77265,-83.3333333333333,4,3,0,70,0,1
81297,351.906158357771,4,3,0,70,1,1
81648,359.281437125748,4,3,0,70,1,1
81648,-83.3333333333333,4,3,0,70,0,1
83085,368.098159509202,4,3,0,70,1,0
84189,382.165605095541,4,3,0,70,1,0
84571,368.098159509202,4,3,0,70,1,0
86043,365.853658536585,4,3,0,70,1,0
87506,362.537764350453,4,3,0,70,1,0
88956,364.741641337386,4,3,0,70,1,0
95886,359.281437125748,4,3,0,70,1,0
96245,368.098159509202,4,3,0,70,1,0
99189,361.44578313253,4,3,0,70,1,0
100634,365.853658536585,4,3,0,70,1,0
101731,378.548895899054,4,3,0,70,1,0
102109,368.098159509202,4,3,0,70,1,0
106526,359.281437125748,4,3,0,70,1,0
107244,352.941176470588,4,3,0,70,1,0
107949,365.853658536585,4,3,0,70,1,1
107949,-83.3333333333333,4,3,0,70,0,1
112339,363.636363636364,4,3,0,70,1,1
112339,-83.3333333333333,4,3,0,70,0,1
113793,365.853658536585,4,3,0,70,1,1
113793,-83.3333333333333,4,3,0,70,0,1
115988,359.281437125748,4,3,0,70,1,1
116706,368.776889981561,4,3,0,70,1,1
116706,-83.3333333333333,4,3,0,70,0,1
119656,367.421922841396,4,3,0,70,1,1
119656,-83.3333333333333,4,3,0,70,0,1
122595,354.400472533963,4,3,0,70,1,0
124012,365.853658536585,4,3,0,70,1,0
125109,394.736842105263,4,3,0,70,1,0
125503,370.37037037037,4,3,0,70,1,0
125503,-133.333333333333,4,3,0,70,0,0
125525,-133.333333333333,4,3,0,70,0,0
126984,363.19612590799,4,3,0,70,1,0
126984,-133.333333333333,4,3,0,70,0,0
128436,364.741641337386,4,3,0,70,1,0
128436,-133.333333333333,4,3,0,70,0,0
131353,-133.333333333333,4,3,0,70,0,0
137189,377.358490566038,4,3,0,70,1,0
137189,-133.333333333333,4,3,0,70,0,0
137943,364.741641337386,4,3,0,70,1,0
137943,-133.333333333333,4,3,0,70,0,0
138672,362.537764350453,4,3,0,70,1,0
138672,-133.333333333333,4,3,0,70,0,0
143022,369.230769230769,4,3,0,70,1,0
143022,-133.333333333333,4,3,0,70,0,0
145975,360.36036036036,4,3,0,70,1,0
147416,366.97247706422,4,3,0,70,1,0
148149,373.831775700935,4,3,0,70,1,0
148896,366.97247706422,4,3,0,70,1,0
151831,363.636363636364,4,3,0,70,1,0
154740,368.098159509202,4,3,0,70,1,0
157684,365.853658536585,4,3,0,70,1,0
159147,359.281437125748,4,3,0,70,1,0
159865,875.912408759124,4,3,0,70,1,0
160740,805.369127516779,4,3,0,70,1,1
160740,-66.6666666666667,4,3,0,70,0,1
161545,779.220779220779,4,3,0,70,1,1
161545,-66.6666666666667,4,3,0,70,0,1
162324,789.473684210526,4,3,0,70,1,1
162324,-66.6666666666667,4,3,0,70,0,1
163902,798.403193612774,4,3,0,70,1,1
163902,-66.6666666666667,4,3,0,70,0,1
165498,796.812749003984,4,3,0,70,1,1
165498,-66.6666666666667,4,3,0,70,0,1
167091,800,4,3,0,70,1,1
167091,-66.6666666666667,4,3,0,70,0,1
168691,789.473684210526,4,3,0,70,1,1
168691,-66.6666666666667,4,3,0,70,0,1
170269,794.701986754967,4,3,0,70,1,1
170269,-66.6666666666667,4,3,0,70,0,1
171461,800,4,3,0,70,1,0
171861,771.431326540452,4,3,0,70,1,0
174175,745.341614906832,4,3,0,70,1,0
174175,-50,4,3,0,70,0,0
174920,379.746835443038,4,3,0,70,1,0
176438,375.93984962406,4,3,0,70,1,0
177941,379.746835443038,4,3,0,70,1,0
179459,368.098159509202,4,3,0,70,1,0
180931,382.165605095541,4,3,0,70,1,0
182459,370.37037037037,4,3,0,70,1,0
183940,375,4,3,0,70,1,0
185440,355.029585798817,4,3,0,70,1,0
186860,375,4,3,0,70,1,0
189860,384.615384615385,4,3,0,70,1,0
191398,361.44578313253,4,3,0,70,1,0
192843,375,4,3,0,70,1,0
194343,379.746835443038,4,3,0,70,1,0
195861,370.37037037037,4,3,0,70,1,0
197342,355.029585798817,4,3,0,70,1,0
198762,378.548895899054,4,3,0,70,1,0
203304,372.670807453416,4,3,0,70,1,0
204049,359.281437125748,4,3,0,70,1,0
204767,382.165605095541,4,3,0,70,1,0
206295,368.098159509202,4,3,0,70,1,0
207767,379.746835443038,4,3,0,70,1,0
209285,357.142857142857,4,3,0,70,1,0
210713,377.358490566038,4,3,0,70,1,0
212222,375,4,3,0,70,1,0
213722,382.165605095541,4,3,0,70,1,0
215250,370.37037037037,4,3,0,70,1,0
215990,368.098159509202,4,3,0,70,1,0
216726,379.746835443038,4,3,0,70,1,0
218244,372.670807453416,4,3,0,70,1,0
219734,379.746835443038,4,3,0,70,1,0
221252,375,4,3,0,70,1,0
222752,377.358490566038,4,3,0,70,1,0

[Colours]
Combo1 : 129,180,133
Combo2 : 204,179,130
Combo3 : 139,151,119
Combo4 : 220,105,108

[HitObjects]
116,116,43296,5,8,0:0:0:0:
120,108,43671,6,0,B|156:92|212:136|212:136|272:184|332:148,1,220,4|8,0:0|0:0,0:0:0:0:
400,60,44214,1,0,0:0:0:0:
280,64,44395,2,0,B|240:67|213:133|213:133|183:204|113:201,1,220,0|8,0:0|0:0,0:0:0:0:
0,84,44938,1,0,0:0:0:0:
32,264,45119,6,0,L|16:372,1,110,4|0,0:0|0:0,0:0:0:0:
128,324,45481,1,8,0:0:0:0:
244,356,45662,1,0,0:0:0:0:
370,227,45843,2,0,P|374:183|222:87,1,220,0|8,0:0|0:0,0:0:0:0:
152,148,46386,1,0,0:0:0:0:
264,196,46567,6,0,P|336:152|340:16,1,220,4|8,0:0|0:0,0:0:0:0:
236,76,47113,1,0,0:0:0:0:
152,244,47295,2,0,L|164:372,1,110
40,232,47659,2,0,L|60:116,1,110,8|0,0:0|0:0,0:0:0:0:
20,8,48024,5,4,0:0:0:0:
144,152,48207,1,0,0:0:0:0:
236,76,48391,2,0,P|280:64|352:88,1,110,8|0,0:0|0:0,0:0:0:0:
408,180,48758,2,0,P|388:272|476:368,1,220,0|8,0:0|0:0,0:0:0:0:
508,248,49309,1,0,0:0:0:0:
428,92,49493,6,0,L|312:116,1,110,4|0,0:0|0:0,0:0:0:0:
224,40,49857,1,8,0:0:0:0:
236,28,50222,2,0,L|220:264,1,220,0|8,0:0|0:0,0:0:0:0:
88,300,50770,1,0,0:0:0:0:
136,164,50952,6,0,P|160:140|248:116,1,110,4|0,0:0|0:0,0:0:0:0:
336,212,51317,1,8,0:0:0:0:
324,336,51500,1,0,0:0:0:0:
220,256,51682,2,0,L|208:36,1,220,0|8,0:0|0:0,0:0:0:0:
320,252,52412,6,0,P|296:312|136:308,2,220,4|8|0,0:0|0:0|0:0,0:0:0:0:
268,140,53325,1,0,0:0:0:0:
421,322,53507,2,0,L|513:254,1,110,8|0,0:0|0:0,0:0:0:0:
408,196,53872,2,0,L|344:88,1,110,4|0,0:0|0:0,0:0:0:0:
472,96,54237,2,0,L|380:305,2,220,8|0|8,0:0|0:0|0:0,0:0:0:0:
372,24,55155,1,0,0:0:0:0:
372,144,55344,6,0,P|340:192|180:192,1,220,4|8,0:0|0:0,0:0:0:0:
140,92,55892,1,0,0:0:0:0:
267,91,56075,2,0,P|295:191|248:304,1,220,0|8,0:0|0:0,0:0:0:0:
101,301,56624,1,0,0:0:0:0:
144,184,56807,5,4,0:0:0:0:
80,292,56989,1,0,0:0:0:0:
244,236,57172,2,0,P|256:192|244:128,1,110,8|0,0:0|0:0,0:0:0:0:
348,68,57537,2,0,P|376:80|460:76,2,110,0|0|8,0:0|0:0|0:0,0:0:0:0:
232,32,58085,1,0,0:0:0:0:
326,196,58267,6,0,P|318:256|174:312,1,220,4|8,0:0|0:0,0:0:0:0:
80,128,58815,1,0,0:0:0:0:
148,228,58998,2,0,P|100:248|32:240,1,110
191,137,59367,1,8,0:0:0:0:
138,318,59551,1,0,0:0:0:0:
284,160,59736,6,0,P|320:196|320:360,1,220,4|8,0:0|0:0,0:0:0:0:
218,274,60279,1,0,0:0:0:0:
430,215,60461,2,0,L|454:99,1,110
315,7,60823,2,0,L|323:131,1,110,8|0,0:0|0:0,0:0:0:0:
156,212,61186,6,0,L|168:84,1,110,4|0,0:0|0:0,0:0:0:0:
80,10,61550,1,8,0:0:0:0:
322,116,61914,2,0,P|346:84|358:16,1,110
231,173,62278,2,0,P|259:205|339:217,1,110,8|0,0:0|0:0,0:0:0:0:
412,144,62643,5,4,0:0:0:0:
184,60,63007,1,10,0:0:0:0:
244,296,63371,2,0,P|288:308|360:280,1,110,6|0,0:0|0:0,0:0:0:0:
412,144,63743,1,10,0:0:0:0:
256,192,64116,12,4,65592,0:0:0:0:
412,128,67003,6,0,P|420:92|404:28,2,87.9999973144532,6|0|0,0:0|0:0|0:0,0:0:0:0:
360,212,67373,2,0,P|352:248|364:304,2,87.9999973144532,8|0|0,0:0|0:0|0:0,0:0:0:0:
456,212,67744,2,2,L|292:120,1,175.999994628906,2|0,0:0|0:0,0:0:0:0:
209,125,68115,2,2,L|48:212,1,175.999994628906,8|0,0:0|0:0,0:0:0:0:
76,304,68486,6,2,P|148:224|131:153,1,175.999994628906,4|0,0:0|0:0,0:0:0:0:
52,116,68852,1,0,0:0:0:0:
228,200,69097,1,0,0:0:0:0:
316,236,69219,2,0,P|352:220|388:171,2,87.9999973144532,2|0|0,0:0|0:0|0:0,0:0:0:0:
232,312,69586,2,0,P|264:336|327:346,2,87.9999973144532,8|0|0,0:0|0:0|0:0,0:0:0:0:
228,200,69953,6,2,P|156:240|69:208,1,175.999994628906,4|0,0:0|0:0,0:0:0:0:
36,97,70316,2,0,P|56:61|108:25,2,87.9999973144532,8|0|0,0:0|0:0|0:0,0:0:0:0:
144,136,70680,2,2,B|183:108|230:118|230:118|284:131|323:99,1,175.999994628906,2|0,0:0|0:0,0:0:0:0:
220,40,71043,2,2,B|201:71|223:123|223:123|241:167|221:210,1,175.999994628906,8|0,0:0|0:0,0:0:0:0:
144,268,71407,6,0,P|108:264|64:220,2,87.9999973144532,4|0|0,0:0|0:0|0:0,0:0:0:0:
248,316,71768,2,0,P|224:348|171:368,2,87.9999973144532,8|0|0,0:0|0:0|0:0,0:0:0:0:
352,272,72129,2,0,P|356:308|352:368,2,87.9999973144532,2|0|0,0:0|0:0|0:0,0:0:0:0:
268,196,72491,2,0,P|232:184|188:136,1,87.9999973144532,8|0,0:0|0:0,0:0:0:0:
180,36,72732,1,0,0:0:0:0:
288,68,72852,5,4,0:0:0:0:
208,272,73095,1,2,2:0:0:0:
269,197,73217,2,2,P|334:164|432:216,1,175.999994628906,8|0,0:0|0:0,0:0:0:0:
344,260,73583,2,2,L|300:68,1,175.999994628906,2|0,0:0|0:0,0:0:0:0:
207,88,73949,2,2,L|168:260,1,175.999994628906,8|0,0:0|0:0,0:0:0:0:
208,348,74331,6,0,P|169:356|112:336,2,87.9999973144532,4|0|0,0:0|0:0|0:0,0:0:0:0:
304,348,74696,2,0,P|343:356|392:340,2,87.9999973144532,8|0|0,0:0|0:0|0:0,0:0:0:0:
252,264,75062,1,2,0:0:0:0:
252,168,75183,1,0,0:0:0:0:
192,96,75304,1,0,0:0:0:0:
96,88,75425,2,0,L|88:16,2,73.3333333333333,8|0|0,0:0|0:0|0:0,0:0:0:0:
16,144,75789,6,2,P|40:208|132:256,1,175.999994628906,4|0,0:0|0:0,0:0:0:0:
293,181,76158,2,2,P|256:118|221:182,1,175.999994628906,8|0,0:0|0:0,0:0:0:0:
380,255,76527,2,2,P|459:222|496:144,1,175.999994628906,2|0,0:0|0:0,0:0:0:0:
334,64,76896,2,2,P|256:35|169:71,1,175.999994628906,8|0,0:0|0:0,0:0:0:0:
158,185,77265,6,2,P|149:244|54:297,1,175.999994628906,4|0,0:0|0:0,0:0:0:0:
64,202,77631,1,8,0:0:0:0:
252,378,77998,1,2,0:0:0:0:
442,169,78364,1,8,0:0:0:0:
128,32,78731,6,2,P|84:72|192:68,1,263.99999194336,4|8,0:0|0:0,0:0:0:0:
384,32,79464,2,2,P|428:72|320:68,1,263.99999194336,2|8,0:0|0:0,0:0:0:0:
212,296,80198,2,2,P|256:200|293:296,3,263.99999194336,4|8|2|8,0:0|0:0|0:0|0:0,0:0:0:0:
6,247,81648,6,0,P|-6:199|100:136,1,175.999994628906,4|0,0:0|0:0,0:0:0:0:
184,184,82007,2,0,P|272:220|352:180,1,175.999994628906,8|0,0:0|0:0,0:0:0:0:
376,80,82366,2,0,P|360:44|304:8,2,87.9999973144532,8|8|8,0:0|0:0|0:0,0:0:0:0:
264,108,82725,1,10,0:0:0:0:
80,188,83085,6,0,L|65:116,1,73.3333333333333,6|0,0:0|0:0,0:0:0:0:
169,195,83330,2,0,L|160:268,1,73.3333333333333,4|0,0:0|0:0,0:0:0:0:
261,316,83575,2,0,L|252:244,1,73.3333333333333,4|0,0:0|0:0,0:0:0:0:
356,203,83821,2,0,L|348:276,2,73.3333333333333,4|0|0,0:0|0:0|0:0,0:0:0:0:
368,112,84189,1,4,0:0:0:0:
380,116,84571,6,0,P|336:144|240:124,1,146.666666666667,4|0,0:0|0:0,0:0:0:0:
184,76,84939,1,8,0:0:0:0:
148,332,85307,1,0,0:0:0:0:
32,40,85675,1,8,0:0:0:0:
204,212,86043,2,0,P|264:212|328:144,1,146.666666666667,4|0,0:0|0:0,0:0:0:0:
308,76,86408,1,8,0:0:0:0:
104,208,86774,2,0,L|96:360,1,146.666666666667
36,304,87140,2,0,P|96:280|176:332,1,146.666666666667,8|0,0:0|0:0,0:0:0:0:
244,300,87506,6,0,P|284:241|355:232,1,146.666666666667,4|0,0:0|0:0,0:0:0:0:
324,308,87868,2,0,L|248:176,1,146.666666666667,8|0,0:0|0:0,0:0:0:0:
244,100,88231,2,0,P|184:128|40:80,1,220,0|8,0:0|0:0,0:0:0:0:
42,70,88956,1,4,0:0:0:0:
66,228,89199,1,0,0:0:0:0:
146,180,89320,2,8,P|217:181|267:237,1,146.666666666667,8|0,0:0|0:0,0:0:0:0:
346,233,89685,2,0,P|366:197|462:177,1,146.666666666667
424,252,90050,2,0,P|384:203|404:120,1,146.666666666667,8|0,0:0|0:0,0:0:0:0:
456,68,90414,5,4,0:0:0:0:
216,44,90779,2,0,P|172:80|80:76,1,146.666666666667,8|0,0:0|0:0,0:0:0:0:
60,156,91144,2,0,P|113:176|155:257,1,146.666666666667
116,324,91509,1,8,0:0:0:0:
368,36,91873,1,4,0:0:0:0:
488,244,92238,2,0,P|460:276|352:268,1,146.666666666667,8|0,0:0|0:0,0:0:0:0:
292,236,92603,2,0,P|220:216|160:264,1,146.666666666667
116,324,92968,1,8,0:0:0:0:
360,324,93332,6,0,L|376:156,1,146.666666666667,4|0,0:0|0:0,0:0:0:0:
312,124,93697,2,0,L|164:152,1,146.666666666667,8|0,0:0|0:0,0:0:0:0:
104,100,94062,1,0,0:0:0:0:
204,320,94427,1,8,0:0:0:0:
392,168,94791,2,0,P|400:104|256:44,1,220,4|8,0:0|0:0,0:0:0:0:
104,100,95399,1,0,0:0:0:0:
70,183,95521,2,0,P|165:166|180:56,1,220,0|8,0:0|0:0,0:0:0:0:
308,348,96245,5,4,0:0:0:0:
484,124,96613,1,8,0:0:0:0:
488,136,96981,2,0,P|492:88|392:44,1,146.666666666667
352,104,97349,2,0,P|304:120|200:84,1,146.666666666667,8|0,0:0|0:0,0:0:0:0:
180,12,97717,1,4,0:0:0:0:
136,344,98085,1,8,0:0:0:0:
108,104,98453,2,0,P|184:104|248:156,1,146.666666666667
292,204,98821,2,0,P|336:224|424:176,1,146.666666666667,8|0,0:0|0:0,0:0:0:0:
348,144,99189,6,0,P|344:208|416:264,1,146.666666666667,4|0,0:0|0:0,0:0:0:0:
480,248,99550,2,0,P|506:168|397:98,2,220,8|0|8,0:0|0:0|0:0,0:0:0:0:
256,340,100634,2,0,B|220:288|256:240|256:240|296:192|256:132,2,220,4|8|0,0:0|0:0|0:0,0:0:0:0:
204,186,101609,1,0,0:0:0:0:
204,198,101731,2,0,P|236:256|320:284,1,146.666666666667,8|0,0:0|0:0,0:0:0:0:
396,238,102109,6,0,P|422:171|397:103,1,146.666666666667,4|0,0:0|0:0,0:0:0:0:
260,67,102477,2,0,P|216:99|204:187,1,146.666666666667,8|0,0:0|0:0,0:0:0:0:
288,256,102845,1,0,0:0:0:0:
245,2,103213,1,8,0:0:0:0:
504,19,103581,2,0,P|505:59|471:125,1,110,4|0,0:0|0:0,0:0:0:0:
328,80,103949,1,8,0:0:0:0:
68,252,104317,2,0,P|48:200|64:140,1,110
189,82,104685,2,0,L|304:90,1,110,10|0,0:0|0:0,0:0:0:0:
388,16,105053,5,4,0:0:0:0:
416,48,105789,1,4,0:0:0:0:
446,72,106526,5,6,0:0:0:0:
304,28,107949,6,6,P|340:56|321:194,1,175.999994628906,6|0,0:0|0:0,0:0:0:0:
248,208,108314,2,2,L|63:197,1,175.999994628906,8|0,0:0|0:0,0:0:0:0:
120,284,108680,2,2,P|168:208|135:126,1,175.999994628906,2|0,0:0|0:0,0:0:0:0:
56,72,109046,1,8,0:0:0:0:
152,24,109168,1,0,0:0:0:0:
248,68,109290,1,0,0:0:0:0:
332,144,109412,6,2,P|364:164|492:121,1,175.999994628906,4|0,0:0|0:0,0:0:0:0:
400,68,109778,2,2,P|388:136|448:228,1,175.999994628906,8|0,0:0|0:0,0:0:0:0:
492,316,110144,2,0,L|396:304,1,87.9999973144532,2|0,0:0|0:0,0:0:0:0:
312,360,110388,1,0,0:0:0:0:
208,316,110509,2,0,P|196:284|212:212,2,87.9999973144532,8|0|0,0:0|0:0|0:0,0:0:0:0:
308,260,110875,6,2,P|324:196|282:91,1,175.999994628906,4|0,0:0|0:0,0:0:0:0:
180,52,111241,1,8,0:0:0:0:
128,256,111485,1,0,0:0:0:0:
216,312,111607,2,2,B|263:323|296:284|296:284|328:241|384:244,1,175.999994628906,2|0,0:0|0:0,0:0:0:0:
352,348,111973,2,2,B|304:339|289:290|289:290|276:238|223:219,1,175.999994628906,8|0,0:0|0:0,0:0:0:0:
152,252,112339,6,0,P|160:216|146:161,2,87.9999973144532,4|0|0,0:0|0:0|0:0,0:0:0:0:
64,308,112702,1,8,0:0:0:0:
16,216,112823,1,0,0:0:0:0:
36,112,112945,1,0,0:0:0:0:
128,64,113066,2,0,P|176:76|208:116,1,87.9999973144532,2|0,0:0|0:0,0:0:0:0:
228,204,113308,1,0,0:0:0:0:
316,152,113429,2,0,P|340:148|404:164,1,87.9999973144532,8|0,0:0|0:0,0:0:0:0:
476,240,113672,1,0,0:0:0:0:
476,128,113793,6,2,P|408:152|373:254,1,175.999994628906,4|0,0:0|0:0,0:0:0:0:
320,328,114158,2,2,P|244:352|156:320,1,175.999994628906,8|0,0:0|0:0,0:0:0:0:
96,244,114524,2,2,L|112:48,1,175.999994628906,2|0,0:0|0:0,0:0:0:0:
196,24,114890,2,0,L|204:112,2,87.9999973144532,8|0|0,0:0|0:0|0:0,0:0:0:0:
288,60,115256,6,2,L|276:244,1,175.999994628906,4|0,0:0|0:0,0:0:0:0:
373,338,115622,2,0,L|365:250,2,87.9999973144532,8|0|0,0:0|0:0|0:0,0:0:0:0:
415,172,115988,2,2,P|367:156|279:216,1,146.666666666667,2|0,0:0|0:0,0:0:0:0:
184,209,116347,2,0,P|160:173|116:157,2,73.3333333333333,8|0|0,0:0|0:0|0:0,0:0:0:0:
185,314,116706,6,2,P|253:298|345:353,1,175.999994628906,4|0,0:0|0:0,0:0:0:0:
420,264,117074,2,2,P|372:213|373:110,1,175.999994628906,8|0,0:0|0:0,0:0:0:0:
239,91,117443,2,2,P|218:157|129:208,1,175.999994628906,2|0,0:0|0:0,0:0:0:0:
24,164,117812,2,0,P|12:132|20:72,2,87.9999973144532,8|0|0,0:0|0:0|0:0,0:0:0:0:
178,275,118181,6,2,P|190:323|74:363,1,175.999994628906,4|0,0:0|0:0,0:0:0:0:
159,178,118549,2,2,P|231:190|271:298,1,175.999994628906,8|0,0:0|0:0,0:0:0:0:
67,121,118918,2,2,P|135:77|243:93,1,175.999994628906,2|0,0:0|0:0,0:0:0:0:
316,132,119287,2,2,P|396:152|468:96,1,175.999994628906,8|0,0:0|0:0,0:0:0:0:
376,60,119656,6,2,P|368:112|441:222,1,175.999994628906,4|0,0:0|0:0,0:0:0:0:
512,272,120023,1,8,0:0:0:0:
412,308,120145,1,0,0:0:0:0:
320,360,120268,1,0,0:0:0:0:
257,273,120390,2,0,L|256:172,2,87.9999973144532,2|0|0,0:0|0:0|0:0,0:0:0:0:
192,360,120758,1,8,0:0:0:0:
100,308,120881,1,0,0:0:0:0:
0,272,121003,1,0,0:0:0:0:
87,207,121125,6,2,P|122:160|81:41,1,175.999994628906,4|0,0:0|0:0,0:0:0:0:
32,127,121493,2,2,L|224:111,1,175.999994628906,8|0,0:0|0:0,0:0:0:0:
304,112,121860,2,2,L|484:129,1,175.999994628906,2|0,0:0|0:0,0:0:0:0:
415,53,122227,2,2,P|383:132|443:222,1,175.999994628906,8|0,0:0|0:0,0:0:0:0:
256,192,122595,12,8,123658,0:0:0:0:
84,316,124012,6,0,L|72:228,1,73.3333333333333,6|0,0:0|0:0,0:0:0:0:
191,181,124255,2,0,L|200:272,1,73.3333333333333,4|0,0:0|0:0,0:0:0:0:
312,192,124499,2,0,L|328:120,1,73.3333333333333,4|0,0:0|0:0,0:0:0:0:
412,48,124743,2,2,P|440:96|404:248,1,220,6|8,0:0|0:0,0:0:0:0:
168,120,125503,6,0,L|156:296,1,165.000006294251,4|8,0:0|0:0,0:0:0:0:
264,116,126243,2,0,P|240:48|136:28,2,165.000006294251,2|0|4,0:0|0:0|0:0,0:0:0:0:
192,300,127347,1,8,0:0:0:0:
192,300,127710,2,0,P|280:292|344:356,1,165.000006294251,2|0,0:0|0:0,0:0:0:0:
124,376,128436,6,0,P|88:328|128:228,1,165.000006294251,4|8,0:0|0:0,0:0:0:0:
324,164,129165,2,0,L|336:280,1,110.000004196167,2|0,0:0|0:0,0:0:0:0:
212,200,129530,2,0,L|228:72,1,110.000004196167,8|0,0:0|0:0,0:0:0:0:
305,20,129894,2,0,P|353:12|457:84,2,165.000006294251,4|8|2,0:0|0:0|0:0,0:0:0:0:
156,316,130989,1,8,0:0:0:0:
56,128,131353,6,0,P|80:88|36:28,1,110.000004196167,4|0,0:0|0:0,0:0:0:0:
14,199,131718,2,0,P|80:204|123:176,1,110.000004196167,2|0,0:0|0:0,0:0:0:0:
148,116,132083,2,0,P|196:128|256:108,1,110.000004196167,8|0,0:0|0:0,0:0:0:0:
288,48,132448,1,2,0:0:0:0:
484,136,132812,1,4,0:0:0:0:
472,128,133177,2,0,L|484:296,2,165.000006294251,8|2|8,0:0|0:0|0:0,0:0:0:0:
264,76,134271,6,0,P|232:108|112:92,2,165.000006294251,4|8|2,0:0|0:0|0:0,0:0:0:0:
269,59,135366,1,12,0:0:0:0:
272,272,135730,6,4,P|232:304|20:248,1,275.000010490418
20,188,136460,2,0,L|28:120,2,55.0000020980836,2|0|0,0:0|0:0|0:0,0:0:0:0:
106,174,136825,2,0,L|112:228,1,55.0000020980836,8|0,0:0|0:0,0:0:0:0:
187,172,137068,1,0,0:0:0:0:
232,108,137189,6,0,P|296:112|380:176,1,165.000006294251,4|8,0:0|0:0,0:0:0:0:
368,312,137817,1,0,0:0:0:0:
316,264,137943,2,0,P|264:264|208:296,1,110.000004196167
144,272,138307,2,0,P|128:224|68:176,1,110.000004196167,8|0,0:0|0:0,0:0:0:0:
116,120,138672,2,0,P|160:132|280:68,2,165.000006294251,4|8|0,0:0|0:0|0:0,0:0:0:0:
104,104,139759,2,0,L|112:228,1,110.000004196167,8|0,0:0|0:0,0:0:0:0:
76,288,140122,5,4,0:0:0:0:
288,220,140484,2,0,P|336:228|396:344,2,165.000006294251,8|0|8,0:0|0:0|0:0,0:0:0:0:
268,228,141572,2,0,L|280:104,1,110.000004196167,4|0,0:0|0:0,0:0:0:0:
156,48,141934,2,0,L|164:160,1,110.000004196167,8|0,0:0|0:0,0:0:0:0:
200,304,142297,2,0,P|236:328|314:321,1,110.000004196167
148,240,142659,2,0,P|120:280|132:356,1,110.000004196167,8|0,0:0|0:0,0:0:0:0:
224,224,143022,6,0,L|216:104,1,110.000004196167,4|0,0:0|0:0,0:0:0:0:
276,76,143391,2,0,L|392:96,1,110.000004196167,8|0,0:0|0:0,0:0:0:0:
444,52,143760,1,0,0:0:0:0:
284,300,144129,1,8,0:0:0:0:
252,160,144375,1,0,0:0:0:0:
224,228,144498,6,0,P|172:244|112:224,1,110.000004196167,4|0,0:0|0:0,0:0:0:0:
72,172,144868,1,8,0:0:0:0:
164,368,145237,1,0,0:0:0:0:
384,44,145606,1,8,0:0:0:0:
256,192,145975,12,6,147416,0:0:0:0:
104,88,160740,6,0,L|277:96,1,165.000006294251,6|8,0:0|0:0,0:0:0:0:
412,60,161411,1,0,0:0:0:0:
460,124,161545,2,0,L|336:140,1,110.000004196167,2|0,0:0|0:0,0:0:0:0:
288,168,161934,1,8,0:0:0:0:
324,376,162194,1,0,0:0:0:0:
272,324,162324,1,4,0:0:0:0:
356,208,162587,1,0,0:0:0:0:
364,136,162718,2,2,P|340:104|212:124,2,165.000006294251,8|0|8,0:0|0:0|0:0,0:0:0:0:
367,148,163902,5,4,0:0:0:0:
232,92,164168,1,0,0:0:0:0:
192,152,164301,2,2,L|205:329,2,165.000006294251,8|0|8,0:0|0:0|0:0,0:0:0:0:
182,144,165498,2,2,P|110:112|38:168,1,165.000006294251,4|8,0:0|0:0,0:0:0:0:
248,224,166294,2,2,P|276:192|252:76,2,165.000006294251,2|8|4,0:0|0:0|0:0,0:0:0:0:
148,328,167357,5,0,0:0:0:0:
208,292,167491,2,0,L|328:296,1,110.000004196167,8|0,0:0|0:0,0:0:0:0:
368,244,167891,2,0,L|361:123,1,110.000004196167,2|0,0:0|0:0,0:0:0:0:
408,80,168291,1,8,0:0:0:0:
240,164,168691,2,2,P|184:180|97:102,2,165.000006294251,4|8|2,0:0|0:0|0:0,0:0:0:0:
396,16,169875,1,8,0:0:0:0:
224,144,170269,6,2,P|196:184|212:255,1,110.000004196167,4|0,0:0|0:0,0:0:0:0:
267,278,170666,2,0,L|327:282,2,55.0000020980836,8|0|0,0:0|0:0|0:0,0:0:0:0:
263,205,171063,2,2,L|147:213,1,110.000004196167,2|0,0:0|0:0,0:0:0:0:
96,264,171461,1,8,0:0:0:0:
256,192,171861,12,6,173403,0:0:0:0:
112,120,174175,6,0,P|128:88|164:64,2,73.3333333333333,2|0|0,0:0|0:0|0:0,0:0:0:0:
128,200,174547,2,0,P|112:232|76:256,2,73.3333333333333,2|0|0,0:0|0:0|0:0,0:0:0:0:
192,148,174920,6,2,P|248:140|336:196,1,146.666666666667,4|0,0:0|0:0,0:0:0:0:
356,256,175299,2,0,L|349:338,2,73.3333333333333,8|0|0,0:0|0:0|0:0,0:0:0:0:
412,200,175679,2,2,L|424:36,1,146.666666666667,2|0,0:0|0:0,0:0:0:0:
484,108,176059,2,2,P|436:132|348:88,1,146.666666666667,8|0,0:0|0:0,0:0:0:0:
332,20,176438,6,0,P|296:36|248:36,1,73.3333333333333,4|0,0:0|0:0,0:0:0:0:
184,24,176688,1,0,0:0:0:0:
128,80,176813,2,0,P|120:116|132:160,1,73.3333333333333,8|0,0:0|0:0,0:0:0:0:
192,200,177064,1,0,0:0:0:0:
264,164,177189,2,2,P|312:156|380:220,1,146.666666666667,2|0,0:0|0:0,0:0:0:0:
300,240,177565,2,10,P|308:176|380:136,1,146.666666666667,8|0,0:0|0:0,0:0:0:0:
460,168,177941,6,0,P|473:229|343:309,2,220,4|8|2,0:0|0:0|0:0,0:0:0:0:
268,16,179080,1,8,0:0:0:0:
256,192,179459,12,6,180931,0:0:0:0:
