osu file format v14

[General]
AudioFilename: MCR - All I Want for Christmas is You.mp3
AudioLeadIn: 0
PreviewTime: 66886
Countdown: 1
SampleSet: None
StackLeniency: 0.7
Mode: 0
LetterboxInBreaks: 1
WidescreenStoryboard: 1

[Editor]
DistanceSpacing: 1
BeatDivisor: 4
GridSize: 4
TimelineZoom: 2

[Metadata]
Title:All I Want For Christmas Is You
TitleUnicode:All I Want For Christmas Is You
Artist:My Chemical Romance
ArtistUnicode:My Chemical Romance
Creator:Bakari
Version:Hard
Source:
Tags:Gift Wrapped aiwfciy mcr emo punk gerard way matt pelissier ray toro mikey frank iero
BeatmapID:493997
BeatmapSetID:208736

[Difficulty]
HPDrainRate:6.5
CircleSize:3.7
OverallDifficulty:6
ApproachRate:7.5
SliderMultiplier:1.65
SliderTickRate:1

[Events]
//Background and Video events
0,0,"1555040.jpg",0,0
//Break Periods
2,148896,159915
//Storyboard Layer 0 (Background)
//Storyboard Layer 1 (Fail)
//Storyboard Layer 2 (Pass)
//Storyboard Layer 3 (Foreground)
//Storyboard Sound Samples

[TimingPoints]
625,952.380952380952,4,3,0,70,1,0
8244,869.565217391304,4,3,0,70,1,0
15300,923.076923076923,4,3,0,70,1,0
18069,845.070422535211,4,3,0,70,1,0
18914,923.076923076923,4,3,0,70,1,0
19252,821.917808219178,4,3,0,70,1,0
21717,967.741935483871,4,3,0,70,1,0
22684,1000,4,3,0,70,1,0
28684,2112.67605633803,4,3,0,70,1,0
31541,2272.72727272727,4,3,0,70,1,0
33813,857.142857142857,4,3,0,70,1,0
34670,845.070422535211,4,3,0,70,1,0
35515,810.810810810811,4,3,0,70,1,0
36325,800,4,3,0,70,1,0
37125,857.142857142857,4,3,0,70,1,0
38410,1666.66666666667,4,3,0,70,1,0
39243,740.740740740741,4,3,0,70,1,0
42212,361.44578313253,4,3,0,70,1,0
43296,375,4,3,0,70,1,0
43671,362.100181050091,4,3,0,70,1,0
46567,364.298724954463,4,3,0,70,1,0
48024,367.421922841396,4,3,0,70,1,0
49493,364.963503649635,4,3,0,70,1,0
54967,377.358490566038,4,3,0,70,1,0
55344,365.853658536585,4,3,0,70,1,0
56807,365.185636031649,4,3,0,70,1,0
58998,369.230769230769,4,3,0,70,1,0
59736,362.537764350453,4,3,0,70,1,0
61186,364.298724954463,4,3,0,70,1,0
63371,372.670807453416,4,3,0,70,1,0
64116,369.230769230769,4,3,0,70,1,0
65592,352.941176470588,4,3,0,70,1,0
67003,370.828182941904,4,3,0,70,1,1
67003,-100,4,3,0,70,0,1
68486,366.97247706422,4,3,0,70,1,1
69953,363.636363636364,4,3,0,70,1,1
71407,361.44578313253,4,3,0,70,1,1
72852,365.853658536585,4,3,0,70,1,1
73949,382.165605095541,4,3,0,70,1,1
74331,365.853658536585,4,3,0,70,1,1
75062,363.636363636364,4,3,0,70,1,1
75789,369.230769230769,4,3,0,70,1,1
77265,366.636113657195,4,3,0,70,1,1
81297,351.906158357771,4,3,0,70,1,1
81648,359.281437125748,4,3,0,70,1,1
83085,368.098159509202,4,3,0,70,1,0
84189,382.165605095541,4,3,0,70,1,0
84571,368.098159509202,4,3,0,70,1,0
86043,365.853658536585,4,3,0,70,1,0
87506,362.537764350453,4,3,0,70,1,0
88956,364.741641337386,4,3,0,70,1,0
95886,359.281437125748,4,3,0,70,1,0
96245,368.098159509202,4,3,0,70,1,0
99189,361.44578313253,4,3,0,70,1,0
100634,365.853658536585,4,3,0,70,1,0
101731,378.548895899054,4,3,0,70,1,0
102109,368.098159509202,4,3,0,70,1,0
106526,359.281437125748,4,3,0,70,1,0
107244,352.941176470588,4,3,0,70,1,0
107949,365.853658536585,4,3,0,70,1,1
112339,363.636363636364,4,3,0,70,1,1
113793,365.853658536585,4,3,0,70,1,1
115988,359.281437125748,4,3,0,70,1,1
116706,368.776889981561,4,3,0,70,1,1
119656,367.421922841396,4,3,0,70,1,1
122595,354.400472533963,4,3,0,70,1,0
124012,365.853658536585,4,3,0,70,1,0
125109,394.736842105263,4,3,0,70,1,0
125503,370.37037037037,4,3,0,70,1,0
125503,-133.333333333333,4,3,0,70,0,0
125525,-133.333333333333,4,3,0,70,0,0
126984,363.19612590799,4,3,0,70,1,0
126984,-133.333333333333,4,3,0,70,0,0
128436,364.741641337386,4,3,0,70,1,0
128436,-133.333333333333,4,3,0,70,0,0
131353,-133.333333333333,4,3,0,70,0,0
137189,377.358490566038,4,3,0,70,1,0
137189,-133.333333333333,4,3,0,70,0,0
137943,364.741641337386,4,3,0,70,1,0
137943,-133.333333333333,4,3,0,70,0,0
138672,362.537764350453,4,3,0,70,1,0
138672,-133.333333333333,4,3,0,70,0,0
143022,369.230769230769,4,3,0,70,1,0
143022,-133.333333333333,4,3,0,70,0,0
145975,360.36036036036,4,3,0,70,1,0
147416,366.97247706422,4,3,0,70,1,0
148149,373.831775700935,4,3,0,70,1,0
148896,366.97247706422,4,3,0,70,1,0
151831,363.636363636364,4,3,0,70,1,0
154740,368.098159509202,4,3,0,70,1,0
157684,365.853658536585,4,3,0,70,1,0
159147,359.281437125748,4,3,0,70,1,0
159865,875.912408759124,4,3,0,70,1,0
160740,805.369127516779,4,3,0,70,1,1
160740,-66.6666666666667,4,3,0,70,0,1
161545,779.220779220779,4,3,0,70,1,1
161545,-66.6666666666667,4,3,0,70,0,1
162324,789.473684210526,4,3,0,70,1,1
162324,-66.6666666666667,4,3,0,70,0,1
163902,798.403193612774,4,3,0,70,1,1
163902,-66.6666666666667,4,3,0,70,0,1
165498,796.812749003984,4,3,0,70,1,1
165498,-66.6666666666667,4,3,0,70,0,1
167091,800,4,3,0,70,1,1
167091,-66.6666666666667,4,3,0,70,0,1
168691,789.473684210526,4,3,0,70,1,1
168691,-66.6666666666667,4,3,0,70,0,1
170269,794.701986754967,4,3,0,70,1,1
170269,-66.6666666666667,4,3,0,70,0,1
171461,800,4,3,0,70,1,0
171861,771.431326540452,4,3,0,70,1,0
174175,745.341614906832,4,3,0,70,1,0
174175,-50,4,3,0,70,0,0
174920,379.746835443038,4,3,0,70,1,0
176438,375.93984962406,4,3,0,70,1,0
177941,379.746835443038,4,3,0,70,1,0
179459,368.098159509202,4,3,0,70,1,0
180931,382.165605095541,4,3,0,70,1,0
182459,370.37037037037,4,3,0,70,1,0
183940,375,4,3,0,70,1,0
185440,355.029585798817,4,3,0,70,1,0
186860,375,4,3,0,70,1,0
189860,384.615384615385,4,3,0,70,1,0
191398,361.44578313253,4,3,0,70,1,0
192843,375,4,3,0,70,1,0
194343,379.746835443038,4,3,0,70,1,0
195861,370.37037037037,4,3,0,70,1,0
197342,355.029585798817,4,3,0,70,1,0
198762,378.548895899054,4,3,0,70,1,0
203304,372.670807453416,4,3,0,70,1,0
204049,359.281437125748,4,3,0,70,1,0
204767,382.165605095541,4,3,0,70,1,0
206295,368.098159509202,4,3,0,70,1,0
207767,379.746835443038,4,3,0,70,1,0
209285,357.142857142857,4,3,0,70,1,0
210713,377.358490566038,4,3,0,70,1,0
212222,375,4,3,0,70,1,0
213722,382.165605095541,4,3,0,70,1,0
215250,370.37037037037,4,3,0,70,1,0
215990,368.098159509202,4,3,0,70,1,0
216726,379.746835443038,4,3,0,70,1,0
218244,372.670807453416,4,3,0,70,1,0
219734,379.746835443038,4,3,0,70,1,0
221252,375,4,3,0,70,1,0
222752,377.358490566038,4,3,0,70,1,0

[Colours]
Combo1 : 129,180,133
Combo2 : 204,179,130
Combo3 : 139,151,119
Combo4 : 220,105,108

[HitObjects]
32,276,43671,6,0,P|68:256|120:260,1,82.5,4|0,0:0|0:0,0:0:0:0:
180,308,44033,1,8,0:0:0:0:
316,262,44395,2,0,P|328:223|327:183,1,82.5
256,128,44757,1,8,0:0:0:0:
168,156,44938,1,0,0:0:0:0:
236,220,45119,6,0,P|253:280|205:370,1,165,4|8,0:0|0:0,0:0:0:0:
120,372,45662,1,0,0:0:0:0:
56,308,45843,2,0,L|64:208,1,82.5
8,156,46205,1,8,0:0:0:0:
179,26,46567,6,0,P|219:18|323:110,1,165,4|8,0:0|0:0,0:0:0:0:
204,220,47295,1,0,0:0:0:0:
88,80,47659,1,8,0:0:0:0:
88,260,48024,6,0,P|112:304|164:340,1,82.5,4|0,0:0|0:0,0:0:0:0:
228,328,48391,1,8,0:0:0:0:
312,360,48575,1,0,0:0:0:0:
384,304,48758,2,0,P|400:264|384:136,1,165,0|8,0:0|0:0,0:0:0:0:
212,104,49493,6,0,P|224:72|224:24,1,82.5,4|0,0:0|0:0,0:0:0:0:
136,52,49857,2,0,P|124:84|124:132,1,82.5,8|0,0:0|0:0,0:0:0:0:
192,192,50222,2,0,P|272:176|300:88,2,165,0|8|4,0:0|0:0|0:0,0:0:0:0:
120,132,51135,1,0,0:0:0:0:
104,220,51317,1,8,0:0:0:0:
260,312,51682,2,0,L|252:212,1,82.5,0|0,0:0|0:0,0:0:0:0:
296,148,52047,1,8,0:0:0:0:
303,138,52412,6,0,P|255:162|147:106,2,165,4|8|0,0:0|0:0|0:0,0:0:0:0:
491,159,53507,1,8,0:0:0:0:
491,159,53690,2,0,L|487:241,1,82.5,0|4,0:0|0:0,0:0:0:0:
366,302,54055,2,0,L|358:219,1,82.5,0|8,0:0|0:0,0:0:0:0:
359,220,54419,1,0,0:0:0:0:
280,140,54602,2,0,P|228:112|116:172,1,165,0|8,0:0|0:0,0:0:0:0:
368,244,55344,6,0,L|380:72,1,165,4|8,0:0|0:0,0:0:0:0:
368,68,56075,1,0,0:0:0:0:
500,192,56441,1,8,0:0:0:0:
456,272,56625,2,0,L|448:354,1,82.5,0|4,0:0|0:0,0:0:0:0:
360,376,56989,1,0,0:0:0:0:
288,320,57172,2,0,P|252:312|204:324,1,82.5,8|0,0:0|0:0,0:0:0:0:
120,340,57537,2,0,P|108:292|16:212,1,165,0|8,0:0|0:0,0:0:0:0:
96,48,58267,6,0,P|132:56|184:48,1,82.5,4|0,0:0|0:0,0:0:0:0:
260,12,58632,1,8,0:0:0:0:
325,198,58998,1,0,0:0:0:0:
335,189,59367,2,0,L|427:193,1,82.5,8|0,0:0|0:0,0:0:0:0:
500,224,59736,2,0,P|500:168|412:104,2,165,4|8|0,0:0|0:0|0:0,0:0:0:0:
320,256,60823,1,8,0:0:0:0:
331,168,61004,1,0,0:0:0:0:
246,205,61186,6,0,P|210:213|115:126,2,165,4|8|0,0:0|0:0|0:0,0:0:0:0:
352,24,62278,2,0,P|312:48|292:84,1,82.5,8|0,0:0|0:0,0:0:0:0:
406,83,62643,2,0,P|386:47|352:24,1,82.5,4|0,0:0|0:0,0:0:0:0:
407,165,63007,2,0,L|406:83,1,82.5,10|0,0:0|0:0,0:0:0:0:
459,226,63371,2,0,P|425:201|407:165,1,82.5,6|0,0:0|0:0,0:0:0:0:
459,308,63743,2,0,L|459:226,1,82.5,10|0,0:0|0:0,0:0:0:0:
256,192,64116,12,4,65592,0:0:0:0:
12,284,67003,6,0,P|64:260|132:272,1,110,6|0,0:0|0:0,0:0:0:0:
163,325,67373,2,2,L|175:137,2,165,8|2|8,0:0|0:0|0:0,0:0:0:0:
340,356,68486,1,4,0:0:0:0:
320,176,68852,1,0,0:0:0:0:
172,276,69219,2,2,P|144:272|80:148,1,165,2|8,0:0|0:0,0:0:0:0:
320,176,69953,6,2,P|326:218|280:275,1,110,4|0,0:0|0:0,0:0:0:0:
253,205,70316,2,2,P|328:204|358:302,2,165,8|2|8,0:0|0:0|0:0,0:0:0:0:
84,340,71407,2,2,L|96:156,2,165,4|8|2,0:0|0:0|0:0,0:0:0:0:
96,352,72852,6,0,P|100:296|64:224,1,110,4|2,0:0|2:0,0:0:0:0:
58,172,73217,2,2,P|93:138|160:128,1,110,8|0,0:0|0:0,0:0:0:0:
223,162,73583,2,2,P|263:178|380:136,1,165,2|8,0:0|0:0,0:0:0:0:
162,251,74331,6,2,P|226:275|477:180,1,330,4|2,0:0|0:0,0:0:0:0:
276,77,75425,1,8,0:0:0:0:
204,352,75789,6,2,L|72:344,1,110,4|0,0:0|0:0,0:0:0:0:
36,268,76158,2,2,L|156:256,1,110,8|0,0:0|0:0,0:0:0:0:
208,184,76527,2,2,L|88:172,1,110,2|0,0:0|0:0,0:0:0:0:
44,95,76896,1,8,0:0:0:0:
220,96,77265,6,2,P|288:156|272:236,2,165,4|8|2,0:0|0:0|0:0,0:0:0:0:
60,16,78364,1,8,0:0:0:0:
128,208,78731,2,2,B|144:336|144:336|160:384|256:352|256:352|352:384|368:336|368:336|384:196,2,495,4|8|2,0:0|0:0|0:0,0:0:0:0:
252,44,81297,1,8,0:0:0:0:
246,58,81648,6,0,P|198:74|130:66,1,110,4|0,0:0|0:0,0:0:0:0:
66,98,82007,2,0,P|62:142|91:221,1,110,8|0,0:0|0:0,0:0:0:0:
133,258,82366,2,0,L|125:331,2,55,8|8|8,0:0|0:0|0:0,0:0:0:0:
154,184,82725,1,10,0:0:0:0:
332,304,83085,6,0,L|320:180,3,110,6|4|4|4,0:0|0:0|0:0|0:0,0:0:0:0:
300,196,84571,6,0,P|260:204|168:124,2,165,4|8|0,0:0|0:0|0:0,0:0:0:0:
480,104,85675,1,8,0:0:0:0:
432,244,86043,1,4,0:0:0:0:
292,192,86408,2,0,P|236:184|164:204,1,110,8|0,0:0|0:0,0:0:0:0:
136,176,86774,2,0,P|112:124|4:88,1,165,0|8,0:0|0:0,0:0:0:0:
28,236,87506,6,0,P|60:280|180:288,1,165,4|8,0:0|0:0,0:0:0:0:
272,192,88231,2,0,L|256:24,1,165,0|8,0:0|0:0,0:0:0:0:
380,112,88956,2,0,P|416:120|484:88,1,110,4|0,0:0|0:0,0:0:0:0:
492,44,89320,1,8,0:0:0:0:
348,12,89685,1,0,0:0:0:0:
272,140,90050,1,8,0:0:0:0:
53,107,90414,5,4,0:0:0:0:
60,116,90779,2,0,P|108:104|152:48,1,110,8|0,0:0|0:0,0:0:0:0:
192,40,91144,2,0,P|240:52|304:36,1,110,0|0,0:0|0:0,0:0:0:0:
340,16,91509,1,8,0:0:0:0:
444,120,91873,1,4,0:0:0:0:
376,252,92238,2,0,P|336:288|260:304,1,110,8|0,0:0|0:0,0:0:0:0:
236,288,92603,2,0,P|208:228|228:112,1,165,0|8,0:0|0:0,0:0:0:0:
320,24,93332,6,0,L|124:12,2,165,4|8|0,0:0|0:0|0:0,0:0:0:0:
388,156,94427,1,8,0:0:0:0:
248,104,94791,2,0,P|193:121|140:224,2,165,4|8|0,0:0|0:0|0:0,0:0:0:0:
396,100,95886,1,8,0:0:0:0:
460,232,96245,6,0,P|432:280|384:304,1,110,4|0,0:0|0:0,0:0:0:0:
336,292,96613,2,0,P|284:276|216:284,1,110,8|0,0:0|0:0,0:0:0:0:
192,248,96981,2,0,P|200:192|176:140,1,110,0|0,0:0|0:0,0:0:0:0:
140,116,97349,1,8,0:0:0:0:
28,211,97717,6,0,P|17:289|80:336,1,165,4|8,0:0|0:0,0:0:0:0:
216,292,98453,2,0,P|256:288|356:352,1,165,0|8,0:0|0:0,0:0:0:0:
400,212,99189,6,0,P|404:160|488:84,1,165,4|8,0:0|0:0,0:0:0:0:
336,52,99911,2,0,P|288:84|184:52,1,165,0|8,0:0|0:0,0:0:0:0:
164,204,100634,2,0,L|156:320,1,110,4|0,0:0|0:0,0:0:0:0:
196,344,100999,2,0,L|28:360,2,165,8|0|8,0:0|0:0|0:0,0:0:0:0:
308,244,102109,6,0,L|476:260,2,165,4|8|0,0:0|0:0|0:0,0:0:0:0:
260,107,103213,1,8,0:0:0:0:
169,220,103581,2,0,P|133:172|129:148,1,82.5,4|0,0:0|0:0,0:0:0:0:
139,66,103949,2,0,P|91:82|43:78,1,82.5,2|0,0:0|0:0,0:0:0:0:
28,8,104317,1,0,0:0:0:0:
38,209,104685,1,10,0:0:0:0:
256,192,105053,12,0,107244,0:0:0:0:
356,328,107949,6,6,P|360:280|320:208,1,110,6|0,0:0|0:0,0:0:0:0:
264,196,108314,2,2,P|224:208|152:180,1,110,8|0,0:0|0:0,0:0:0:0:
124,120,108680,1,2,0:0:0:0:
324,4,109046,1,8,0:0:0:0:
348,228,109412,2,2,P|348:284|440:360,2,165,4|8|2,0:0|0:0|0:0,0:0:0:0:
448,20,110509,1,8,0:0:0:0:
236,112,110875,6,2,P|179:112|100:28,2,165,4|8|2,0:0|0:0|0:0,0:0:0:0:
448,20,111973,1,8,0:0:0:0:
512,240,112339,2,0,P|484:304|396:352,1,165,4|8,0:0|0:0,0:0:0:0:
296,348,112884,1,0,0:0:0:0:
208,288,113066,2,2,P|144:256|40:284,2,165,2|8|4,0:0|0:0|0:0,0:0:0:0:
296,348,113975,5,0,0:0:0:0:
384,284,114158,2,2,P|416:228|404:176,1,110,8|0,0:0|0:0,0:0:0:0:
336,216,114524,2,0,P|380:256|484:216,1,165,2|8,0:0|0:0,0:0:0:0:
278,117,115256,2,2,P|234:153|233:292,2,165,4|8|2,0:0|0:0|0:0,0:0:0:0:
289,120,116347,2,0,P|237:136|179:115,1,110,8|0,0:0|0:0,0:0:0:0:
129,71,116706,6,2,L|107:255,1,165,4|8,0:0|0:0,0:0:0:0:
284,368,117443,1,2,0:0:0:0:
220,144,117812,1,8,0:0:0:0:
398,280,118181,2,2,L|380:104,2,165,4|8|2,0:0|0:0|0:0,0:0:0:0:
256,176,119287,1,8,0:0:0:0:
164,328,119656,6,2,P|88:184|362:47,2,495,4|8|2,0:0|0:0|0:0,0:0:0:0:
256,192,122227,1,8,0:0:0:0:
348,328,122595,6,0,P|424:184|157:39,1,495,0|8,0:0|0:0,0:0:0:0:
148,236,124012,6,2,P|192:240|270:197,3,110,6|4|4|6,0:0|0:0|0:0|0:0,0:0:0:0:
340,20,125109,1,8,0:0:0:0:
172,200,125503,6,0,P|136:216|28:72,1,247.500009441376,4|2,0:0|0:0,0:0:0:0:
168,20,126614,1,8,0:0:0:0:
300,116,126984,2,0,L|436:104,1,123.750004720688,4|8,0:0|0:0,0:0:0:0:
384,260,127710,2,0,L|244:240,1,123.750004720688,2|0,0:0|0:0,0:0:0:0:
120,316,128436,6,0,L|108:164,1,123.750004720688,4|8,0:0|0:0,0:0:0:0:
172,44,129165,1,2,0:0:0:0:
324,88,129530,2,0,L|472:80,2,123.750004720688,8|4|8,0:0|0:0|0:0,0:0:0:0:
208,200,130624,2,0,L|60:192,1,123.750004720688,2|8,0:0|0:0,0:0:0:0:
297,290,131353,6,0,P|333:234|325:170,1,123.750004720688,4|8,0:0|0:0,0:0:0:0:
200,92,132083,1,2,0:0:0:0:
344,20,132448,1,8,0:0:0:0:
432,152,132812,2,0,L|424:308,1,123.750004720688,4|8,0:0|0:0,0:0:0:0:
280,204,133542,2,0,L|273:80,1,123.750004720688,2|8,0:0|0:0,0:0:0:0:
120,24,134271,5,4,0:0:0:0:
20,152,134636,1,8,0:0:0:0:
144,256,135001,1,2,0:0:0:0:
12,344,135366,1,12,0:0:0:0:
256,192,135730,12,4,137189,0:0:0:0:
144,168,137943,6,0,L|136:24,2,123.750004720688,2|8|4,0:0|0:0|0:0,0:0:0:0:
208,316,139034,2,0,P|256:308|304:312,1,82.5000031471254,8|0,0:0|0:0,0:0:0:0:
340,332,139397,2,0,L|328:196,2,123.750004720688,0|8|4,0:0|0:0|0:0,0:0:0:0:
220,224,140484,6,0,L|232:76,1,123.750004720688,8|0,0:0|0:0,0:0:0:0:
368,16,141209,1,8,0:0:0:0:
416,168,141572,2,0,P|376:180|284:144,1,123.750004720688,4|8,0:0|0:0,0:0:0:0:
180,48,142297,2,0,L|88:40,1,82.5000031471254
52,72,142659,1,8,0:0:0:0:
128,212,143022,6,0,P|140:244|132:304,1,82.5000031471254,4|0,0:0|0:0,0:0:0:0:
104,332,143391,2,0,P|164:324|204:336,1,82.5000031471254,8|0,0:0|0:0,0:0:0:0:
232,352,143760,1,0,0:0:0:0:
372,276,144129,1,8,0:0:0:0:
368,121,144498,2,0,L|224:109,2,123.750004720688,4|8|0,0:0|0:0|0:0,0:0:0:0:
492,16,145606,1,8,0:0:0:0:
256,192,145975,12,6,147416,0:0:0:0:
408,292,160740,6,2,P|424:232|400:172,1,123.750004720688,6|8,0:0|0:0,0:0:0:0:
244,160,161545,2,2,L|248:72,1,82.5000031471254,2|0,0:0|0:0,0:0:0:0:
220,32,161934,1,8,0:0:0:0:
148,208,162324,2,2,P|184:252|260:268,1,123.750004720688,4|8,0:0|0:0,0:0:0:0:
392,196,163113,2,2,L|380:68,1,123.750004720688,0|8,0:0|0:0,0:0:0:0:
504,176,163902,6,0,L|496:272,1,82.5000031471254,4|0,0:0|0:0,0:0:0:0:
508,312,164301,1,8,0:0:0:0:
361,368,164700,2,2,P|301:376|237:340,1,123.750004720688,0|8,0:0|0:0,0:0:0:0:
209,188,165498,2,2,P|181:220|85:228,1,123.750004720688,4|8,0:0|0:0,0:0:0:0:
189,100,166294,2,2,P|217:96|293:172,1,123.750004720688,2|8,0:0|0:0,0:0:0:0:
396,36,167091,5,4,0:0:0:0:
440,192,167491,2,2,L|448:280,1,82.5000031471254,8|0,0:0|0:0,0:0:0:0:
360,288,167891,2,0,L|368:148,1,123.750004720688,2|8,0:0|0:0,0:0:0:0:
359,145,168691,2,2,P|316:115|240:115,1,123.750004720688,4|8,0:0|0:0,0:0:0:0:
96,192,169480,2,0,P|80:156|8:112,1,123.750004720688,2|0,0:0|0:0,0:0:0:0:
122,297,170269,6,2,P|170:273|202:185,1,123.750004720688,4|8,0:0|0:0,0:0:0:0:
148,64,171063,1,2,0:0:0:0:
300,16,171461,1,8,0:0:0:0:
256,192,171861,12,2,174175,0:0:0:0:
432,296,174920,6,0,P|440:264|396:188,1,110,4|0,0:0|0:0,0:0:0:0:
336,204,175299,2,0,P|304:208|240:160,1,110,8|0,0:0|0:0,0:0:0:0:
244,92,175679,1,2,0:0:0:0:
80,240,176059,1,8,0:0:0:0:
296,300,176438,6,0,P|384:288|340:104,2,330,4|2|4,0:0|0:0|0:0,0:0:0:0:
148,132,178320,1,8,0:0:0:0:
36,324,178700,2,0,P|76:352|192:352,1,165,2|8,0:0|0:0,0:0:0:0:
256,192,179459,12,6,180931,0:0:0:0:
