osu file format v14

[General]
AudioFilename: audio.mp3
AudioLeadIn: 0
PreviewTime: 27251
Countdown: 0
SampleSet: Soft
StackLeniency: 0.5
Mode: 0
LetterboxInBreaks: 0
WidescreenStoryboard: 1

[Editor]
Bookmarks: 576,11589,27914,37159,40789,51710,68029,77328,81150,103194
DistanceSpacing: 1.3
BeatDivisor: 4
GridSize: 8
TimelineZoom: 1.8

[Metadata]
Title:You Made Me Realise
TitleUnicode:You Made Me Realise
Artist:My Bloody Valentine
ArtistUnicode:My Bloody Valentine
Creator:dsco
Version:Hard
Source:
Tags:noise pop rock shoegaze mbv realize
BeatmapID:1593327
BeatmapSetID:754498

[Difficulty]
HPDrainRate:4
CircleSize:3.5
OverallDifficulty:6.5
ApproachRate:7.5
SliderMultiplier:1.2
SliderTickRate:1

[Events]
//Background and Video events
0,0,"bg.png",0,0
//Break Periods
2,38867,39964
2,79341,80325
//Storyboard Layer 0 (Background)
//Storyboard Layer 1 (Fail)
//Storyboard Layer 2 (Pass)
//Storyboard Layer 3 (Foreground)
//Storyboard Sound Samples

[TimingPoints]
217,359.281437125748,4,2,0,60,1,0
576.352941176471,359.281437125748,4,2,0,60,1,0
1294,-83.3333333333333,4,2,0,60,0,0
1833,340.909090909091,4,2,0,60,1,0
2685,-83.3333333333333,4,2,0,60,0,0
3196,348.837209302326,4,2,0,60,1,0
4068,-83.3333333333333,4,2,0,60,0,0
4591,333.333333333333,4,2,0,60,1,0
4757,333.333333333333,4,2,0,60,1,0
6091,340.909090909091,4,2,0,60,1,0
6772,-83.3333333333333,4,2,0,60,0,0
7284,350.877192982456,4,2,0,60,1,0
7459,350.877192982456,4,2,0,60,1,0
8160,-83.3333333333333,4,2,0,60,0,0
8687,-100,4,2,0,60,0,0
9564,-83.3333333333333,4,2,0,60,0,0
10090,333.333333333333,4,2,0,60,1,0
10256,333.333333333333,4,2,0,60,1,0
11589,346.820809248555,4,2,0,70,1,0
14692,329.67032967033,4,2,0,70,1,0
15679,346.820809248555,4,2,0,70,1,0
18782,329.67032967033,4,2,0,70,1,0
19771,344.827586206897,4,2,0,70,1,0
22858,329.67032967033,4,2,0,70,1,0
23847,342.857142857143,4,2,0,70,1,0
26920,331.491712707182,4,2,0,70,1,0
27914,340.909090909091,4,2,0,70,1,1
30641,346.820809248555,4,2,0,70,1,1
32028,322.58064516129,4,2,0,70,1,1
33322,335.195530726257,4,2,0,70,1,1
34662,324.324324324324,4,2,0,70,1,1
35973,338.983050847458,4,2,0,70,1,1
37159,427.046263345196,4,2,0,50,1,0
40789,346.820809248555,4,2,0,60,1,0
41482,-83.3333333333333,4,2,0,60,0,0
42002,342.857142857143,4,2,0,60,1,0
42859,-83.3333333333333,4,2,0,60,0,0
43373,348.837209302326,4,2,0,60,1,0
44245,-83.3333333333333,4,2,0,60,0,0
44768,333.333333333333,4,2,0,60,1,0
44934,333.333333333333,4,2,0,60,1,0
46268,340.909090909091,4,2,0,60,1,0
46949,-83.3333333333333,4,2,0,60,0,0
47461,344.827586206897,4,2,0,60,1,0
48323,-83.3333333333333,4,2,0,60,0,0
48840,348.837209302326,4,2,0,60,1,0
50235,327.868852459016,4,2,0,60,1,0
50398,327.868852459016,4,2,0,60,1,0
51710,344.827586206897,4,2,0,70,1,0
54799,331.491712707182,4,2,0,70,1,0
55793,342.857142857143,4,2,0,70,1,0
58864,329.67032967033,4,2,0,70,1,0
59853,341.880341880342,4,2,0,70,1,0
62921,333.333333333333,4,2,0,70,1,0
63921,348.837209302326,4,2,0,70,1,0
67040,329.67032967033,4,2,0,70,1,0
68029,342.857142857143,4,2,0,70,1,1
70771,346.820809248555,4,2,0,70,1,1
72158,326.086956521739,4,2,0,70,1,1
73462,338.983050847458,4,2,0,70,1,1
74817,327.868852459016,4,2,0,70,1,1
76128,342.857142857143,4,2,0,70,1,1
77328,447.427293064877,4,2,0,50,1,0
81150,347.624565469293,4,2,0,60,1,0
81845,-83.3333333333333,4,2,0,60,0,0
82365,350.877192982456,4,2,0,60,1,0
83242,-83.3333333333333,4,2,0,60,0,0
83768,348.837209302326,4,2,0,60,1,0
84640,-83.3333333333333,4,2,0,60,0,0
85163,332.409972299169,4,2,0,60,1,0
85329,332.409972299169,4,2,0,60,1,0
86658,350.877192982456,4,2,0,65,1,0
87359,-83.3333333333333,4,2,0,65,0,0
87886,342.857142857143,4,2,0,65,1,0
88743,-83.3333333333333,4,2,0,65,0,0
89257,348.837209302326,4,2,0,65,1,0
90129,-83.3333333333333,4,2,0,65,0,0
90652,331.491712707182,4,2,0,65,1,0
90817,331.491712707182,4,2,0,65,1,0
92143,350.877192982456,4,2,0,70,1,0
92844,-76.9230769230769,4,2,0,70,0,0
93371,348.837209302326,4,2,0,70,1,0
94243,-76.9230769230769,4,2,0,70,0,0
94766,346.820809248555,4,2,0,70,1,0
95633,-76.9230769230769,4,2,0,70,0,0
96153,337.078651685393,4,2,0,70,1,0
96321,337.078651685393,4,2,0,70,1,0
97669,352.941176470588,4,2,0,75,1,0
98374,-76.9230769230769,4,2,0,75,0,0
98904,350.877192982456,4,2,0,75,1,0
99781,-76.9230769230769,4,2,0,75,0,0
100307,346.820809248555,4,2,0,75,1,0
101174,-76.9230769230769,4,2,0,75,0,0
101694,333.333333333333,4,2,0,75,1,0
101860,333.333333333333,4,2,0,75,1,0
103194,344.827586206897,4,2,0,75,1,0
103366,375,4,2,0,75,1,0
103366,-76.9230769230769,4,2,0,75,0,0
103741,359.281437125748,4,2,0,75,1,0
103741,-76.9230769230769,4,2,0,75,0,0
104279,359.281437125748,4,2,0,75,1,0
104368,-100,4,2,0,30,0,0
105716,-100,4,2,0,20,0,0
108141,-100,4,2,0,15,0,0
110656,-100,4,2,0,10,0,0

[Colours]
Combo1 : 160,160,165
Combo2 : 220,220,225
SliderTrackOverride : 20,20,20

[HitObjects]
399,74,576,6,0,P|415:99|419:145,1,60,10|0,0:3|0:0,0:0:0:0:
368,186,935,2,0,P|352:211|348:257,1,60,2|0,0:3|0:0,0:0:0:0:
379,311,1294,2,0,L|452:304,2,71.9999978027344,8|0|0,3:2|3:2|3:2,0:0:0:0:
313,361,1833,6,0,P|259:326|190:322,1,120,10|0,0:3|3:0,0:0:0:0:
134,354,2344,2,0,P|159:314|164:278,1,60,2|0,0:3|0:0,0:0:0:0:
113,239,2685,2,0,L|40:232,2,71.9999978027344,8|0|0,3:2|3:2|3:2,0:0:0:0:
175,194,3196,6,0,L|305:186,1,120,10|0,0:3|3:0,0:0:0:0:
367,220,3719,2,0,P|381:198|389:159,1,60,2|0,0:3|0:0,0:0:0:0:
338,105,4068,2,0,L|345:27,2,71.9999978027344,8|0|0,3:2|3:2|3:2,0:0:0:0:
266,144,4591,6,0,P|221:123|145:120,1,120,10|0,0:3|0:0,0:0:0:0:
79,149,5090,2,0,L|69:217,1,60,2|0,0:3|0:0,0:0:0:0:
108,276,5423,2,0,L|101:322,3,30,0|0|8|8,3:0|3:0|0:3|0:3,0:0:0:0:
101,327,5756,1,8,0:3:0:0:
161,376,5923,2,0,L|219:381,1,30,8|8,0:3|0:3,0:0:0:0:
196,358,6091,6,0,L|273:365,1,60,10|0,0:3|0:0,0:0:0:0:
312,309,6431,2,0,L|371:314,1,60,2|0,0:3|0:0,0:0:0:0:
428,260,6772,2,0,L|504:266,2,71.9999978027344,8|0|0,3:2|3:2|3:2,0:0:0:0:
376,203,7284,6,0,P|352:163|344:80,1,120,10|0,0:3|3:0,0:0:0:0:
281,42,7809,2,0,P|253:80|219:94,1,60,2|0,0:3|0:0,0:0:0:0:
174,124,8160,2,0,L|97:117,2,71.9999978027344,8|0|0,3:2|3:2|3:2,0:0:0:0:
224,184,8687,6,0,B|244:224|244:224|227:304,1,120,10|0,0:3|3:3,0:0:0:0:
262,366,9213,2,0,L|279:288,1,60,2|0,0:3|0:0,0:0:0:0:
340,264,9564,2,0,P|370:255|418:263,2,71.9999978027344,8|0|0,3:2|3:2|3:2,0:0:0:0:
279,208,10090,6,0,P|261:174|258:78,1,120,10|0,0:3|0:0,0:0:0:0:
200,37,10589,2,0,L|131:29,1,60,2|0,0:3|0:0,0:0:0:0:
72,68,10922,2,0,L|67:108,3,30,0|0|8|8,3:0|3:0|0:3|0:3,0:0:0:0:
67,119,11255,1,8,0:3:0:0:
122,174,11422,1,2,3:3:0:0:
119,194,11505,1,0,3:3:0:0:
117,215,11588,5,4,0:0:0:0:
149,287,11762,2,0,P|176:311|270:326,2,120,2|2|0,0:0|0:0|3:0,0:0:0:0:
117,215,12629,1,8,0:0:0:0:
62,159,12802,2,0,L|-4:163,2,60,0|2|0,3:0|0:0|3:0,0:0:0:0:
107,94,13323,1,8,0:0:0:0:
107,94,13843,5,0,0:0:0:0:
168,46,14016,2,0,P|203:64|236:71,1,60,8|0,0:0|3:0,0:0:0:0:
280,122,14363,2,0,P|315:103|348:96,1,60,2|0,0:0|3:0,0:0:0:0:
410,122,14692,1,8,0:0:0:0:
488,252,15021,2,0,L|485:302,3,30,8|8|8|8,0:3|0:3|0:3|0:3,0:0:0:0:
467,291,15351,2,0,L|464:341,3,30,8|0|2|0,0:3|0:3|3:3|0:3,0:0:0:0:
446,330,15679,6,0,P|414:314|369:315,1,60,6|0,0:0|0:0,0:0:0:0:
340,251,16025,2,0,P|372:235|417:236,1,60,10|0,0:0|0:0,0:0:0:0:
446,172,16372,2,0,P|414:156|369:157,1,60,2|0,0:0|0:0,0:0:0:0:
333,99,16719,1,8,0:0:0:0:
267,57,16892,2,0,L|186:66,2,60,0|2|0,3:0|0:0|3:0,0:0:0:0:
336,20,17413,1,8,0:0:0:0:
336,20,17933,5,0,0:0:0:0:
267,57,18106,2,0,P|248:101|248:127,1,60,8|0,0:0|3:0,0:0:0:0:
289,178,18453,2,0,P|308:222|308:248,1,60,2|0,0:0|3:0,0:0:0:0:
257,293,18782,1,8,0:0:0:0:
120,355,19111,2,0,L|117:384,2,30,8|8|8,0:3|0:3|0:3,0:0:0:0:
58,306,19441,2,0,L|28:303,2,30,8|0|2,0:3|0:0|3:0,0:0:0:0:
107,244,19771,5,4,0:0:0:0:
153,181,19943,2,0,P|133:124|136:44,2,120,2|2|0,0:0|0:0|3:0,0:0:0:0:
107,244,20805,1,8,0:0:0:0:
149,307,20977,2,0,P|208:308|265:328,1,120,0|0,3:0|3:0,0:0:0:0:
324,380,21495,1,8,0:0:0:0:
324,380,22012,5,0,0:0:0:0:
374,320,22184,2,0,L|364:235,1,60,8|0,0:0|3:0,0:0:0:0:
424,206,22529,2,0,L|434:121,1,60,2|0,0:0|3:0,0:0:0:0:
491,95,22858,1,8,0:0:0:0:
352,27,23187,2,0,L|305:29,3,30,8|8|8|8,0:3|0:3|0:3|0:3,0:0:0:0:
307,43,23517,2,0,L|260:45,3,30,8|0|2|0,0:3|0:0|3:0|0:0,0:0:0:0:
262,59,23847,5,4,0:0:0:0:
206,113,24018,2,0,L|217:254,2,120,2|2|0,0:0|0:0|3:0,0:0:0:0:
262,59,24875,1,8,0:0:0:0:
197,15,25047,2,0,P|157:36|73:29,1,120,0|0,3:0|3:0,0:0:0:0:
15,71,25561,1,8,0:0:0:0:
15,71,26075,5,0,0:0:0:0:
66,129,26247,2,0,L|61:196,1,60,8|0,0:0|3:0,0:0:0:0:
118,241,26589,2,0,L|113:308,1,60,2|0,0:0|3:0,0:0:0:0:
159,366,26920,1,8,0:0:0:0:
272,259,27251,2,0,L|270:216,2,30,2|0|8,3:0|0:0|0:3,0:0:0:0:
341,294,27582,1,8,0:3:0:0:
361,292,27664,1,0,0:0:0:0:
382,290,27748,2,0,L|433:286,1,30,8|8,0:3|0:3,0:0:0:0:
431,285,27914,5,4,0:0:0:0:
507,153,28254,2,0,P|514:117|504:71,1,60,8|2,0:0|0:0,0:0:0:0:
504,74,28510,1,8,0:3:0:0:
493,56,28595,2,0,L|415:49,1,60,2|2,3:0|3:0,0:0:0:0:
377,105,28936,1,8,0:0:0:0:
308,68,29107,2,0,L|177:56,1,120,0|0,3:0|0:0,0:0:0:0:
110,48,29618,2,0,L|103:127,1,60,8|0,0:0|3:0,0:0:0:0:
46,160,29959,1,2,0:0:0:0:
46,160,30129,1,0,3:0:0:0:
96,219,30300,2,0,P|129:208|178:210,1,60,8|0,0:0|3:0,0:0:0:0:
212,256,30641,5,4,0:0:0:0:
346,333,30987,2,0,P|330:295|333:249,1,60,8|2,0:0|0:0,0:0:0:0:
331,256,31247,1,8,0:3:0:0:
342,238,31334,2,0,P|358:200|355:154,1,60,2|2,3:0|3:0,0:0:0:0:
303,127,31681,1,8,0:0:0:0:
373,93,31854,2,0,L|382:15,1,60,0|2,3:0|0:0,0:0:0:0:
311,0,32189,1,0,0:0:0:0:
255,54,32350,2,0,L|195:48,1,60,8|0,0:0|3:0,0:0:0:0:
133,96,32673,2,0,L|80:90,3,30,2|0|8|8,3:0|0:0|0:3|0:3,0:0:0:0:
82,90,32995,1,8,0:3:0:0:
7,114,33157,1,10,0:3:0:0:
4,134,33237,1,0,0:0:0:0:
1,154,33322,5,4,0:0:0:0:
19,308,33657,2,0,L|90:298,1,60,8|2,0:0|0:0,0:0:0:0:
96,310,33908,1,8,0:3:0:0:
114,320,33992,2,0,L|185:310,1,60,2|2,3:0|3:0,0:0:0:0:
247,335,34327,1,8,0:0:0:0:
315,371,34495,2,0,P|290:330|289:298,1,60,0|2,3:0|0:0,0:0:0:0:
352,275,34824,2,0,P|377:234|378:202,1,60,0|8,0:0|0:0,0:0:0:0:
310,184,35148,2,0,P|285:143|284:111,1,60,0|2,3:0|3:0,0:0:0:0:
285,111,35391,1,0,0:0:0:0:
291,91,35472,1,8,0:3:0:0:
360,55,35634,2,0,L|393:57,2,30,8|8|10,0:3|0:3|0:3,0:0:0:0:
291,11,35973,6,0,L|154:21,1,120,6|8,0:0|0:0,0:0:0:0:
95,79,36481,1,2,0:0:0:0:
96,100,36565,1,8,0:3:0:0:
98,120,36650,2,0,L|235:130,1,120,2|8,3:0|0:0,0:0:0:0:
252,219,37159,5,12,0:0:0:0:
271,123,40789,6,0,L|338:128,1,60,10|0,0:3|0:0,0:0:0:0:
396,169,41135,2,0,L|336:164,1,60,2|0,0:3|0:0,0:0:0:0:
274,212,41482,2,0,P|293:250|292:290,2,71.9999978027344,8|0|0,3:2|3:2|3:2,0:0:0:0:
212,262,42002,6,0,B|180:276|180:276|82:265,1,120,10|0,0:3|3:0,0:0:0:0:
30,223,42516,2,0,P|51:200|62:161,1,60,2|0,0:3|0:0,0:0:0:0:
52,95,42859,2,0,L|-46:84,2,71.9999978027344,8|0|0,3:2|3:2|3:2,0:0:0:0:
116,51,43373,6,0,L|240:65,1,120,10|0,0:3|3:3,0:0:0:0:
298,111,43896,2,0,L|372:102,1,60,2|0,0:3|0:0,0:0:0:0:
424,145,44245,2,0,P|436:111|422:60,2,71.9999978027344,8|0|0,3:2|3:2|3:2,0:0:0:0:
358,193,44768,6,0,B|342:231|342:231|358:328,1,120,10|0,0:3|0:0,0:0:0:0:
326,380,45267,2,0,L|313:301,1,60,2|0,0:3|0:0,0:0:0:0:
249,278,45600,2,0,L|203:285,3,30,0|0|8|8,3:0|3:0|0:3|0:3,0:0:0:0:
199,287,45934,1,8,0:3:0:0:
132,246,46100,2,0,L|85:253,1,30,8|8,0:3|0:3,0:0:0:0:
69,230,46268,6,0,P|47:191|45:151,1,60,10|0,0:3|0:0,0:0:0:0:
110,134,46608,2,0,P|110:89|128:53,1,60,2|0,0:3|0:0,0:0:0:0:
193,71,46949,2,0,P|215:32|262:6,2,71.9999978027344,8|0|0,3:2|3:2|3:2,0:0:0:0:
242,130,47461,6,0,L|382:148,1,120,10|0,0:3|3:0,0:0:0:0:
438,158,47978,2,0,P|458:179|471:206,1,60,2|0,0:3|0:0,0:0:0:0:
467,284,48323,2,0,L|558:276,2,71.9999978027344,8|0|0,3:2|3:2|3:2,0:0:0:0:
414,341,48840,6,0,B|386:326|386:326|294:333,1,120,10|0,0:3|3:0,0:0:0:0:
235,286,49363,2,0,B|154:292,1,60,2|0,0:3|0:0,0:0:0:0:
112,243,49712,2,0,B|31:249,2,60,8|0|0,3:2|3:2|3:2,0:0:0:0:
163,177,50235,6,0,P|186:134|181:58,1,120,10|0,0:3|0:0,0:0:0:0:
243,14,50725,2,0,P|281:28|317:31,1,60,2|0,0:3|0:0,0:0:0:0:
365,74,51053,2,0,L|412:70,3,30,0|0|8|8,3:0|3:0|0:3|0:3,0:0:0:0:
416,68,51381,1,8,0:3:0:0:
484,104,51545,1,2,3:0:0:0:
492,123,51626,1,0,0:0:0:0:
498,143,51709,5,4,0:0:0:0:
444,199,51882,2,0,L|436:332,2,120,2|2|0,0:0|0:0|3:0,0:0:0:0:
498,143,52744,1,8,0:0:0:0:
454,78,52916,2,0,L|458:-2,2,60,0|2|0,3:0|0:0|3:0,0:0:0:0:
400,134,53434,1,8,0:0:0:0:
400,134,53951,5,0,0:0:0:0:
340,177,54123,2,0,B|310:190|310:190|265:183,1,60,8|0,0:0|3:0,0:0:0:0:
206,170,54468,2,0,B|179:165|179:165|149:178,1,60,2|0,0:0|3:0,0:0:0:0:
81,217,54799,1,8,0:0:0:0:
4,80,55130,2,0,L|72:84,1,60,8|8,0:3|0:3,0:0:0:0:
83,75,55379,1,8,0:3:0:0:
102,66,55461,2,0,L|143:69,3,30,8|0|2|0,0:3|0:0|3:0|0:0,0:0:0:0:
147,83,55793,6,0,P|174:75|224:75,1,60,6|0,0:0|0:0,0:0:0:0:
269,27,56135,2,0,P|296:33|339:58,1,60,10|0,0:0|0:0,0:0:0:0:
402,39,56478,2,0,P|422:58|447:101,1,60,2|0,0:0|0:0,0:0:0:0:
412,157,56821,1,8,0:0:0:0:
463,215,56993,2,0,B|439:240|439:240|334:232,1,120,0|0,3:0|3:0,0:0:0:0:
303,293,57507,1,8,0:0:0:0:
303,293,58021,5,0,0:0:0:0:
238,249,58193,2,0,L|245:171,1,60,8|0,0:0|3:0,0:0:0:0:
178,145,58535,2,0,L|185:67,1,60,2|0,0:0|3:0,0:0:0:0:
117,40,58864,1,8,0:0:0:0:
22,164,59193,2,0,L|17:211,3,30,2|0|8|8,3:3|0:0|0:3|0:3,0:0:0:0:
33,210,59523,2,0,L|28:257,3,30,8|0|2|0,0:3|0:3|3:0|0:0,0:0:0:0:
43,255,59853,5,4,0:0:0:0:
115,226,60023,2,0,B|145:234|145:234|255:214,2,120,2|2|0,0:0|0:0|3:0,0:0:0:0:
43,255,60878,1,8,0:0:0:0:
49,177,61049,2,0,L|-21:188,2,60,0|2|0,3:0|0:0|3:0,0:0:0:0:
55,99,61562,1,8,0:0:0:0:
55,99,62075,5,0,0:0:0:0:
123,136,62246,2,0,P|145:113|177:96,1,60,8|0,0:0|3:0,0:0:0:0:
186,22,62588,2,0,P|216:13|252:14,1,60,2|0,0:0|3:0,0:0:0:0:
316,53,62921,1,8,0:0:0:0:
278,197,63254,2,0,L|240:192,2,30,8|8|8,0:3|0:3|0:3,0:0:0:0:
320,263,63587,2,0,L|349:266,2,30,8|0|2,0:3|0:3|3:0,0:0:0:0:
258,315,63921,6,0,L|193:306,1,60,6|0,0:0|0:0,0:0:0:0:
170,234,64269,2,0,L|178:169,1,60,10|0,0:0|0:0,0:0:0:0:
153,100,64618,2,0,L|88:91,1,60,2|0,0:0|0:0,0:0:0:0:
46,29,64967,1,8,0:0:0:0:
1,92,65141,2,0,P|31:156|16:212,1,120,0|0,3:0|3:0,0:0:0:0:
81,253,65665,1,8,0:0:0:0:
81,253,66188,5,0,0:0:0:0:
135,308,66362,2,0,L|213:301,1,60,8|0,0:0|3:0,0:0:0:0:
255,253,66711,2,0,L|333:260,1,60,2|0,0:0|3:0,0:0:0:0:
386,294,67040,1,8,0:0:0:0:
416,148,67369,1,2,3:0:0:0:
389,74,67534,1,8,0:3:0:0:
368,75,67616,1,8,0:3:0:0:
347,77,67699,2,0,L|290:71,3,30,8|8|10|0,0:3|0:3|0:3|0:0,0:0:0:0:
299,84,68029,5,4,0:0:0:0:
147,50,68371,2,0,P|163:92|161:121,1,60,8|2,0:0|0:0,0:0:0:0:
156,127,68629,1,8,0:3:0:0:
144,144,68714,2,0,L|66:137,1,60,2|2,3:0|3:0,0:0:0:0:
27,192,69057,1,8,0:0:0:0:
67,258,69229,2,0,B|89:242|89:242|191:251,1,120,0|0,3:0|0:0,0:0:0:0:
259,260,69743,2,0,P|264:218|289:185,1,60,8|0,0:0|3:0,0:0:0:0:
346,176,70086,1,2,0:0:0:0:
346,176,70257,1,0,3:0:0:0:
411,133,70429,2,0,P|405:91|380:58,1,60,8|0,0:0|3:0,0:0:0:0:
337,27,70771,5,4,0:0:0:0:
199,99,71117,2,0,L|129:90,1,60,8|2,0:0|0:0,0:0:0:0:
119,88,71377,1,8,0:3:0:0:
98,85,71464,2,0,L|105:144,1,60,2|2,3:0|3:0,0:0:0:0:
66,212,71811,1,8,0:0:0:0:
139,292,71984,2,0,L|199:285,1,60,0|2,3:0|0:0,0:0:0:0:
251,226,72321,2,0,L|310:233,1,60,0|8,0:0|0:0,0:0:0:0:
381,266,72647,1,0,3:0:0:0:
428,204,72810,2,0,L|434:157,3,30,2|0|8|8,3:0|0:0|0:3|0:3,0:0:0:0:
435,153,73136,1,8,0:3:0:0:
377,100,73299,1,8,0:3:0:0:
379,79,73380,1,8,0:3:0:0:
382,58,73462,5,4,0:0:0:0:
234,8,73800,2,0,P|252:48|246:78,1,60,8|2,0:0|0:0,0:0:0:0:
243,83,74055,1,8,0:3:0:0:
229,99,74139,2,0,L|169:91,1,60,2|2,3:0|3:0,0:0:0:0:
104,134,74478,1,8,0:0:0:0:
37,93,74648,2,0,P|51:130|46:174,1,60,0|2,3:0|0:0,0:0:0:0:
97,212,74980,2,0,P|90:251|64:286,1,60,0|8,0:0|0:0,0:0:0:0:
18,316,75308,1,0,3:0:0:0:
80,363,75472,2,0,L|162:355,1,60,2|8,3:0|0:3,0:0:0:0:
151,339,75718,1,8,0:3:0:0:
163,322,75800,2,0,L|216:317,3,30,8|8|10|0,0:3|0:3|0:3|0:0,0:0:0:0:
213,318,76128,6,0,P|194:273|199:178,1,120,4|8,0:0|0:0,0:0:0:0:
291,187,76642,1,2,0:0:0:0:
312,185,76727,1,8,0:3:0:0:
332,182,76813,2,0,P|353:126|352:66,1,120,2|8,3:0|0:0,0:0:0:0:
257,16,77328,5,12,0:0:0:0:
402,362,81150,6,0,P|393:326|372:303,1,60,10|0,0:3|0:0,0:0:0:0:
403,233,81497,2,0,P|377:206|347:196,1,60,2|0,0:3|0:0,0:0:0:0:
340,120,81845,2,0,L|351:40,2,71.9999978027344,8|0|0,3:2|3:2|3:2,0:0:0:0:
285,173,82365,6,0,P|245:192|169:182,1,120,10|0,0:3|3:0,0:0:0:0:
99,214,82891,2,0,P|113:263|109:293,1,60,2|0,0:3|0:0,0:0:0:0:
71,338,83242,2,0,L|-4:331,2,71.9999978027344,8|0|0,3:2|3:2|3:2,0:0:0:0:
139,377,83768,6,0,L|259:365,1,120,10|0,0:3|3:0,0:0:0:0:
317,314,84291,2,0,P|298:283|296:243,1,60,2|0,0:3|0:0,0:0:0:0:
239,204,84640,2,0,P|258:173|254:120,2,71.9999978027344,8|0|0,3:2|3:2|3:2,0:0:0:0:
169,247,85163,6,0,L|38:229,1,120,10|0,0:3|3:0,0:0:0:0:
4,167,85661,2,0,P|23:133|24:85,1,60,2|0,0:3|0:0,0:0:0:0:
24,93,85910,1,0,0:0:0:0:
16,74,85993,2,0,L|19:42,3,30,0|0|8|8,3:3|3:3|0:3|0:3,0:0:0:0:
21,23,86326,1,8,0:3:0:0:
96,3,86492,2,0,L|128:6,1,30,8|8,0:3|0:3,0:0:0:0:
137,22,86658,6,0,L|208:28,1,60,10|0,0:3|0:0,0:0:0:0:
257,75,87008,2,0,L|250:146,1,60,2|0,0:3|0:0,0:0:0:0:
311,181,87359,2,0,B|348:185|348:185|382:176,2,71.9999978027344,8|0|0,3:2|3:2|3:2,0:0:0:0:
241,221,87886,6,0,P|215:276|227:346,1,120,10|0,0:3|3:0,0:0:0:0:
150,367,88400,2,0,L|90:361,1,60,2|0,0:3|0:0,0:0:0:0:
54,293,88743,2,0,L|-21:285,2,71.9999978027344,8|0|0,3:2|3:2|3:2,0:0:0:0:
107,238,89257,6,0,P|132:184|126:125,1,120,10|0,0:3|3:0,0:0:0:0:
62,81,89780,2,0,P|96:98|120:99,1,60,2|0,0:3|0:0,0:0:0:0:
190,71,90129,2,0,L|199:-27,2,71.9999978027344,8|0|0,3:2|3:2|3:2,0:0:0:0:
249,127,90652,6,0,P|288:108|372:100,1,120,10|0,0:3|3:0,0:0:0:0:
432,135,91149,2,0,L|428:215,1,60,2|0,0:3|0:0,0:0:0:0:
427,214,91397,1,0,0:0:0:0:
426,235,91480,1,8,0:3:0:0:
360,277,91646,2,0,L|357:329,1,30,8|8,0:3|0:3,0:0:0:0:
338,313,91812,2,0,L|335:365,3,30,8|0|10|0,0:3|0:3|0:3|0:0,0:0:0:0:
316,349,92143,6,0,P|285:337|234:334,1,60,10|0,0:3|0:0,0:0:0:0:
207,274,92493,2,0,P|177:278|149:288,1,60,2|0,0:3|0:0,0:0:0:0:
75,263,92844,2,0,P|51:281|16:338,2,77.9999964294435,8|0|0,3:2|3:2|3:2,0:0:0:0:
122,199,93371,6,0,L|139:68,1,120,10|0,0:3|3:0,0:0:0:0:
194,26,93894,2,0,P|220:44|249:54,1,60,2|0,0:3|0:0,0:0:0:0:
316,88,94243,2,0,L|401:80,2,77.9999964294435,8|0|0,3:2|3:2|3:2,0:0:0:0:
254,136,94766,6,0,B|238:163|238:163|250:256,1,120,10|0,0:3|3:0,0:0:0:0:
230,326,95286,2,0,L|221:259,1,60,2|0,0:3|0:0,0:0:0:0:
159,219,95633,2,0,P|126:237|65:242,2,77.9999964294435,8|0|0,3:2|3:2|3:2,0:0:0:0:
200,150,96153,6,0,P|233:132|316:133,1,120,10|0,0:3|0:0,0:0:0:0:
378,175,96658,2,0,P|420:185|461:174,1,60,2|0,0:3|0:0,0:0:0:0:
456,175,96910,1,0,0:0:0:0:
473,162,96995,2,0,L|476:120,3,30,10|8|8|8,0:3|0:3|0:3|0:3,0:0:0:0:
487,114,97332,2,0,L|490:72,3,30,8|0|10|8,0:3|0:3|0:3|0:3,0:0:0:0:
501,66,97669,6,0,P|470:52|428:52,1,60,10|0,0:3|0:0,0:0:0:0:
381,4,98021,2,0,P|347:7|310:28,1,60,2|0,0:3|0:0,0:0:0:0:
266,71,98374,2,0,L|276:162,2,77.9999964294435,8|0|0,3:2|3:2|3:2,0:0:0:0:
204,20,98904,6,0,P|167:46|71:62,1,120,10|0,0:3|3:0,0:0:0:0:
37,116,99430,2,0,P|74:142|106:153,1,60,2|0,0:3|0:0,0:0:0:0:
143,201,99781,2,0,P|161:251|154:288,2,77.9999964294435,8|0|0,3:2|3:2|3:2,0:0:0:0:
209,157,100307,6,0,B|241:140|241:140|345:156,1,120,10|0,0:3|3:0,0:0:0:0:
400,167,100827,2,0,P|416:201|416:237,1,60,2|0,0:3|0:0,0:0:0:0:
366,282,101174,2,0,L|381:388,2,77.9999964294435,8|0|0,3:2|3:2|3:2,0:0:0:0:
298,239,101694,6,0,P|265:258|182:262,1,120,10|0,0:3|0:0,0:0:0:0:
119,220,102193,2,0,L|108:142,1,60,2|0,0:3|0:0,0:0:0:0:
107,139,102443,1,0,0:0:0:0:
103,117,102526,2,0,L|153:124,3,30,10|8|8|8,0:3|0:3|0:3|0:3,0:0:0:0:
149,108,102860,2,0,L|198:114,3,30,8|0|10|8,0:3|0:0|0:3|0:3,0:0:0:0:
194,98,103194,5,12,0:0:0:0:
263,148,103366,2,0,P|297:127|350:117,1,77.9999964294435,4|0,0:0|0:0,0:0:0:0:
462,216,103741,2,0,P|428:195|375:185,1,77.9999964294435,12|0,0:0|0:0,0:0:0:0:
335,260,104100,1,2,3:0:0:0:
370,345,104279,5,8,0:0:0:0:
256,192,104368,12,0,108051,0:0:0:0:
256,192,108141,12,0,110566,0:0:0:0:
256,192,110656,12,0,111913,0:0:0:0:
