osu file format v14

[General]
AudioFilename: audio.mp3
AudioLeadIn: 0
PreviewTime: 172157
Countdown: 0
SampleSet: Soft
StackLeniency: 0.5
Mode: 0
LetterboxInBreaks: 0
WidescreenStoryboard: 0

[Editor]
DistanceSpacing: 2.9
BeatDivisor: 4
GridSize: 4
TimelineZoom: 1

[Metadata]
Title:Ephemeral(Twinfield Remix)
TitleUnicode:Ephemeral(Twinfield Remix)
Artist:Mwk
ArtistUnicode:Mwk
Creator:neonat
Version:Insane
Source:
Tags:
BeatmapID:1685662
BeatmapSetID:803059

[Difficulty]
HPDrainRate:5
CircleSize:4
OverallDifficulty:7
ApproachRate:8.5
SliderMultiplier:1.6
SliderTickRate:1

[Events]
//Background and Video events
0,0,"884a92e1131e60ae882dd37103d80573.jpg",0,0
//Break Periods
2,66426,75482
2,132633,144999
//Storyboard Layer 0 (Background)
//Storyboard Layer 1 (Fail)
//Storyboard Layer 2 (Pass)
//Storyboard Layer 3 (Foreground)
//Storyboard Sound Samples

[TimingPoints]
19.5547584642147,413.793103448276,4,2,1,40,1,0
26502,-100,4,2,2,50,0,0
39743,-83.3333333333333,4,2,1,65,0,0
66226,-100,4,2,1,50,0,0
99329,-100,4,2,2,50,0,0
105950,-83.3333333333333,4,2,1,65,0,0
132433,-100,4,2,1,50,0,0
158916,-100,4,2,2,50,0,0
172157,-83.3333333333333,4,2,1,75,0,1
211881,-100,4,2,1,50,0,0

[Colours]
Combo1 : 217,130,177
Combo2 : 228,232,123
Combo3 : 13,75,170
Combo4 : 66,200,126

[HitObjects]
100,112,13260,6,0,P|150:116|189:97,1,80,2|0,0:0|0:0,0:0:0:0:
263,61,13674,1,0,0:0:0:0:
358,54,13881,1,0,0:0:0:0:
311,137,14088,1,0,0:0:0:0:
446,280,14502,6,0,P|386:301|235:220,1,240,2|0,0:0|0:0,0:0:0:0:
179,149,15329,1,0,0:0:0:0:
273,134,15536,1,0,0:0:0:0:
151,236,15950,1,0,0:0:0:0:
86,164,16157,1,0,0:0:0:0:
92,68,16364,1,0,0:0:0:0:
307,68,16571,6,0,B|317:113|315:146|308:169,1,80,2|0,0:0|0:0,0:0:0:0:
275,236,16985,1,0,0:0:0:0:
187,273,17191,2,0,B|135:282|108:226|108:226|69:231|65:299,1,160
114,352,17812,2,0,P|158:365|206:353,1,80,2|0,0:0|0:0,0:0:0:0:
350,325,18226,6,0,P|306:312|258:324,1,80,2|0,0:0|0:0,0:0:0:0:
187,273,18640,1,0,0:0:0:0:
114,352,18847,1,0,0:0:0:0:
187,273,19260,1,0,0:0:0:0:
159,181,19467,2,0,P|152:138|164:92,1,80,2|0,0:0|0:0,0:0:0:0:
323,152,19881,6,0,P|283:158|238:142,1,80,2|0,0:0|0:0,0:0:0:0:
159,102,20295,1,0,0:0:0:0:
64,84,20502,2,0,P|23:121|54:222,1,160
245,146,21123,2,0,L|225:235,1,80,2|0,0:0|0:0,0:0:0:0:
141,23,21536,6,0,L|161:112,1,80,2|0,0:0|0:0,0:0:0:0:
245,146,21950,1,0,0:0:0:0:
329,101,22157,2,0,P|363:80|477:129,1,160
393,174,22778,1,0,0:0:0:0:
393,174,23191,6,0,L|388:270,1,80,2|0,0:0|0:0,0:0:0:0:
319,321,23605,1,0,0:0:0:0:
411,345,23812,1,0,0:0:0:0:
311,231,24019,2,0,B|253:235|203:224|203:224|177:241|129:239,1,160,0|2,0:0|0:0,0:0:0:0:
58,227,24640,1,0,0:0:0:0:
186,128,24847,6,0,B|244:132|294:121|294:121|320:138|368:136,1,160,2|0,0:0|0:0,0:0:0:0:
193,44,25467,2,0,P|114:86|108:156,1,160
188,290,26088,2,0,P|194:240|174:201,1,80,2|0,0:0|0:0,0:0:0:0:
15,114,26502,5,14,0:0:0:0:
15,114,26916,5,8,0:0:0:0:
55,260,27123,1,0,0:0:0:0:
162,152,27329,1,8,0:0:0:0:
385,112,27743,5,8,0:0:0:0:
328,265,27950,1,2,0:0:0:0:
328,265,28157,5,10,0:0:0:0:
250,245,28571,1,8,0:0:0:0:
173,267,28985,1,8,0:0:0:0:
94,250,29398,1,8,0:0:0:0:
87,245,29502,1,8,0:0:0:0:
80,240,29605,1,8,0:0:0:0:
73,235,29709,1,8,0:0:0:0:
66,230,29812,1,10,0:0:0:0:
66,230,30226,5,8,0:0:0:0:
209,180,30433,1,0,0:0:0:0:
88,87,30640,1,8,0:0:0:0:
326,40,31054,5,8,0:0:0:0:
299,203,31260,1,2,0:0:0:0:
299,203,31467,5,10,0:0:0:0:
375,177,31881,1,8,0:0:0:0:
454,184,32295,1,8,0:0:0:0:
504,246,32709,2,8,L|491:304,1,40
404,246,32916,2,8,L|417:304,1,40
454,354,33123,5,10,0:0:0:0:
505,246,33329,1,8,0:0:0:0:
386,266,33536,1,8,0:0:0:0:
436,157,33743,1,8,0:0:0:0:
316,168,33950,1,8,0:0:0:0:
386,266,34157,1,8,0:0:0:0:
266,280,34364,1,8,0:0:0:0:
345,369,34571,1,10,0:0:0:0:
187,191,34778,5,10,0:0:0:0:
107,281,34985,1,8,0:0:0:0:
91,162,35191,1,8,0:0:0:0:
10,250,35398,1,8,0:0:0:0:
129,238,35605,1,8,0:0:0:0:
77,129,35812,1,8,0:0:0:0:
196,119,36019,2,8,L|243:118,1,40
287,43,36226,2,8,L|240:44,1,40
131,68,36433,5,8,0:0:0:0:
118,88,36536,1,8,0:0:0:0:
112,111,36640,1,8,0:0:0:0:
113,134,36743,1,8,0:0:0:0:
122,156,36847,1,8,0:0:0:0:
135,175,36950,1,8,0:0:0:0:
155,188,37054,1,8,0:0:0:0:
178,190,37157,1,8,0:0:0:0:
201,187,37260,2,0,L|237:182,14,20
256,192,38088,12,0,39536,0:0:0:0:
419,257,39743,6,0,L|317:267,1,95.9999970703126,6|0,0:0|0:0,0:0:0:0:
158,176,40157,2,0,L|259:188,1,95.9999970703126,2|0,0:0|0:0,0:0:0:0:
408,83,40571,1,8,0:0:0:0:
408,83,40985,2,0,L|305:77,1,95.9999970703126,0|2,0:0|0:0,0:0:0:0:
158,176,41398,6,0,L|261:166,1,95.9999970703126,2|0,0:0|0:0,0:0:0:0:
122,38,41812,1,0,0:0:0:0:
144,219,42019,1,2,0:0:0:0:
267,84,42226,1,8,0:0:0:0:
267,84,42640,1,0,0:0:0:0:
270,102,42743,1,0,0:0:0:0:
273,121,42847,1,2,0:0:0:0:
276,139,42950,1,0,0:0:0:0:
280,157,43054,6,0,L|265:263,1,95.9999970703126,2|0,0:0|0:0,0:0:0:0:
130,314,43467,2,0,L|145:208,1,95.9999970703126,2|0,0:0|0:0,0:0:0:0:
213,81,43881,1,8,0:0:0:0:
213,81,44295,2,0,L|245:184,1,95.9999970703126,0|2,0:0|0:0,0:0:0:0:
393,201,44709,6,0,L|361:98,1,95.9999970703126,2|0,0:0|0:0,0:0:0:0:
147,44,45123,1,2,0:0:0:0:
356,30,45329,1,0,0:0:0:0:
287,229,45536,1,8,0:0:0:0:
228,21,45743,1,0,0:0:0:0:
228,21,45847,1,0,0:0:0:0:
228,21,45950,2,0,P|257:54|270:120,1,95.9999970703126,2|2,0:0|0:0,0:0:0:0:
156,285,46364,6,0,L|179:177,1,95.9999970703126,2|0,0:0|0:0,0:0:0:0:
373,113,46778,2,0,L|350:221,1,95.9999970703126,2|0,0:0|0:0,0:0:0:0:
168,103,47191,1,8,0:0:0:0:
168,103,47605,2,0,L|272:113,1,95.9999970703126,0|2,0:0|0:0,0:0:0:0:
344,281,48019,6,0,L|240:271,1,95.9999970703126,2|0,0:0|0:0,0:0:0:0:
109,152,48433,1,0,0:0:0:0:
11,306,48640,1,2,0:0:0:0:
31,124,48847,1,8,0:0:0:0:
31,124,49260,1,0,0:0:0:0:
37,111,49364,1,0,0:0:0:0:
44,98,49467,1,2,0:0:0:0:
50,85,49571,1,0,0:0:0:0:
57,72,49674,6,0,L|170:57,1,95.9999970703126,2|0,0:0|0:0,0:0:0:0:
306,159,50088,2,0,L|206:155,1,95.9999970703126,2|0,0:0|0:0,0:0:0:0:
338,24,50502,1,8,0:0:0:0:
338,24,50916,2,0,L|448:42,1,95.9999970703126,0|2,0:0|0:0,0:0:0:0:
351,175,51329,6,0,L|234:195,1,95.9999970703126,2|0,0:0|0:0,0:0:0:0:
145,135,51640,1,0,0:0:0:0:
145,135,51743,2,0,P|126:88|135:45,1,95.9999970703126
301,11,52157,2,0,P|319:62|305:107,1,95.9999970703126
230,167,52467,1,0,0:0:0:0:
230,167,52571,2,0,P|199:218|199:228,1,47.9999985351563
326,194,52778,2,0,P|357:143|357:133,1,47.9999985351563
240,62,52985,6,0,L|133:75,1,95.9999970703126,6|0,0:0|0:0,0:0:0:0:
354,156,53398,2,0,L|449:167,1,95.9999970703126,2|0,0:0|0:0,0:0:0:0:
228,141,53812,1,8,0:0:0:0:
228,141,54226,2,0,L|212:249,1,95.9999970703126,0|2,0:0|0:0,0:0:0:0:
413,139,54640,6,0,L|398:44,1,95.9999970703126,2|0,0:0|0:0,0:0:0:0:
180,80,55054,1,0,0:0:0:0:
331,243,55260,1,0,0:0:0:0:
328,16,55467,2,0,P|298:12|222:41,1,95.9999970703126,8|0,0:0|0:0,0:0:0:0:
100,212,55881,1,0,0:0:0:0:
103,226,55985,1,0,0:0:0:0:
106,239,56088,1,2,0:0:0:0:
108,253,56191,1,0,0:0:0:0:
111,267,56295,6,0,L|210:301,1,95.9999970703126,2|0,0:0|0:0,0:0:0:0:
282,101,56709,2,0,L|191:132,1,95.9999970703126,2|0,0:0|0:0,0:0:0:0:
365,253,57123,1,8,0:0:0:0:
365,253,57536,2,0,L|406:146,1,95.9999970703126,0|2,0:0|0:0,0:0:0:0:
200,244,57950,6,0,L|234:333,1,95.9999970703126,2|0,0:0|0:0,0:0:0:0:
291,134,58364,1,2,0:0:0:0:
352,336,58571,1,0,0:0:0:0:
191,199,58778,1,8,0:0:0:0:
191,199,58985,2,0,L|131:204,1,47.9999985351563
202,114,59191,2,0,L|262:119,1,47.9999985351563,2|0,0:0|0:0,0:0:0:0:
93,58,59398,2,0,L|140:54,1,47.9999985351563,2|0,0:0|0:0,0:0:0:0:
34,119,59605,6,0,L|26:229,1,95.9999970703126,2|0,0:0|0:0,0:0:0:0:
197,294,60019,2,0,L|190:198,1,95.9999970703126,2|0,0:0|0:0,0:0:0:0:
17,322,60433,1,8,0:0:0:0:
17,322,60847,2,0,L|123:348,1,95.9999970703126,0|2,0:0|0:0,0:0:0:0:
217,162,61260,6,0,L|111:188,1,95.9999970703126,2|0,0:0|0:0,0:0:0:0:
287,320,61674,1,0,0:0:0:0:
301,319,61778,1,0,0:0:0:0:
315,318,61881,1,2,0:0:0:0:
329,317,61985,1,0,0:0:0:0:
343,317,62088,1,8,0:0:0:0:
217,162,62295,1,0,0:0:0:0:
390,80,62502,1,0,0:0:0:0:
376,81,62606,1,0,0:0:0:0:
362,82,62709,1,2,0:0:0:0:
348,83,62813,1,0,0:0:0:0:
334,84,62916,6,0,L|235:55,1,95.9999970703126,2|0,0:0|0:0,0:0:0:0:
202,244,63329,2,0,L|294:217,1,95.9999970703126,2|0,0:0|0:0,0:0:0:0:
385,184,63640,1,0,0:0:0:0:
385,184,63743,2,0,P|419:228|406:291,1,95.9999970703126,8|0,0:0|0:0,0:0:0:0:
292,361,64157,2,0,L|268:318,1,47.9999985351563
305,229,64364,2,0,L|334:278,1,47.9999985351563,2|0,0:0|0:0,0:0:0:0:
218,247,64571,6,0,P|168:220|152:156,1,95.9999970703126,2|0,0:0|0:0,0:0:0:0:
261,27,64985,1,2,0:0:0:0:
271,43,65088,1,0,0:0:0:0:
276,61,65191,1,0,0:0:0:0:
278,80,65295,1,0,0:0:0:0:
271,97,65398,2,0,P|220:111|133:73,1,143.999995605469,8|0,0:0|0:0,0:0:0:0:
71,15,65812,2,0,L|57:92,1,47.9999985351563,8|0,0:0|0:0,0:0:0:0:
98,146,66019,2,0,L|112:223,1,47.9999985351563,8|0,0:0|0:0,0:0:0:0:
50,267,66226,5,2,0:0:0:0:
256,192,76157,12,0,79260,0:0:0:0:
121,255,79467,6,0,L|205:228,1,80,2|0,0:0|0:0,0:0:0:0:
203,126,79881,2,0,L|119:153,1,80
53,224,80295,2,0,P|79:318|133:330,1,160,0|2,0:0|0:0,0:0:0:0:
232,308,80916,1,0,0:0:0:0:
336,307,81123,6,0,L|429:315,1,80,2|0,0:0|0:0,0:0:0:0:
378,216,81536,2,0,L|285:224,1,80
187,176,81950,1,0,0:0:0:0:
187,176,82364,1,0,0:0:0:0:
183,160,82467,1,0,0:0:0:0:
181,144,82571,1,0,0:0:0:0:
179,128,82674,1,0,0:0:0:0:
175,112,82778,6,0,L|194:30,1,80,2|0,0:0|0:0,0:0:0:0:
312,21,83191,2,0,L|293:103,1,80
187,176,83605,1,0,0:0:0:0:
187,176,84019,2,0,L|80:169,1,80,2|0,0:0|0:0,0:0:0:0:
64,283,84433,6,0,L|171:276,1,80,2|0,0:0|0:0,0:0:0:0:
270,160,84847,1,0,0:0:0:0:
266,280,85054,1,0,0:0:0:0:
187,176,85260,1,0,0:0:0:0:
187,176,85674,2,0,L|132:183,1,40
238,86,85881,2,0,L|183:79,1,40
313,160,86088,6,0,P|360:164|402:142,1,80,2|0,0:0|0:0,0:0:0:0:
430,38,86502,2,0,P|383:34|341:56,1,80
313,160,86916,1,0,0:0:0:0:
313,160,87329,2,0,L|331:266,1,80,2|0,0:0|0:0,0:0:0:0:
214,193,87743,6,0,L|196:299,1,80,2|0,0:0|0:0,0:0:0:0:
101,147,88157,1,0,0:0:0:0:
214,109,88364,1,0,0:0:0:0:
135,226,88571,1,0,0:0:0:0:
135,226,88985,1,0,0:0:0:0:
139,241,89088,1,0,0:0:0:0:
142,256,89191,1,0,0:0:0:0:
145,271,89295,1,0,0:0:0:0:
148,286,89398,6,0,L|235:334,1,80,2|0,0:0|0:0,0:0:0:0:
338,222,89812,2,0,L|233:223,1,80
323,349,90226,1,0,0:0:0:0:
323,349,90640,2,0,L|421:334,1,80,2|0,0:0|0:0,0:0:0:0:
498,251,91054,6,0,L|400:236,1,80,2|0,0:0|0:0,0:0:0:0:
293,265,91467,1,0,0:0:0:0:
322,140,91674,1,0,0:0:0:0:
418,238,91881,1,0,0:0:0:0:
418,238,92295,2,0,L|427:204,4,20,2|0|0|0|0,0:0|0:0|0:0|0:0|0:0,0:0:0:0:
429,206,92709,6,0,L|425:111,1,80,2|0,0:0|0:0,0:0:0:0:
311,24,93123,2,0,L|307:103,1,80
199,211,93536,1,0,0:0:0:0:
199,211,93950,1,0,0:0:0:0:
331,286,94157,1,2,0:0:0:0:
199,361,94364,6,0,P|150:357|114:336,1,80,2|0,0:0|0:0,0:0:0:0:
18,207,94778,2,0,P|67:211|103:232,1,80
205,328,95191,1,0,0:0:0:0:
53,312,95398,1,0,0:0:0:0:
193,181,95605,1,0,0:0:0:0:
199,166,95709,1,0,0:0:0:0:
206,152,95812,1,0,0:0:0:0:
213,137,95916,1,0,0:0:0:0:
220,122,96019,6,0,L|214:34,1,80,2|0,0:0|0:0,0:0:0:0:
345,120,96433,2,0,L|339:199,1,80
291,54,96847,1,0,0:0:0:0:
291,54,97260,1,0,0:0:0:0:
434,105,97467,1,2,0:0:0:0:
297,171,97674,6,0,L|199:156,1,80,2|0,0:0|0:0,0:0:0:0:
278,18,98088,1,0,0:0:0:0:
367,140,98295,1,0,0:0:0:0:
226,81,98502,2,0,L|146:93,1,80
82,231,98916,1,2,0:0:0:0:
80,246,99019,1,0,0:0:0:0:
76,261,99123,1,0,0:0:0:0:
73,276,99226,1,0,0:0:0:0:
69,291,99329,5,10,0:0:0:0:
191,230,99536,1,8,0:0:0:0:
76,156,99743,1,8,0:0:0:0:
197,94,99950,1,8,0:0:0:0:
191,230,100157,1,8,0:0:0:0:
197,94,100364,1,8,0:0:0:0:
312,168,100571,1,8,0:0:0:0:
318,32,100778,1,10,0:0:0:0:
439,94,100985,5,10,0:0:0:0:
433,230,101191,1,8,0:0:0:0:
312,168,101398,1,8,0:0:0:0:
306,304,101605,1,8,0:0:0:0:
191,231,101812,1,8,0:0:0:0:
312,168,102019,1,8,0:0:0:0:
197,95,102226,2,0,L|135:94,3,40,8|0|8|0,0:0|0:0|0:0|0:0,0:0:0:0:
132,94,102640,5,10,0:0:0:0:
109,101,102743,1,8,0:0:0:0:
89,114,102846,1,8,0:0:0:0:
72,131,102950,1,8,0:0:0:0:
61,152,103053,1,8,0:0:0:0:
54,175,103157,1,8,0:0:0:0:
54,199,103260,1,8,0:0:0:0:
60,223,103364,1,8,0:0:0:0:
71,244,103467,5,8,0:0:0:0:
87,261,103571,1,8,0:0:0:0:
107,275,103674,1,8,0:0:0:0:
130,283,103777,1,8,0:0:0:0:
153,285,103881,1,8,0:0:0:0:
177,281,103984,1,8,0:0:0:0:
199,272,104088,1,10,0:0:0:0:
218,257,104191,1,8,0:0:0:0:
232,238,104295,1,2,0:0:0:0:
256,192,104398,12,0,105743,0:0:0:0:
208,78,105950,6,0,L|187:198,1,95.9999970703126,6|0,0:0|0:0,0:0:0:0:
352,259,106364,1,2,0:0:0:0:
419,89,106571,1,0,0:0:0:0:
399,90,106674,1,0,0:0:0:0:
379,92,106778,2,0,P|330:84|294:34,1,95.9999970703126,8|0,0:0|0:0,0:0:0:0:
117,44,107191,1,0,0:0:0:0:
118,63,107295,1,0,0:0:0:0:
118,82,107398,1,2,0:0:0:0:
119,101,107502,1,0,0:0:0:0:
119,120,107605,6,0,L|100:235,1,95.9999970703126,2|0,0:0|0:0,0:0:0:0:
247,327,108019,1,0,0:0:0:0:
246,308,108123,1,0,0:0:0:0:
246,289,108226,1,2,0:0:0:0:
245,270,108330,1,0,0:0:0:0:
244,250,108433,1,8,0:0:0:0:
204,71,108640,1,0,0:0:0:0:
379,120,108847,2,0,L|431:113,3,47.9999985351563,0|0|2|0,0:0|0:0|0:0|0:0,0:0:0:0:
445,111,109260,6,0,P|479:158|483:212,1,95.9999970703126,2|0,0:0|0:0,0:0:0:0:
357,326,109674,1,2,0:0:0:0:
322,146,109881,1,0,0:0:0:0:
302,144,109985,1,0,0:0:0:0:
280,142,110088,2,0,L|179:144,1,95.9999970703126,8|0,0:0|0:0,0:0:0:0:
130,319,110502,2,0,L|185:309,3,47.9999985351563,0|0|2|0,0:0|0:0|0:0|0:0,0:0:0:0:
196,310,110916,6,0,L|291:308,1,95.9999970703126,2|0,0:0|0:0,0:0:0:0:
434,193,111329,1,2,0:0:0:0:
434,193,111433,1,0,0:0:0:0:
309,59,111640,1,0,0:0:0:0:
309,59,111743,2,0,P|239:65|191:57,1,95.9999970703126,8|0,0:0|0:0,0:0:0:0:
58,159,112157,1,2,0:0:0:0:
58,159,112364,1,2,0:0:0:0:
232,212,112571,6,0,L|253:324,1,95.9999970703126,2|0,0:0|0:0,0:0:0:0:
70,346,112985,1,2,0:0:0:0:
132,175,113191,1,0,0:0:0:0:
142,164,113295,1,0,0:0:0:0:
151,153,113398,2,0,L|216:80,1,95.9999970703126,8|0,0:0|0:0,0:0:0:0:
398,89,113812,1,0,0:0:0:0:
403,107,113916,1,0,0:0:0:0:
408,125,114019,1,2,0:0:0:0:
412,143,114123,1,0,0:0:0:0:
416,161,114226,5,2,0:0:0:0:
318,315,114433,1,0,0:0:0:0:
266,139,114640,2,0,L|330:143,3,47.9999985351563,0|0|2|0,0:0|0:0|0:0|0:0,0:0:0:0:
333,143,115054,2,0,L|292:245,1,95.9999970703126,8|0,0:0|0:0,0:0:0:0:
119,272,115467,2,0,L|79:212,1,47.9999985351563
179,204,115674,2,0,L|185:152,1,47.9999985351563,2|0,0:0|0:0,0:0:0:0:
93,147,115881,6,0,L|67:40,1,95.9999970703126,2|0,0:0|0:0,0:0:0:0:
252,29,116295,1,2,0:0:0:0:
179,204,116502,1,0,0:0:0:0:
189,220,116605,1,0,0:0:0:0:
198,236,116709,2,0,P|245:258|309:243,1,95.9999970703126,8|0,0:0|0:0,0:0:0:0:
432,140,117123,2,0,L|375:137,3,47.9999985351563,0|0|2|0,0:0|0:0|0:0|0:0,0:0:0:0:
365,135,117536,6,0,B|317:142|317:142|253:127,1,95.9999970703126,2|0,0:0|0:0,0:0:0:0:
99,66,117950,1,2,0:0:0:0:
99,66,118054,1,0,0:0:0:0:
277,35,118260,1,0,0:0:0:0:
277,35,118364,2,0,L|270:141,1,95.9999970703126
197,186,118674,1,0,0:0:0:0:
197,186,118778,2,0,L|204:292,1,95.9999970703126
388,334,119191,6,0,B|419:297|419:297|429:247,1,95.9999970703126,6|0,0:0|0:0,0:0:0:0:
332,82,119605,2,0,B|301:119|301:119|291:169,1,95.9999970703126,2|0,0:0|0:0,0:0:0:0:
288,185,119916,1,0,0:0:0:0:
286,204,120019,1,8,0:0:0:0:
476,178,120226,1,0,0:0:0:0:
332,82,120433,1,0,0:0:0:0:
313,77,120536,1,0,0:0:0:0:
294,72,120640,1,2,0:0:0:0:
275,66,120743,1,0,0:0:0:0:
256,61,120847,6,0,B|206:71|206:71|150:70,1,95.9999970703126,2|0,0:0|0:0,0:0:0:0:
48,226,121260,1,0,0:0:0:0:
67,224,121364,1,0,0:0:0:0:
86,222,121467,1,2,0:0:0:0:
105,220,121571,1,0,0:0:0:0:
124,218,121674,1,8,0:0:0:0:
303,149,121881,1,0,0:0:0:0:
111,138,122088,2,0,L|61:144,3,47.9999985351563,0|0|2|0,0:0|0:0|0:0|0:0,0:0:0:0:
44,147,122502,6,0,L|17:243,1,95.9999970703126,2|0,0:0|0:0,0:0:0:0:
181,341,122916,2,0,L|155:248,1,95.9999970703126,2|0,0:0|0:0,0:0:0:0:
150,229,123226,1,0,0:0:0:0:
145,210,123329,1,8,0:0:0:0:
11,348,123536,1,0,0:0:0:0:
199,312,123743,2,0,L|251:313,3,47.9999985351563,0|0|2|0,0:0|0:0|0:0|0:0,0:0:0:0:
266,314,124157,6,0,P|299:272|303:204,1,95.9999970703126,2|0,0:0|0:0,0:0:0:0:
180,98,124571,1,2,0:0:0:0:
180,98,124674,1,0,0:0:0:0:
358,135,124881,1,0,0:0:0:0:
358,135,124985,2,0,P|414:113|433:73,1,95.9999970703126,8|0,0:0|0:0,0:0:0:0:
258,24,125398,2,0,L|267:72,1,47.9999985351563,10|0,0:0|0:0,0:0:0:0:
177,50,125605,2,0,L|181:117,1,47.9999985351563,10|0,0:0|0:0,0:0:0:0:
94,63,125812,6,0,L|77:177,1,95.9999970703126,2|0,0:0|0:0,0:0:0:0:
213,283,126226,2,0,L|198:188,1,95.9999970703126,2|0,0:0|0:0,0:0:0:0:
196,168,126536,1,0,0:0:0:0:
192,149,126640,1,8,0:0:0:0:
43,270,126847,1,0,0:0:0:0:
212,360,127054,1,0,0:0:0:0:
231,359,127157,1,0,0:0:0:0:
250,359,127260,1,2,0:0:0:0:
269,359,127364,1,0,0:0:0:0:
288,359,127467,6,0,P|319:314|321:267,1,95.9999970703126,2|0,0:0|0:0,0:0:0:0:
163,164,127881,1,0,0:0:0:0:
165,183,127985,1,0,0:0:0:0:
167,201,128088,1,2,0:0:0:0:
168,220,128191,1,0,0:0:0:0:
170,239,128295,1,8,0:0:0:0:
354,185,128502,1,0,0:0:0:0:
161,146,128709,2,0,L|91:140,3,47.9999985351563,0|0|2|0,0:0|0:0|0:0|0:0,0:0:0:0:
93,141,129123,6,0,L|65:44,1,95.9999970703126,2|0,0:0|0:0,0:0:0:0:
256,23,129536,2,0,L|282:115,1,95.9999970703126,2|0,0:0|0:0,0:0:0:0:
281,134,129847,1,0,0:0:0:0:
281,153,129950,1,8,0:0:0:0:
98,213,130157,1,0,0:0:0:0:
3,45,130364,2,0,L|50:59,3,47.9999985351563,0|0|2|0,0:0|0:0|0:0|0:0,0:0:0:0:
67,64,130778,6,0,P|129:67|168:49,1,95.9999970703126,2|0,0:0|0:0,0:0:0:0:
350,32,131191,1,2,0:0:0:0:
350,32,131295,1,0,0:0:0:0:
200,152,131502,1,8,0:0:0:0:
200,152,131605,2,0,L|206:264,1,95.9999970703126
380,166,132019,2,0,L|363:96,1,47.9999985351563,2|0,0:0|0:0,0:0:0:0:
455,218,132226,2,0,L|472:148,1,47.9999985351563,2|0,0:0|0:0,0:0:0:0:
372,256,132433,5,2,0:0:0:0:
247,293,145674,6,0,P|199:297|152:276,1,80,2|0,0:0|0:0,0:0:0:0:
85,211,146088,1,0,0:0:0:0:
96,99,146295,1,0,0:0:0:0:
187,34,146502,1,0,0:0:0:0:
459,120,146916,6,0,B|411:197|411:197|328:239|268:175,1,240,2|0,0:0|0:0,0:0:0:0:
244,72,147743,1,0,0:0:0:0:
353,95,147950,1,0,0:0:0:0:
166,280,148364,1,0,0:0:0:0:
68,225,148571,1,0,0:0:0:0:
39,116,148778,1,0,0:0:0:0:
230,25,148985,6,0,P|224:71|189:118,1,80,2|0,0:0|0:0,0:0:0:0:
111,156,149398,1,0,0:0:0:0:
203,219,149605,2,0,B|253:229|294:204|294:204|330:229|375:208,1,160
429,129,150226,2,0,P|390:120|343:131,1,80,2|0,0:0|0:0,0:0:0:0:
239,142,150640,6,0,P|193:134|162:103,1,80,2|0,0:0|0:0,0:0:0:0:
246,32,151054,1,0,0:0:0:0:
330,104,151260,1,0,0:0:0:0:
246,32,151674,1,0,0:0:0:0:
141,72,151881,2,0,L|57:57,1,80,2|0,0:0|0:0,0:0:0:0:
20,180,152295,6,0,L|112:174,1,80,2|0,0:0|0:0,0:0:0:0:
206,209,152709,1,0,0:0:0:0:
209,320,152916,2,0,P|161:351|123:269,1,160
206,186,153536,2,0,L|203:93,1,80,2|0,0:0|0:0,0:0:0:0:
348,69,153950,6,0,L|345:148,1,80,2|0,0:0|0:0,0:0:0:0:
317,257,154364,1,0,0:0:0:0:
206,186,154571,2,0,B|146:154|104:193|42:164,1,160
23,58,155191,1,0,0:0:0:0:
23,58,155605,6,0,L|133:46,1,80,2|0,0:0|0:0,0:0:0:0:
214,62,156019,1,0,0:0:0:0:
154,156,156226,1,0,0:0:0:0:
323,30,156433,2,0,P|367:34|435:137,1,160,0|2,0:0|0:0,0:0:0:0:
407,228,157054,1,0,0:0:0:0:
216,315,157260,6,0,P|203:272|278:177,1,160,2|0,0:0|0:0,0:0:0:0:
392,34,157881,2,0,P|332:63|226:22,1,160
55,125,158502,2,0,L|137:119,1,80,2|0,0:0|0:0,0:0:0:0:
338,183,158916,5,10,0:0:0:0:
338,183,159329,5,8,0:0:0:0:
249,325,159536,1,0,0:0:0:0:
170,176,159743,1,8,0:0:0:0:
419,37,160157,5,8,0:0:0:0:
338,183,160364,1,2,0:0:0:0:
338,183,160571,5,10,0:0:0:0:
265,216,160985,1,8,0:0:0:0:
185,215,161398,1,8,0:0:0:0:
116,173,161812,1,8,0:0:0:0:
107,181,161916,1,0,0:0:0:0:
98,189,162019,1,0,0:0:0:0:
89,197,162123,1,0,0:0:0:0:
82,206,162226,1,10,0:0:0:0:
82,206,162640,5,8,0:0:0:0:
33,45,162847,1,0,0:0:0:0:
196,85,163054,1,8,0:0:0:0:
181,342,163467,5,8,0:0:0:0:
82,206,163674,1,2,0:0:0:0:
82,206,163881,5,10,0:0:0:0:
159,184,164295,1,8,0:0:0:0:
238,193,164709,1,8,0:0:0:0:
310,226,165123,2,0,L|301:277,1,40,10|0,0:0|0:0,0:0:0:0:
377,158,165329,2,0,L|392:215,1,40,8|0,0:0|0:0,0:0:0:0:
311,97,165536,5,10,0:0:0:0:
222,220,165743,1,8,0:0:0:0:
228,68,165950,1,8,0:0:0:0:
92,136,166157,1,8,0:0:0:0:
222,220,166364,1,8,0:0:0:0:
152,84,166571,1,8,0:0:0:0:
146,235,166778,1,8,0:0:0:0:
225,105,166985,1,10,0:0:0:0:
75,214,167191,5,10,0:0:0:0:
215,272,167398,1,8,0:0:0:0:
68,312,167605,1,8,0:0:0:0:
208,370,167812,1,8,0:0:0:0:
151,219,168019,1,8,0:0:0:0:
302,276,168226,1,8,0:0:0:0:
245,125,168433,2,8,L|241:68,1,40
328,41,168640,2,8,L|332:98,1,40
337,177,168847,5,10,0:0:0:0:
333,200,168950,1,8,0:0:0:0:
325,223,169053,1,8,0:0:0:0:
312,243,169157,1,8,0:0:0:0:
295,260,169260,1,8,0:0:0:0:
276,274,169364,1,8,0:0:0:0:
254,284,169467,1,8,0:0:0:0:
230,289,169571,1,8,0:0:0:0:
207,288,169674,2,0,L|171:278,13,20
256,192,170502,12,0,171950,0:0:0:0:
166,137,172157,6,0,P|164:210|189:249,1,95.9999970703126,6|0,0:0|0:0,0:0:0:0:
360,275,172571,2,0,P|362:202|337:163,1,95.9999970703126,2|0,0:0|0:0,0:0:0:0:
199,65,172985,1,8,0:0:0:0:
199,65,173398,2,0,P|280:75|313:61,1,95.9999970703126,0|2,0:0|0:0,0:0:0:0:
374,245,173812,6,0,P|293:235|260:249,1,95.9999970703126,2|0,0:0|0:0,0:0:0:0:
339,59,174226,1,0,0:0:0:0:
444,219,174433,1,2,0:0:0:0:
212,123,174640,1,8,0:0:0:0:
212,123,175054,1,0,0:0:0:0:
206,141,175157,1,0,0:0:0:0:
198,158,175260,1,2,0:0:0:0:
190,175,175364,1,0,0:0:0:0:
182,192,175467,6,0,P|148:245|77:262,1,95.9999970703126,2|0,0:0|0:0,0:0:0:0:
303,201,175881,2,0,P|365:193|425:220,1,95.9999970703126,2|0,0:0|0:0,0:0:0:0:
249,34,176295,2,0,P|264:84|253:138,1,95.9999970703126,8|0,0:0|0:0,0:0:0:0:
65,142,176709,1,0,0:0:0:0:
223,33,176916,1,2,0:0:0:0:
86,222,177123,6,0,P|129:255|193:257,1,95.9999970703126,2|0,0:0|0:0,0:0:0:0:
146,53,177536,1,2,0:0:0:0:
247,247,177743,1,0,0:0:0:0:
307,30,177950,2,0,P|257:59|243:115,1,95.9999970703126,8|0,0:0|0:0,0:0:0:0:
336,261,178364,1,2,0:0:0:0:
336,261,178571,1,2,0:0:0:0:
154,162,178778,6,0,L|54:152,1,95.9999970703126,2|0,0:0|0:0,0:0:0:0:
240,251,179191,2,0,L|340:261,1,95.9999970703126,2|0,0:0|0:0,0:0:0:0:
256,84,179605,1,8,0:0:0:0:
256,84,180019,2,0,P|247:158|212:200,1,95.9999970703126,0|2,0:0|0:0,0:0:0:0:
348,332,180433,6,0,P|357:258|392:216,1,95.9999970703126,2|0,0:0|0:0,0:0:0:0:
184,302,180847,1,0,0:0:0:0:
324,170,181054,1,2,0:0:0:0:
96,262,181260,1,8,0:0:0:0:
96,262,181674,1,0,0:0:0:0:
89,243,181778,1,0,0:0:0:0:
81,225,181881,1,2,0:0:0:0:
73,207,181985,1,0,0:0:0:0:
66,188,182088,6,0,P|57:129|83:78,1,95.9999970703126,2|0,0:0|0:0,0:0:0:0:
249,28,182502,2,0,P|258:87|232:138,1,95.9999970703126,2|0,0:0|0:0,0:0:0:0:
82,17,182916,1,8,0:0:0:0:
82,17,183329,1,0,0:0:0:0:
170,187,183536,1,2,0:0:0:0:
170,187,183743,6,0,P|220:200|274:204,1,95.9999970703126,2|0,0:0|0:0,0:0:0:0:
78,258,184157,2,0,P|122:284|173:303,1,95.9999970703126,2|0,0:0|0:0,0:0:0:0:
84,166,184571,2,0,P|99:116|97:62,1,95.9999970703126
17,19,184881,1,0,0:0:0:0:
17,19,184985,2,0,L|85:7,1,47.9999985351563
207,26,185191,2,0,L|145:38,1,47.9999985351563
13,133,185398,6,0,P|13:195|36:228,1,95.9999970703126,6|0,0:0|0:0,0:0:0:0:
220,257,185812,2,0,P|220:195|197:162,1,95.9999970703126,2|0,0:0|0:0,0:0:0:0:
193,156,186123,1,0,0:0:0:0:
181,146,186226,1,8,0:0:0:0:
63,297,186433,1,0,0:0:0:0:
246,354,186640,1,0,0:0:0:0:
265,355,186743,1,0,0:0:0:0:
284,355,186847,1,2,0:0:0:0:
303,356,186950,1,0,0:0:0:0:
322,356,187054,6,0,P|350:305|338:251,1,95.9999970703126,2|0,0:0|0:0,0:0:0:0:
195,150,187467,1,0,0:0:0:0:
208,145,187571,1,0,0:0:0:0:
221,141,187674,1,2,0:0:0:0:
234,136,187778,1,0,0:0:0:0:
247,131,187881,1,8,0:0:0:0:
150,297,188088,1,0,0:0:0:0:
25,151,188295,2,0,L|32:98,3,47.9999985351563,0|0|2|0,0:0|0:0|0:0|0:0,0:0:0:0:
36,84,188709,6,0,P|104:88|131:80,1,95.9999970703126,2|0,0:0|0:0,0:0:0:0:
314,23,189123,1,2,0:0:0:0:
266,208,189329,1,0,0:0:0:0:
266,208,189433,1,0,0:0:0:0:
266,208,189536,1,8,0:0:0:0:
74,188,189743,2,0,P|146:168|197:183,1,95.9999970703126
351,223,190157,1,2,0:0:0:0:
378,230,190260,1,0,0:0:0:0:
406,230,190364,6,0,P|452:189|454:129,1,95.9999970703126,2|0,0:0|0:0,0:0:0:0:
395,84,190674,1,0,0:0:0:0:
395,84,190778,2,0,B|344:102|299:86|299:86|245:71|179:100,1,191.999994140625,2|8,0:0|0:0,0:0:0:0:
99,186,191398,1,0,0:0:0:0:
275,261,191605,2,0,L|325:272,1,47.9999985351563,10|0,0:0|0:0,0:0:0:0:
214,197,191812,2,0,L|268:185,1,47.9999985351563,10|0,0:0|0:0,0:0:0:0:
197,274,192019,6,0,P|195:326|187:375,1,95.9999970703126,2|0,0:0|0:0,0:0:0:0:
33,253,192433,2,0,P|35:201|43:152,1,95.9999970703126,2|0,0:0|0:0,0:0:0:0:
51,140,192743,1,0,0:0:0:0:
64,125,192847,1,8,0:0:0:0:
243,192,193054,1,0,0:0:0:0:
137,32,193260,1,0,0:0:0:0:
117,33,193364,1,0,0:0:0:0:
97,33,193467,1,2,0:0:0:0:
77,35,193571,1,0,0:0:0:0:
55,38,193674,6,0,P|23:84|30:135,1,95.9999970703126,2|0,0:0|0:0,0:0:0:0:
210,174,194088,1,0,0:0:0:0:
229,173,194191,1,0,0:0:0:0:
248,171,194295,1,2,0:0:0:0:
267,170,194398,1,0,0:0:0:0:
286,168,194502,1,8,0:0:0:0:
94,188,194709,1,0,0:0:0:0:
258,89,194916,2,0,L|323:84,3,47.9999985351563,0|0|2|0,0:0|0:0|0:0|0:0,0:0:0:0:
334,81,195329,6,0,P|371:121|381:181,1,95.9999970703126,2|0,0:0|0:0,0:0:0:0:
300,335,195743,2,0,P|263:295|253:235,1,95.9999970703126,2|0,0:0|0:0,0:0:0:0:
349,252,196054,1,0,0:0:0:0:
349,252,196157,2,0,L|450:258,1,95.9999970703126,8|0,0:0|0:0,0:0:0:0:
503,125,196571,1,0,0:0:0:0:
313,157,196778,1,2,0:0:0:0:
313,157,196881,1,0,0:0:0:0:
313,157,196985,6,0,B|257:164|205:152,1,95.9999970703126,2|0,0:0|0:0,0:0:0:0:
72,78,197398,2,0,B|128:71|180:83,1,95.9999970703126,2|0,0:0|0:0,0:0:0:0:
250,243,197812,2,0,B|289:252|345:245,1,95.9999970703126,8|0,0:0|0:0,0:0:0:0:
491,119,198226,2,0,P|479:148|455:171,1,47.9999985351563,2|0,0:0|0:0,0:0:0:0:
415,63,198433,2,0,P|414:94|400:124,1,47.9999985351563,2|0,0:0|0:0,0:0:0:0:
334,40,198640,6,0,P|290:63|224:48,1,95.9999970703126,6|0,0:0|0:0,0:0:0:0:
52,49,199054,2,0,P|96:26|162:41,1,95.9999970703126,2|0,0:0|0:0,0:0:0:0:
167,122,199364,1,0,0:0:0:0:
167,122,199467,2,0,P|170:171|201:218,1,95.9999970703126,8|0,0:0|0:0,0:0:0:0:
332,51,199881,1,0,0:0:0:0:
349,59,199985,1,0,0:0:0:0:
365,68,200088,1,2,0:0:0:0:
381,77,200191,1,0,0:0:0:0:
397,86,200295,6,0,P|433:137|443:198,1,95.9999970703126,2|0,0:0|0:0,0:0:0:0:
250,144,200709,2,0,P|284:153|301:151,3,47.9999985351563,0|0|2|0,0:0|0:0|0:0|0:0,0:0:0:0:
315,150,201123,2,0,L|280:260,1,95.9999970703126,8|0,0:0|0:0,0:0:0:0:
126,134,201536,1,0,0:0:0:0:
126,134,201743,1,2,0:0:0:0:
114,165,201847,1,0,0:0:0:0:
111,198,201950,6,0,P|144:239|193:278,1,95.9999970703126,2|0,0:0|0:0,0:0:0:0:
324,142,202364,2,0,P|271:150|212:173,1,95.9999970703126,2|0,0:0|0:0,0:0:0:0:
280,350,202778,2,0,P|299:300|308:238,1,95.9999970703126,8|0,0:0|0:0,0:0:0:0:
125,320,203191,1,0,0:0:0:0:
87,131,203398,1,2,0:0:0:0:
87,131,203502,1,0,0:0:0:0:
87,131,203605,6,0,L|83:243,1,95.9999970703126,2|0,0:0|0:0,0:0:0:0:
309,330,204019,2,0,P|367:334|336:154,1,287.999991210938,2|0,0:0|0:0,0:0:0:0:
186,148,204847,2,0,L|166:217,1,47.9999985351563,10|0,0:0|0:0,0:0:0:0:
243,77,205054,2,0,L|263:146,1,47.9999985351563,10|0,0:0|0:0,0:0:0:0:
170,46,205260,6,0,P|119:67|63:57,1,95.9999970703126,2|0,0:0|0:0,0:0:0:0:
6,242,205674,2,0,P|57:221|113:231,1,95.9999970703126,2|0,0:0|0:0,0:0:0:0:
185,264,205985,1,0,0:0:0:0:
185,264,206088,2,0,P|237:272|280:251,1,95.9999970703126,8|0,0:0|0:0,0:0:0:0:
324,68,206502,1,0,0:0:0:0:
305,72,206605,1,0,0:0:0:0:
287,80,206709,1,2,0:0:0:0:
273,93,206812,1,0,0:0:0:0:
260,107,206916,6,0,P|208:121|156:94,1,95.9999970703126,2|0,0:0|0:0,0:0:0:0:
358,146,207329,2,0,P|381:148|406:150,3,47.9999985351563,0|0|2|0,0:0|0:0|0:0|0:0,0:0:0:0:
433,148,207743,2,0,P|450:197|439:243,1,95.9999970703126,8|0,0:0|0:0,0:0:0:0:
257,298,208157,1,0,0:0:0:0:
257,298,208364,1,2,0:0:0:0:
242,268,208467,1,0,0:0:0:0:
226,237,208571,6,0,P|208:189|226:133,1,95.9999970703126,2|0,0:0|0:0,0:0:0:0:
389,58,208985,1,2,0:0:0:0:
383,249,209191,1,0,0:0:0:0:
383,249,209295,1,0,0:0:0:0:
383,249,209398,1,8,0:0:0:0:
443,118,209605,1,0,0:0:0:0:
263,50,209812,1,0,0:0:0:0:
235,60,209916,1,0,0:0:0:0:
206,63,210019,1,2,0:0:0:0:
177,59,210123,1,0,0:0:0:0:
149,50,210226,6,0,P|85:48|52:67,1,95.9999970703126,2|0,0:0|0:0,0:0:0:0:
36,253,210640,2,0,P|69:247|85:233,1,47.9999985351563,2|0,0:0|0:0,0:0:0:0:
146,168,210847,1,0,0:0:0:0:
178,160,210950,1,0,0:0:0:0:
211,165,211054,2,0,B|253:171|253:171|328:164,1,95.9999970703126,8|0,0:0|0:0,0:0:0:0:
461,114,211467,2,0,L|470:181,1,47.9999985351563,10|0,0:0|0:0,0:0:0:0:
386,72,211674,2,0,L|377:138,1,47.9999985351563,10|0,0:0|0:0,0:0:0:0:
455,31,211881,5,0,0:0:0:0:
