osu file format v14

[General]
AudioFilename: audio.mp3
AudioLeadIn: 0
PreviewTime: 88067
Countdown: 0
SampleSet: Soft
StackLeniency: 0.7
Mode: 0
LetterboxInBreaks: 0
WidescreenStoryboard: 1

[Editor]
Bookmarks: 367,11338,16824,22311,44267,66209,71695,77181,88152,110095,121067,129295
DistanceSpacing: 1
BeatDivisor: 4
GridSize: 32
TimelineZoom: 1.6

[Metadata]
Title:Worth The Lie
TitleUnicode:Worth The Lie
Artist:Muzzy, Koven & Feint
ArtistUnicode:Muzzy, Koven & Feint
Creator:Elinor
Version:Normal
Source:
Tags:muzz dnb dancefloor drum and bass edm electronic english female vocalist eli [_eli_] monstercat uncaged vol. 3 cut short ver version
BeatmapID:2533754
BeatmapSetID:1217548

[Difficulty]
HPDrainRate:4.2
CircleSize:3.2
OverallDifficulty:4.2
ApproachRate:5.2
SliderMultiplier:1
SliderTickRate:1

[Events]
//Background and Video events
0,0,"bg.jpg",0,0
//Break Periods
2,66409,70525
//Storyboard Layer 0 (Background)
//Storyboard Layer 1 (Fail)
//Storyboard Layer 2 (Pass)
//Storyboard Layer 3 (Foreground)
//Storyboard Layer 4 (Overlay)
//Storyboard Sound Samples

[TimingPoints]
369,342.857142857143,4,2,22,100,1,0
16826,-100,4,2,22,20,0,0
21626,-100,4,2,22,5,0,0
22311,-111.111111111111,4,2,22,50,0,0
23365,344.827586206897,4,2,22,100,1,0
23365,-111.111111111111,4,2,22,50,0,0
23685,342.857142857143,4,2,22,100,1,0
23685,-111.111111111111,4,2,22,50,0,0
31897,346.820809248555,4,2,22,100,1,0
31897,-111.111111111111,4,2,22,50,0,0
32402,342.857142857143,4,2,22,100,1,0
32402,-111.111111111111,4,2,22,50,0,0
32598,342.857142857143,4,2,22,100,1,0
32598,-111.111111111111,4,2,22,50,0,0
33283,342.857142857143,4,2,22,100,1,0
33283,-111.111111111111,4,2,22,50,0,0
40119,344.827586206897,4,2,22,100,1,0
40119,-111.111111111111,4,2,22,50,0,0
40595,342.857142857143,4,2,22,100,1,0
40595,-111.111111111111,4,2,22,50,0,0
41509,344.827586206897,4,2,22,100,1,0
41509,-111.111111111111,4,2,22,50,0,0
42006,342.857142857143,4,2,22,100,1,0
42006,-111.111111111111,4,2,22,50,0,0
42851,344.827586206897,4,2,22,100,1,0
42851,-124.069478908189,4,2,22,50,0,0
43352,342.857142857143,4,2,22,100,1,0
43352,-111.111111111111,4,2,22,50,0,0
43566,342.857142857143,4,2,22,100,1,0
43566,-111.111111111111,4,2,22,50,0,0
44267,342.857142857143,4,2,22,100,1,0
44267,-111.111111111111,4,2,22,60,0,0
66209,-111.111111111111,4,2,22,60,0,0
71695,-111.111111111111,4,2,2,80,0,0
76838,-111.111111111111,4,2,5,80,0,0
77009,-111.111111111111,4,2,2,80,0,0
77181,-99.9999999999999,4,2,22,90,0,0
88152,-90.9090909090909,4,2,22,100,0,1
103752,-90.9090909090909,4,2,5,100,0,1
104095,-90.9090909090909,4,2,22,100,0,1
110095,-90.9090909090909,4,2,22,100,0,0
121067,-90.9090909090909,4,2,2,100,0,0
121238,-90.9090909090909,4,2,2,40,0,0
129295,-90.9090909090908,4,2,22,5,0,0

[Colours]
Combo1 : 255,166,166
Combo2 : 216,176,255
Combo3 : 255,183,219
Combo4 : 171,214,241

[HitObjects]
256,192,16826,12,0,21626,0:0:0:0:
52,72,22311,6,0,L|144:60,1,89.9999972534181,2|0,0:2|0:2,0:0:0:0:
188,56,22826,1,2,0:2:0:0:
276,156,23365,1,2,0:2:0:0:
200,200,23685,2,0,L|108:220,1,89.9999972534181,2|2,0:2|0:2,0:0:0:0:
48,284,24370,1,2,0:2:0:0:
120,336,24713,6,0,B|164:332|172:356|208:352,1,89.9999972534181,2|0,0:2|0:2,0:0:0:0:
232,264,25399,1,2,0:2:0:0:
232,264,25570,2,0,P|268:240|316:240,1,89.9999972534181,2|0,0:2|0:2,0:0:0:0:
356,256,26085,1,2,0:2:0:0:
400,336,26427,2,0,P|444:336|480:308,1,89.9999972534181,2|0,0:2|0:0,0:0:0:0:
500,220,27113,1,2,0:2:0:0:
436,160,27456,1,2,0:2:0:0:
352,196,27799,6,0,L|264:176,1,89.9999972534181,2|0,0:2|0:2,0:0:0:0:
220,168,28313,1,2,0:2:0:0:
136,64,28827,1,2,0:2:0:0:
64,120,29170,2,0,P|52:164|64:208,1,89.9999972534181,2|2,0:2|0:2,0:0:0:0:
108,284,29856,1,2,0:2:0:0:
196,316,30199,6,0,L|288:296,1,89.9999972534181,2|2,0:2|0:2,0:0:0:0:
360,248,30885,1,2,0:2:0:0:
360,248,31056,2,0,L|448:272,1,89.9999972534181,2|0,0:2|0:2,0:0:0:0:
488,252,31570,1,2,0:2:0:0:
496,164,31897,2,0,P|496:116|472:80,1,89.9999972534181,2|0,0:2|0:0,0:0:0:0:
396,32,32598,1,2,0:2:0:0:
332,96,32940,1,2,0:2:0:0:
264,36,33283,6,0,L|176:56,1,89.9999972534181,2|0,0:2|0:2,0:0:0:0:
132,68,33798,1,2,0:2:0:0:
84,196,34312,1,2,0:2:0:0:
148,260,34655,2,0,L|240:240,1,89.9999972534181,2|2,0:2|0:2,0:0:0:0:
320,276,35340,1,2,0:2:0:0:
408,252,35683,6,0,P|432:220|432:168,1,89.9999972534181,2|0,0:2|0:2,0:0:0:0:
420,84,36369,1,2,0:2:0:0:
420,84,36540,2,0,P|376:60|336:60,1,89.9999972534181,2|0,0:2|0:2,0:0:0:0:
292,68,37055,1,2,0:2:0:0:
244,140,37398,1,2,0:2:0:0:
304,208,37740,2,0,L|288:300,1,89.9999972534181,2|0,0:2|0:0,0:0:0:0:
216,348,38426,1,2,0:2:0:0:
152,288,38769,6,0,B|112:292|112:324|68:328,1,89.9999972534181,2|0,0:2|0:2,0:0:0:0:
40,296,39283,2,0,P|16:256|16:212,1,89.9999972534181,2|0,0:2|0:2,0:0:0:0:
20,168,39798,1,2,0:2:0:0:
96,116,40119,2,0,L|188:140,1,89.9999972534181,2|0,0:2|0:2,0:0:0:0:
222,161,40595,2,0,L|314:141,1,89.9999972534181,2|0,0:2|0:2,0:0:0:0:
354,134,41109,1,2,0:2:0:0:
383,49,41509,6,0,P|351:25|299:25,1,89.9999972534181,2|0,0:2|0:2,0:0:0:0:
260,40,42006,1,2,0:2:0:0:
214,166,42520,1,2,0:2:0:0:
220,243,42851,2,0,P|258:263|296:263,1,80.5999987086487,2|0,0:0|0:0,0:0:0:0:
336,260,43352,1,2,0:2:0:0:
336,260,43566,2,0,L|427:237,1,89.9999972534181,2|2,0:2|0:2,0:2:0:0:
427,143,44267,6,0,L|335:123,1,89.9999972534181,6|2,0:2|0:2,0:0:0:0:
265,71,44952,2,0,L|177:90,1,89.9999972534181,2|2,0:0|0:0,0:0:0:0:
94,127,45638,2,0,P|94:180|107:214,1,89.9999972534181,2|0,0:2|0:2,0:0:0:0:
165,282,46324,1,2,0:2:0:0:
332,348,47009,6,0,L|420:328,1,89.9999972534181,2|2,0:2|0:2,0:0:0:0:
471,253,47695,2,0,L|379:237,1,89.9999972534181,2|2,0:2|0:2,0:0:0:0:
296,215,48381,2,0,L|310:122,1,89.9999972534181,2|2,0:2|0:2,0:0:0:0:
254,54,49067,1,2,0:2:0:0:
175,96,49409,1,2,0:2:0:0:
145,182,49752,6,0,P|105:209|63:209,1,89.9999972534181,2|2,0:2|0:2,0:0:0:0:
24,128,50438,2,0,P|24:76|42:40,1,89.9999972534181,2|2,0:0|0:0,0:0:0:0:
128,24,51124,2,0,L|220:40,1,89.9999972534181,2|0,0:2|0:2,0:0:0:0:
296,80,51809,2,0,L|384:64,1,89.9999972534181,2|0,0:2|0:2,0:0:0:0:
473,50,52495,5,2,0:2:0:0:
507,132,52838,1,2,0:2:0:0:
490,220,53181,2,0,L|470:312,1,89.9999972534181,2|2,0:2|0:2,0:0:0:0:
380,312,53867,2,0,L|360:224,2,89.9999972534181,2|2|2,0:2|0:2|0:2,0:0:0:0:
201,334,55238,6,0,B|165:330|145:358|109:346,1,89.9999972534181,2|2,0:2|0:2,0:0:0:0:
36,300,55924,1,2,0:2:0:0:
0,217,56267,1,2,0:2:0:0:
54,145,56609,2,0,P|93:130|137:143,1,89.9999972534181,2|0,0:0|0:0,0:0:0:0:
201,207,57295,2,0,P|245:235|281:235,1,89.9999972534181,2|0,0:2|0:2,0:0:0:0:
363,197,57981,6,0,L|379:105,1,89.9999972534181,2|2,0:2|0:2,0:0:0:0:
343,25,58667,2,0,L|255:45,1,89.9999972534181,2|2,0:0|0:0,0:0:0:0:
177,91,59352,2,0,P|186:129|197:187,2,89.9999972534181,2|2|2,0:2|0:2|0:2,0:0:0:0:
28,192,60724,6,0,P|16:238|28:278,1,89.9999972534181,2|2,0:2|0:2,0:0:0:0:
76,353,61409,1,2,0:2:0:0:
138,288,61752,1,2,0:0:0:0:
216,332,62095,2,0,L|304:348,1,89.9999972534181,2|2,0:2|0:2,0:0:0:0:
394,349,62781,2,0,L|482:333,1,89.9999972534181,2|0,0:2|0:2,0:0:0:0:
491,243,63467,6,0,L|479:147,1,89.9999972534181,2|2,0:2|0:2,0:0:0:0:
416,88,64152,2,0,P|368:88|328:124,1,89.9999972534181,2|2,0:2|0:2,0:0:0:0:
288,188,64838,2,0,P|252:216|204:216,1,89.9999972534181,2|2,0:2|0:2,0:0:0:0:
136,168,65524,1,2,0:2:0:0:
256,36,66209,5,2,0:2:0:0:
256,36,71695,6,0,L|152:60,1,89.9999972534181,6|10,1:2|0:2,0:0:0:0:
104,116,72381,1,0,1:2:0:0:
104,116,72552,2,0,L|120:212,1,89.9999972534181,10|0,0:2|1:2,0:0:0:0:
132,248,73067,2,0,P|168:272|216:272,1,89.9999972534181,10|0,0:2|1:2,0:0:0:0:
256,258,73581,1,10,0:2:0:0:
343,229,73924,1,0,1:2:0:0:
343,229,74095,2,0,L|391:237,1,44.999998626709,10|10,0:2|0:2,0:0:0:0:
431,227,74438,6,0,P|447:183|447:135,1,89.9999972534181,2|10,1:2|0:2,0:0:0:0:
415,61,75124,1,2,1:2:0:0:
415,61,75295,2,0,L|363:74,1,44.999998626709,8|2,0:2|0:2,0:0:0:0:
331,87,75638,1,0,1:2:0:0:
331,87,75809,2,0,L|239:71,1,89.9999972534181,10|2,0:2|1:2,0:0:0:0:
153,86,76495,1,2,0:2:0:0:
91,151,76838,2,0,L|97:205,1,44.999998626709,8|8,0:2|0:2,0:0:0:0:
105,243,77181,6,0,P|157:267|201:267,1,100,6|0,1:2|1:2,0:0:0:0:
240,176,77867,2,0,P|292:152|336:152,1,100,0|0,1:2|1:2,0:0:0:0:
421,203,78552,2,0,L|401:303,1,100,0|0,1:2|1:2,0:0:0:0:
318,357,79238,2,0,L|298:258,1,100,0|0,1:2|1:2,0:0:0:0:
222,192,79924,6,0,P|170:176|114:164,1,100,0|0,1:2|1:2,0:0:0:0:
68,88,80609,2,0,P|116:76|164:62,1,100,0|0,1:2|1:2,0:0:0:0:
260,28,81295,2,0,P|307:42|356:53,1,100,0|2,1:2|1:2,0:0:0:0:
448,92,81981,2,0,L|436:144,1,50,2|2,1:2|1:2,0:0:0:0:
416,188,82324,2,0,L|428:240,1,50,10|2,0:2|1:2,0:0:0:0:
443,284,82667,5,6,1:2:0:0:
366,348,83009,2,0,L|316:339,1,50,2|0,1:2|1:2,0:0:0:0:
267,327,83352,1,0,1:2:0:0:
170,353,83695,1,0,1:2:0:0:
121,265,84038,2,0,L|127:215,1,50,2|0,1:2|1:2,0:0:0:0:
134,165,84381,1,0,1:2:0:0:
231,186,84724,1,0,1:2:0:0:
304,118,85067,2,0,L|294:68,1,50,2|0,1:2|1:2,0:0:0:0:
269,25,85409,6,0,L|165:45,1,100,2|2,1:2|1:2,0:0:0:0:
94,108,86095,2,0,L|86:158,1,50,0|2,1:2|1:2,0:0:0:0:
85,207,86438,2,0,L|97:255,1,50,0|0,1:2|1:2,0:0:0:0:
144,272,86781,2,0,B|192:264|196:295|244:284,1,100,2|0,1:2|1:2,0:0:0:0:
339,265,87467,2,0,L|390:258,1,50,8|0,0:2|1:2,0:0:0:0:
430,231,87809,2,0,L|428:178,1,50,4|8,0:3|0:3,0:0:0:0:
424,125,88152,6,0,P|388:89|328:89,1,110.000003356934,6|8,1:2|0:2,0:0:0:0:
278,103,88667,1,2,3:2:0:0:
178,234,89181,1,10,0:2:0:0:
178,234,89352,2,0,L|150:342,1,110.000003356934,2|2,3:2|3:2,0:0:0:0:
95,340,89867,2,0,L|71:233,1,110.000003356934,10|0,0:2|3:2,0:0:0:0:
58,178,90381,1,2,1:2:0:0:
109,81,90724,1,2,3:2:0:0:
109,81,90895,6,0,B|169:65|169:101|217:89,1,110.000003356934,6|8,1:2|0:2,0:0:0:0:
273,85,91409,1,2,3:2:0:0:
402,186,91924,1,10,0:2:0:0:
402,186,92095,2,0,L|370:294,1,110.000003356934,2|2,3:2|3:2,0:0:0:0:
330,330,92609,2,0,L|226:294,1,110.000003356934,10|0,0:2|3:2,0:0:0:0:
174,278,93124,1,2,1:2:0:0:
174,278,93295,1,8,0:2:0:0:
144,171,93638,6,0,P|184:147|244:127,1,110.000003356934,6|10,1:2|0:2,0:0:0:0:
353,124,94324,2,0,L|361:180,1,55.0000016784668,2|0,3:2|1:2,0:0:0:0:
372,232,94667,1,10,0:2:0:0:
404,337,95009,2,0,P|460:337|496:297,1,110.000003356934,2|10,1:2|0:2,0:0:0:0:
500,188,95695,2,0,L|492:128,1,55.0000016784668,2|0,3:2|1:2,0:0:0:0:
484,80,96038,1,10,0:2:0:0:
384,36,96381,6,0,B|332:24|328:72|276:60,1,110.000003356934,2|10,1:2|0:2,0:0:0:0:
176,32,97067,2,0,L|156:140,1,110.000003356934,2|10,3:2|0:2,0:0:0:0:
60,192,97752,2,0,L|80:300,1,110.000003356934,2|10,1:2|0:2,0:0:0:0:
180,348,98438,2,0,L|232:328,1,55.0000016784668,2|0,1:2|1:2,0:0:0:0:
284,336,98781,2,0,L|340:352,1,55.0000016784668,10|2,0:2|1:2,0:0:0:0:
388,328,99124,6,0,P|408:292|408:224,1,110.000003356934,6|8,1:2|0:2,0:0:0:0:
388,172,99638,1,2,3:2:0:0:
256,76,100152,1,10,0:2:0:0:
256,76,100324,2,0,L|144:104,1,110.000003356934,2|2,3:2|3:2,0:0:0:0:
112,144,100838,2,0,L|224:172,1,110.000003356934,10|0,0:2|3:2,0:0:0:0:
272,184,101352,1,2,1:2:0:0:
368,240,101695,1,2,3:2:0:0:
368,240,101867,6,0,P|368:296|328:336,1,110.000003356934,6|8,1:2|0:2,0:0:0:0:
280,352,102381,1,2,3:2:0:0:
116,344,102895,1,10,0:2:0:0:
116,344,103067,2,0,L|96:232,1,110.000003356934,2|0,3:2|3:2,0:0:0:0:
88,180,103581,2,0,L|144:160,1,55.0000016784668,10|8,0:2|0:2,0:0:0:0:
192,144,103924,1,8,0:2:0:0:
292,188,104267,1,4,0:3:0:0:
388,132,104609,6,0,L|404:24,2,110.000003356934,6|10|0,1:2|0:2|0:2,0:0:0:0:
380,188,105467,1,2,1:2:0:0:
380,188,105638,1,8,0:2:0:0:
368,296,105981,2,0,P|328:328|272:328,1,110.000003356934,2|8,1:2|0:2,0:0:0:0:
228,292,106495,2,0,P|212:236|228:180,1,110.000003356934,2|0,0:2|1:2,0:0:0:0:
252,140,107009,1,10,0:2:0:0:
312,48,107352,6,0,L|420:68,2,110.000003356934,2|10|2,1:2|0:2|0:2,0:0:0:0:
256,36,108209,1,0,1:2:0:0:
256,36,108381,1,10,0:2:0:0:
160,88,108724,2,0,L|144:200,1,110.000003356934,2|10,1:2|0:2,0:0:0:0:
120,304,109409,2,0,L|64:296,1,55.0000016784668,0|0,1:0|1:0,0:0:0:0:
16,272,109752,2,0,L|24:216,1,55.0000016784668,8|8,0:2|0:2,0:0:0:0:
32,164,110095,5,6,1:2:0:0:
92,72,110438,2,0,L|152:56,1,55.0000016784668,10|0,0:2|0:0,0:0:0:0:
200,60,110781,2,0,B|264:64|252:96|304:100,1,110.000003356934,2|8,0:2|0:2,0:0:0:0:
361,191,111467,2,0,P|351:236|340:306,1,110.000003356934,2|8,1:2|0:2,0:0:0:0:
297,331,111981,1,2,0:2:0:0:
297,331,112152,2,0,P|281:278|262:226,1,110.000003356934,2|10,3:2|0:2,0:0:0:0:
179,153,112838,6,0,L|119:165,1,55.0000016784668,2|0,1:2|0:2,0:0:0:0:
71,177,113181,1,10,0:2:0:0:
35,280,113524,2,0,P|71:320|131:320,1,110.000003356934,2|8,0:2|0:2,0:0:0:0:
168,288,114038,1,0,3:2:0:0:
168,288,114209,2,0,P|204:248|264:248,1,110.000003356934,2|8,1:2|0:2,0:0:0:0:
360,292,114895,2,0,L|416:304,1,55.0000016784668,2|2,1:2|1:2,0:0:0:0:
456,268,115238,2,0,L|468:212,1,55.0000016784668,10|2,0:2|1:2,0:0:0:0:
480,160,115581,5,6,1:2:0:0:
424,68,115924,1,2,1:2:0:0:
348,148,116267,1,0,1:2:0:0:
268,72,116609,2,0,L|212:84,1,55.0000016784668,0|0,1:2|1:2,0:0:0:0:
160,92,116952,1,2,1:2:0:0:
96,184,117295,1,0,1:2:0:0:
168,268,117638,1,0,1:2:0:0:
264,212,117981,2,0,L|324:224,1,55.0000016784668,2|0,1:2|1:2,0:0:0:0:
372,236,118324,6,0,P|400:280|400:336,1,110.000003356934,2|2,1:2|1:2,0:0:0:0:
292,356,119009,2,0,B|256:332|224:372|184:352,1,110.000003356934,2|2,1:2|1:2,0:0:0:0:
100,284,119695,2,0,L|94:227,1,55.0000016784668,2|8,1:2|0:2,0:0:0:0:
86,174,120038,1,2,1:2:0:0:
178,114,120381,2,0,L|238:130,1,55.0000016784668,10|0,0:2|1:2,0:0:0:0:
278,158,120724,2,0,L|334:142,1,55.0000016784668,0|8,1:2|0:2,0:0:0:0:
382,122,121067,5,4,3:2:0:0:
256,192,121238,12,0,129295,0:2:0:0:
