osu file format v14

[General]
AudioFilename: audio.mp3
AudioLeadIn: 0
PreviewTime: 186488
Countdown: 0
SampleSet: Soft
StackLeniency: 0.3
Mode: 0
LetterboxInBreaks: 0
WidescreenStoryboard: 1

[Editor]
Bookmarks: 22002,43945,54917,65888,76860,87831,98802,109774,120745,131717,142688,153660,175602,197545,208517,222231,230460,241431,252402,263374,274345,285317,296288,307260
DistanceSpacing: 1
BeatDivisor: 8
GridSize: 16
TimelineZoom: 4.499998

[Metadata]
Title:Calling Out
TitleUnicode:Calling Out
Artist:Muzzy feat. KG & Skyelle
ArtistUnicode:Muzzy feat. KG & Skyelle
Creator:Daykeyboard
Version:Overprotection
Source:
Tags:jeffguy1542 jeff_grips jeffpacito_2 electronic dance edm drum and bass dnb monstercat 025 threshold
BeatmapID:2245976
BeatmapSetID:1073166

[Difficulty]
HPDrainRate:6
CircleSize:4
OverallDifficulty:8.4
ApproachRate:9
SliderMultiplier:2
SliderTickRate:1

[Events]
//Background and Video events
0,0,"58823660_p0.jpg",0,0
//Break Periods
2,166030,169517
2,197745,206545
2,208716,216831
2,222259,240831
2,242488,284717
2,286717,316260
//Storyboard Layer 0 (Background)
//Storyboard Layer 1 (Fail)
//Storyboard Layer 2 (Pass)
//Storyboard Layer 3 (Foreground)
//Storyboard Layer 4 (Overlay)
//Storyboard Sound Samples

[TimingPoints]
60,342.857142857143,4,1,0,50,1,0
60,-142.857142857143,4,3,1,60,0,0
5545,-133.333333333333,4,3,1,60,0,0
11031,-111.111111111111,4,3,1,60,0,0
11888,-125,4,3,1,60,0,0
21831,-100,4,3,1,60,0,0
22002,-200,4,2,1,70,0,0
24402,-200,4,2,1,50,0,0
32974,-200,4,2,1,70,0,0
35545,-200,4,2,1,50,0,0
42145,-200,4,2,1,10,0,0
42231,-200,4,2,1,50,0,0
44288,-200,4,2,21,50,0,0
44802,-200,4,2,23,50,0,0
45317,-200,4,2,24,50,0,0
45831,-200,4,2,23,50,0,0
46345,-200,4,2,22,50,0,0
47031,-200,4,2,21,50,0,0
47545,-200,4,2,23,50,0,0
48060,-200,4,2,24,50,0,0
48574,-200,4,2,23,50,0,0
49088,-200,4,2,22,50,0,0
49774,-200,4,2,21,50,0,0
50288,-200,4,2,23,50,0,0
50802,-200,4,2,24,50,0,0
51317,-200,4,2,23,50,0,0
51831,-200,4,2,22,50,0,0
52517,-200,4,2,21,50,0,0
53031,-200,4,2,23,50,0,0
53545,-200,4,2,24,50,0,0
54060,-200,4,2,23,50,0,0
54574,-200,4,2,22,50,0,0
54917,-166.666666666667,4,3,11,60,0,0
57660,-142.857142857143,4,3,12,60,0,0
60402,-125,4,3,13,60,0,0
61774,-117.647058823529,4,3,14,60,0,0
63145,-111.111111111111,4,3,15,60,0,0
64517,-200,4,1,0,50,0,0
65545,-66.6666666666667,4,2,10,50,0,0
65631,-66.6666666666667,4,2,10,10,0,0
65717,-66.6666666666667,4,2,10,50,0,0
65802,-66.6666666666667,4,2,10,10,0,0
65888,-90.9090909090909,4,1,5,70,0,1
76860,-142.857142857143,4,1,5,70,0,1
77588,-142.857142857143,4,1,5,10,0,1
77631,-125,4,1,5,50,0,1
77674,-125,4,1,5,10,0,1
77717,-111.111111111111,4,1,5,50,0,1
77760,-111.111111111111,4,1,5,10,0,1
77802,-100,4,1,5,50,0,1
77845,-100,4,1,5,10,0,1
77888,-90.9090909090909,4,1,5,70,0,1
87831,-111.111111111111,4,1,5,70,0,0
88517,-142.857142857143,4,1,5,50,0,0
88860,-90.9090909090909,4,1,5,70,0,1
98802,-100,4,1,5,70,0,1
107031,-100,4,1,5,70,0,0
109774,-90.9090909090909,4,1,5,70,0,1
131717,-90.9090909090909,4,1,5,70,0,0
132060,-200,4,2,21,50,0,0
132574,-200,4,2,23,50,0,0
132745,-90.9090909090909,4,1,5,70,0,0
133088,-90.9090909090909,4,1,5,70,0,1
153660,-400,4,3,1,50,0,0
164631,-400,4,2,1,50,0,0
165831,-400,4,2,1,5,0,0
175602,-200,4,3,1,70,0,0
178002,-200,4,2,1,50,0,0
186402,-200,4,2,1,5,0,0
186574,-200,4,2,1,70,0,0
189145,-200,4,2,1,50,0,0
195745,-200,4,2,1,5,0,0
195831,-200,4,2,1,50,0,0
197545,-400,4,2,1,50,0,0
208517,-166.666666666667,4,3,11,60,0,0
211260,-142.857142857143,4,3,12,60,0,0
214002,-125,4,3,13,60,0,0
215374,-117.647058823529,4,3,14,60,0,0
216745,-111.111111111111,4,3,15,60,0,0
218117,-142.857142857143,4,1,0,60,0,0
219488,-333.333333333333,4,2,1,50,0,0
220517,-200,4,2,1,50,0,0
221031,-166.666666666667,4,2,1,50,0,0
221545,-111.111111111111,4,2,1,50,0,0
221802,-111.111111111111,4,2,1,5,0,0
221888,-66.6666666666667,4,2,1,100,0,0
222231,-90.9090909090909,4,2,1,50,0,1
241431,-133.333333333333,4,1,5,70,0,0
241945,-133.333333333333,4,1,5,5,0,0
242031,-100,4,2,1,40,0,0
242117,-100,4,2,1,60,0,0
242202,-100,4,2,1,80,0,0
242288,-100,4,2,1,100,0,0
242460,-90.9090909090909,4,2,1,50,0,1
260631,-90.9090909090909,4,2,1,50,0,0
263374,-90.9090909090909,4,2,1,50,0,1
285317,-90.9090909090909,4,2,1,50,0,0
285660,-200,4,2,21,50,0,0
286174,-200,4,2,23,50,0,0
286345,-200,4,2,1,50,0,0
286688,-90.9090909090909,4,2,1,50,0,1
307260,-400,4,2,1,50,0,0
312745,-400,4,2,1,50,0,0
316688,-400,4,2,1,50,0,0
316860,-285.714285714286,4,2,1,50,0,0
317031,-285.714285714286,4,2,1,5,0,0
317202,-285.714285714286,4,2,1,50,0,0
317374,-285.714285714286,4,2,1,5,0,0
317545,-285.714285714286,4,2,1,50,0,0
317888,-285.714285714286,4,2,1,5,0,0
318060,-285.714285714286,4,2,1,50,0,0
318402,-285.714285714286,4,2,1,5,0,0
318574,-200,4,2,1,50,0,0
319088,-200,4,2,1,5,0,0
319260,-200,4,2,1,50,0,0
320288,-200,4,2,1,5,0,0
320460,-285.714285714286,4,2,1,30,0,0
320631,-285.714285714286,4,2,1,50,0,0
320974,-200,4,2,1,50,0,0
323631,-200,4,2,1,5,0,0
323717,-200,4,2,1,50,0,0
326460,-200,4,2,1,5,0,0
326631,-200,4,2,1,50,0,0
328517,-200,4,2,1,5,0,0
328745,-125,4,2,1,40,0,0
328802,-125,4,2,1,50,0,0
328860,-125,4,2,1,40,0,0
328917,-125,4,2,1,30,0,0
328974,-125,4,2,1,20,0,0
329031,-100,4,2,1,40,0,0
329088,-100,4,2,1,50,0,0
329145,-100,4,2,1,70,0,0
329202,-100,4,2,1,50,0,0

[Colours]
Combo1 : 89,233,244
Combo2 : 37,119,218
Combo3 : 154,223,245
Combo4 : 136,175,208
SliderBorder : 230,240,255
SliderTrackOverride : 0,10,30

[HitObjects]
153,99,60,6,0,L|143:238,1,139.999995727539,4|0,0:3|2:0,2:0:0:0:
311,79,574,2,0,P|277:71|243:76,1,69.9999978637696,0|0,0:0|2:0,2:0:0:0:
63,122,917,1,8,2:3:0:0:
273,164,1088,1,8,2:2:0:0:
273,164,1431,6,0,B|238:149|206:167|206:167|173:185|139:171,1,139.999995727539,0|0,0:0|2:0,2:0:0:0:
63,122,1945,1,0,0:0:0:0:
241,252,2117,1,0,2:0:0:0:
273,164,2288,1,8,2:3:0:0:
305,76,2460,1,8,2:2:0:0:
305,76,2802,6,0,B|289:44|289:44|297:159,1,139.999995727539,0|0,0:0|2:0,2:0:0:0:
354,295,3317,2,0,P|355:260|346:227,1,69.9999978637696,0|0,0:0|2:0,2:0:0:0:
202,151,3660,1,8,2:3:0:0:
390,143,3831,1,8,2:2:0:0:
391,142,4174,6,0,P|331:109|265:127,1,139.999995727539,0|0,0:0|2:0,2:0:0:0:
281,287,4688,1,0,0:0:0:0:
320,203,4859,1,0,2:0:0:0:
136,221,5031,1,8,2:3:0:0:
189,296,5202,1,8,2:2:0:0:
189,296,5545,6,0,L|21:312,1,150.000005722046,0|0,0:0|2:0,2:0:0:0:
110,152,6059,2,0,P|129:184|135:221,1,75.0000028610231,0|0,0:0|2:0,2:0:0:0:
92,384,6402,1,8,2:3:0:0:
226,211,6574,1,8,2:2:0:0:
280,286,6745,2,0,L|297:250,1,37.5000014305115,2|2,2:2|2:2,2:2:0:0:
333,360,6917,6,0,P|375:368|417:353,2,75.0000028610231,2|2|2,3:2|2:2|2:2,2:2:0:0:
280,286,7431,1,0,3:0:0:0:
409,195,7602,1,0,2:0:0:0:
371,278,7774,1,8,2:3:0:0:
318,203,7945,1,8,2:2:0:0:
318,203,8288,6,0,B|305:156|305:156|316:104|316:104|303:58,1,150.000005722046,0|0,3:0|2:0,2:0:0:0:
137,91,8802,2,0,L|212:98,1,75.0000028610231,0|0,3:0|2:0,2:0:0:0:
408,161,9145,1,8,2:3:0:0:
253,299,9317,1,8,2:2:0:0:
253,299,9659,6,0,P|183:323|116:294,1,150.000005722046,0|0,3:0|2:0,2:0:0:0:
138,51,10174,2,0,L|159:124,1,75.0000028610231,0|0,3:0|2:0,2:0:0:0:
187,222,10516,1,8,2:3:0:0:
408,118,10688,1,8,2:2:0:0:
408,118,11031,6,0,B|356:129|356:129|305:118|305:118|262:133|215:122,1,179.999994506836,4|0,3:0|2:0,2:0:0:0:
55,27,11545,2,0,P|92:52|116:90,1,89.9999972534181,0|0,3:0|2:0,2:0:0:0:
143,206,11888,1,8,2:3:0:0:
257,13,12059,1,8,2:2:0:0:
257,13,12402,6,0,P|319:52|337:149,1,160,0|0,3:0|2:0,2:0:0:0:
249,304,12917,2,0,L|241:225,1,80,0|0,3:0|2:0,2:0:0:0:
234,119,13259,1,8,2:3:0:0:
355,317,13431,1,8,2:2:0:0:
355,317,13774,6,0,B|397:306|397:306|263:295,1,160,0|0,3:0|2:0,2:0:0:0:
94,312,14288,2,0,B|174:306,1,80,0|0,3:0|2:0,2:0:0:0:
326,198,14631,1,8,2:3:0:0:
219,189,14802,1,8,2:2:0:0:
219,189,15145,6,0,P|256:118|341:92,1,160,0|0,3:0|2:0,2:0:0:0:
488,107,15659,2,0,L|419:147,1,80,0|0,3:0|2:0,2:0:0:0:
326,198,16002,1,8,2:3:0:0:
486,293,16174,1,8,2:2:0:0:
486,293,16517,6,0,B|472:243|472:243|484:187|484:187|470:138,1,160,0|0,3:0|2:0,2:0:0:0:
385,1,17031,2,0,P|375:40|380:80,1,80,0|0,3:0|2:0,2:0:0:0:
391,195,17374,1,8,2:3:0:0:
481,47,17545,1,8,2:2:0:0:
375,59,17717,2,0,L|335:63,1,40,2|2,2:2|2:2,2:2:0:0:
436,146,17888,6,0,P|448:203|433:253,2,80,2|2|2,3:2|2:2|2:2,2:2:0:0:
375,59,18402,1,0,3:0:0:0:
264,271,18574,1,0,2:0:0:0:
341,196,18745,1,8,2:3:0:0:
237,168,18917,1,8,2:2:0:0:
237,168,19260,6,0,P|290:101|376:93,1,160,0|0,3:0|2:0,2:0:0:0:
371,267,19774,2,0,P|349:234|341:196,1,80,0|0,3:0|2:0,2:0:0:0:
466,86,20117,1,8,2:3:0:0:
448,193,20288,1,8,2:2:0:0:
448,193,20631,6,0,L|266:199,1,160,0|0,3:0|2:0,2:0:0:0:
127,125,21145,2,0,L|207:128,1,80,0|0,3:0|2:0,2:0:0:0:
268,303,21488,1,8,2:3:0:0:
308,93,21660,1,8,2:2:0:0:
186,232,21831,2,0,L|156:265,2,25,0|0|0,2:0|2:0|2:0,2:0:0:0:
388,161,22002,6,0,B|450:110|427:22|362:-8|291:2|246:60|254:135|318:168|318:168|250:131|174:151|174:151|97:171|42:129|25:95,1,700,4|0,0:3|0:0,0:0:0:0:
122,112,26460,6,0,P|94:169|61:203,2,100,2|2|2,0:0|0:0|0:0,0:0:0:0:
115,21,27317,1,2,0:0:0:0:
115,21,27660,2,0,B|163:29|163:29|206:60|206:60|254:68,1,150,2|0,0:0|0:0,0:0:0:0:
403,74,29202,6,0,P|338:80|301:97,2,100,2|2|2,2:0|2:0|2:0,2:0:0:0:
496,105,30060,1,2,2:0:0:0:
496,105,30402,2,0,B|506:144|480:175|480:175|455:207|465:246,1,150,2|0,2:0|2:0,2:0:0:0:
256,192,31260,12,0,32802,2:0:0:0:
157,253,32974,6,0,B|123:206|140:151|191:143|225:189|207:244|207:244|190:299|224:346|275:338|292:283|259:233|259:233|292:283|343:275|382:193|326:142|276:175|227:202|199:162|211:84|237:70|285:79|299:114,1,750,4|0,2:0|2:0,2:0:0:0:
384,195,37431,6,0,P|322:202|277:195,2,100,2|2|2,2:0|2:0|2:0,2:0:0:0:
479,171,38288,1,2,2:0:0:0:
479,171,38631,2,0,B|495:214|470:254|470:254|445:293|461:337|461:337|445:293|405:268|361:284,1,300,2|0,2:0|2:0,2:0:0:0:
263,303,40174,6,0,P|198:297|158:283,2,100,2|2|2,2:0|2:0|2:0,2:0:0:0:
362,289,41031,1,2,2:0:0:0:
362,289,41374,2,0,B|384:246|344:185|300:180|281:200|241:204|201:150,1,225,2|0,2:0|2:0,2:0:0:0:
201,152,42231,1,2,2:0:0:0:
319,91,42574,5,2,2:0:0:0:
368,86,42917,1,2,2:0:0:0:
417,82,43259,1,2,2:0:0:0:
466,78,43602,1,2,2:0:0:0:
445,209,43774,1,2,2:0:0:0:
425,340,43945,5,4,2:0:0:0:
83,253,44288,5,2,0:0:0:0:
179,226,44802,1,2,2:2:0:0:
227,139,45317,1,2,2:2:0:0:
254,235,45831,1,2,2:2:0:0:
341,283,46346,1,2,2:2:0:0:
353,284,47031,5,2,2:2:0:0:
250,234,47546,1,2,2:2:0:0:
232,121,48060,1,2,2:2:0:0:
182,226,48575,1,2,2:2:0:0:
70,251,49089,1,2,2:2:0:0:
227,139,49774,5,2,0:0:0:0:
131,166,50288,1,2,2:2:0:0:
83,253,50803,1,2,2:2:0:0:
179,226,51317,1,2,2:2:0:0:
227,139,51832,1,2,2:2:0:0:
179,226,52517,5,2,0:0:0:0:
287,223,53031,1,2,2:2:0:0:
365,299,53546,1,2,2:2:0:0:
257,301,54060,1,2,2:2:0:0:
179,226,54575,1,2,2:2:0:0:
329,293,54917,6,0,L|252:296,1,59.9999981689454,12|0,2:3|2:3,2:3:0:0:
270,272,55260,2,0,L|329:269,1,59.9999981689454,8|0,2:3|2:3,2:3:0:0:
329,245,55602,1,8,2:3:0:0:
329,221,55774,1,0,3:3:0:0:
183,223,55945,1,8,2:3:0:0:
183,247,56117,1,0,3:3:0:0:
255,137,56288,6,0,L|178:134,1,59.9999981689454,8|0,2:3|2:3,2:3:0:0:
198,101,56631,2,0,L|257:103,1,59.9999981689454,8|0,2:3|2:3,2:3:0:0:
346,106,56974,1,8,2:3:0:0:
343,139,57145,1,0,3:3:0:0:
105,130,57317,1,8,2:3:0:0:
107,96,57488,1,0,3:3:0:0:
236,34,57660,6,0,L|231:116,1,69.9999978637696,8|0,2:3|2:3,2:3:0:0:
219,182,58002,2,0,L|223:112,1,69.9999978637696,8|0,2:3|2:3,2:3:0:0:
340,40,58345,1,8,2:3:0:0:
338,74,58517,1,0,3:3:0:0:
114,175,58688,1,8,2:3:0:0:
115,142,58860,1,0,3:3:0:0:
310,111,59031,6,0,L|225:116,1,69.9999978637696,8|0,2:3|2:3,2:3:0:0:
144,104,59374,2,0,L|229:99,1,69.9999978637696,8|0,2:3|2:3,2:3:0:0:
314,202,59717,1,8,2:3:0:0:
278,203,59888,1,0,3:3:0:0:
140,13,60060,1,8,2:3:0:0:
176,12,60231,1,0,3:3:0:0:
311,123,60402,6,0,B|320:161|320:161|311:214,1,80,8|0,2:3|2:3,2:3:0:0:
220,328,60745,2,0,B|211:290|211:290|218:250,1,80,8|0,2:3|2:3,2:3:0:0:
306,286,61088,1,8,2:3:0:0:
324,363,61259,1,0,3:3:0:0:
225,165,61431,1,8,2:3:0:0:
207,88,61602,1,0,3:3:0:0:
61,189,61774,6,0,B|102:197|102:197|149:189,1,85.0000016212464,8|0,2:3|2:3,2:3:0:0:
266,270,62117,2,0,B|225:262|225:262|183:270,1,85.0000016212464,8|0,2:3|2:3,2:3:0:0:
227,174,62460,1,8,2:3:0:0:
310,159,62631,1,0,3:3:0:0:
100,285,62802,1,8,2:3:0:0:
16,299,62973,1,0,3:3:0:0:
127,112,63145,6,0,B|139:155|139:155|128:210,1,89.9999972534181,8|0,2:3|2:3,2:3:0:0:
200,347,63488,2,0,B|188:304|188:304|199:249,1,89.9999972534181,8|0,2:3|2:3,2:3:0:0:
225,165,63831,1,8,2:3:0:0:
50,156,64002,1,0,3:3:0:0:
277,303,64174,1,8,2:3:0:0:
102,294,64345,1,0,3:3:0:0:
416,176,64517,6,0,B|418:151|418:151|409:128|409:128|419:99|406:69,2,100,0|0|0,2:0|2:0|2:0,2:0:0:0:
316,59,65545,6,0,L|329:156,1,75.0000028610231,8|0,0:0|0:0,0:0:0:0:
280,57,65717,2,0,L|293:154,1,75.0000028610231,8|0,0:0|0:0,0:0:0:0:
327,254,65888,6,0,B|217:294|228:191|119:232,1,220.000006713867,6|8,0:0|0:0,0:0:0:0:
161,324,66402,1,2,0:0:0:0:
284,162,66574,2,0,P|299:106|271:41,1,110.000003356934
0,125,66917,2,0,B|69:132|69:132|143:104|143:104|213:112,1,220.000006713867,8|2,0:0|0:0,0:0:0:0:
369,349,67431,2,0,P|332:303|331:233,1,110.000003356934,0|8,0:0|0:0,0:0:0:0:
344,65,67774,1,2,0:0:0:0:
484,149,67945,2,0,B|430:169|430:169|379:164,1,110.000003356934
171,143,68288,1,8,0:0:0:0:
155,142,68631,6,0,P|141:203|161:261,1,110.000003356934,2|0,0:0|0:0,0:0:0:0:
285,255,68974,2,0,P|299:194|279:136,1,110.000003356934,8|2,0:0|0:0,0:0:0:0:
116,23,69317,2,0,L|226:30,1,110.000003356934
445,44,69660,2,0,B|476:111|425:166|425:166|439:210|439:210|433:250,1,220.000006713867,8|2,0:0|0:0,0:0:0:0:
228,190,70174,2,0,P|282:184|333:204,1,110.000003356934,0|8,0:0|0:0,0:0:0:0:
441,362,70517,1,2,0:0:0:0:
267,302,70688,2,0,L|296:68,1,220.000006713867,0|8,0:0|0:0,0:0:0:0:
297,65,71374,6,0,B|227:72|227:72|190:58|190:58|157:79|157:79|87:87,1,220.000006713867,6|8,0:0|0:0,0:0:0:0:
28,173,71888,1,2,0:0:0:0:
205,266,72060,2,0,P|213:212|202:159,1,110.000003356934
317,198,72402,2,0,B|347:248|406:253|406:253|465:259|496:309,1,220.000006713867,8|2,0:0|0:0,0:0:0:0:
389,347,72917,2,0,P|335:336|291:303,1,110.000003356934,0|8,0:0|0:0,0:0:0:0:
281,105,73260,1,2,0:0:0:0:
512,166,73431,2,0,L|402:157,1,110.000003356934
173,138,73774,1,8,0:0:0:0:
152,140,74117,6,0,B|159:197|159:197|142:245,1,110.000003356934,2|0,0:0|0:0,0:0:0:0:
259,119,74460,2,0,B|251:61|251:61|268:13,1,110.000003356934,8|2,0:0|0:0,0:0:0:0:
422,175,74802,2,0,P|351:251|255:213,1,220.000006713867,0|8,0:0|0:0,0:0:0:0:
338,50,75317,2,0,L|331:159,2,110.000003356934,0|2|0,0:0|0:0|0:0,0:0:0:0:
174,50,75831,2,0,L|180:159,2,110.000003356934,8|2|0,0:0|0:0|0:0,0:0:0:0:
256,334,76345,2,0,L|256:224,1,110.000003356934,0|8,0:0|0:0,0:0:0:0:
256,192,76860,6,0,B|212:201|212:201|164:188|164:188|120:198,1,139.999995727539,6|8,0:0|0:0,0:0:0:0:
164,290,77374,1,2,0:0:0:0:
211,100,77545,6,0,L|181:95,1,17.4999994659424
216,83,77631,2,0,L|186:75,1,20
225,68,77717,2,0,L|190:56,1,22.4999993133545
236,55,77802,2,0,L|199:40,1,25
250,44,77888,6,0,B|282:86|336:86|379:53|379:53|336:86|337:140,1,220.000006713867,8|2,0:0|0:0,0:0:0:0:
415,359,78402,2,0,L|428:250,1,110.000003356934,0|8,0:0|0:0,0:0:0:0:
441,131,78745,1,2,0:0:0:0:
222,24,78917,2,0,P|199:77|226:148,1,110.000003356934
326,232,79260,1,8,0:0:0:0:
346,238,79602,6,0,P|293:215|222:242,1,110.000003356934,2|0,0:0|0:0,0:0:0:0:
83,307,79945,2,0,P|132:330|186:320,1,110.000003356934,8|2,0:0|0:0,0:0:0:0:
176,20,80288,2,0,L|189:129,1,110.000003356934
292,314,80631,2,0,B|450:351|450:351|381:280,1,220.000006713867,8|2,0:0|0:0,0:0:0:0:
258,159,81145,2,0,P|292:201|344:220,1,110.000003356934,0|8,0:0|0:0,0:0:0:0:
453,207,81488,1,2,0:0:0:0:
353,110,81660,2,0,L|331:354,1,220.000006713867,0|8,0:0|0:0,0:0:0:0:
332,343,82345,6,0,B|276:363|227:331|227:331|177:300|122:320,1,220.000006713867,6|8,0:0|0:0,0:0:0:0:
18,363,82860,1,2,0:0:0:0:
135,211,83031,2,0,B|148:157|148:157|138:103,1,110.000003356934
254,183,83374,2,0,B|241:237|241:237|251:291,2,110.000003356934,8|0|2,0:0|0:0|0:0,0:0:0:0:
456,233,83888,2,0,L|347:237,1,110.000003356934,0|8,0:0|0:0,0:0:0:0:
144,244,84231,1,2,0:0:0:0:
255,76,84402,2,0,P|265:130|254:184,1,110.000003356934
157,354,84745,1,8,0:0:0:0:
157,354,85088,6,0,L|144:234,1,110.000003356934,2|0,0:0|0:0,0:0:0:0:
252,269,85431,2,0,L|239:149,1,110.000003356934,8|2,0:0|0:0,0:0:0:0:
146,61,85774,2,0,P|197:143|334:139,1,220.000006713867,0|8,0:0|0:0,0:0:0:0:
370,32,86288,2,0,L|261:46,2,110.000003356934,0|2|0,0:0|0:0|0:0,0:0:0:0:
141,158,86802,2,0,L|250:171,2,110.000003356934,8|2|0,0:0|0:0|0:0,0:0:0:0:
370,283,87317,2,0,L|260:296,1,110.000003356934,0|8,0:0|0:0,0:0:0:0:
232,299,87574,1,8,0:2:0:0:
205,302,87660,1,8,0:3:0:0:
324,116,87831,6,0,B|359:148|343:189|343:189|360:206|360:206|347:224|347:224|361:235|361:235|355:249|355:249|363:256|363:256|360:264,1,179.999994506836,2|0,0:0|0:0,0:0:0:0:
369,294,88517,6,0,L|294:290,1,69.9999978637696,0|0,0:0|3:0,0:0:0:0:
189,284,88860,6,0,P|201:211|181:149,1,110.000003356934,12|0,0:0|0:0,0:0:0:0:
132,85,89202,2,0,L|274:82,1,110.000003356934,2|0,0:0|0:0,0:0:0:0:
351,80,89545,1,8,0:0:0:0:
193,176,89717,1,2,0:0:0:0:
274,15,89888,2,0,P|256:85|280:147,1,110.000003356934
365,286,90231,2,0,L|358:177,1,110.000003356934,8|0,0:0|0:0,0:0:0:0:
349,34,90574,6,0,B|279:45|279:45|215:90|215:90|145:101,1,220.000006713867,2|8,0:0|0:0,0:0:0:0:
43,59,91088,1,2,0:0:0:0:
193,199,91259,2,0,P|209:252|196:305,1,110.000003356934
97,147,91602,2,0,P|188:88|282:132,1,220.000006713867,8|2,0:0|0:0,0:0:0:0:
321,7,92117,1,0,0:0:0:0:
193,199,92288,1,8,0:0:0:0:
361,323,92460,2,0,P|365:269|347:218,1,110.000003356934,2|0,0:0|0:0,0:0:0:0:
281,130,92802,1,0,0:0:0:0:
474,226,92974,1,8,0:0:0:0:
474,226,93317,6,0,B|417:208|369:242|369:242|321:276|265:259,1,220.000006713867,2|8,0:0|0:0,0:0:0:0:
193,174,93831,1,2,0:0:0:0:
294,44,94002,2,0,L|301:154,1,110.000003356934
218,359,94345,2,0,P|156:273|193:174,1,220.000006713867,8|2,0:0|0:0,0:0:0:0:
408,133,94860,1,0,0:0:0:0:
265,258,95031,1,8,0:0:0:0:
109,104,95202,1,2,0:0:0:0:
233,46,95374,2,0,P|241:100|221:151,1,110.000003356934
113,311,95717,2,0,P|105:257|126:207,1,110.000003356934,8|0,0:0|0:0,0:0:0:0:
322,175,96060,6,0,L|457:170,1,110.000003356934,2|0,0:0|0:0,0:0:0:0:
223,315,96402,1,8,0:0:0:0:
73,186,96574,1,2,0:0:0:0:
243,108,96745,2,0,P|225:160|232:214,1,110.000003356934
385,273,97088,1,8,0:0:0:0:
352,115,97260,2,0,L|243:108,2,110.000003356934,0|2|0,0:0|0:0|0:0,0:0:0:0:
473,219,97774,1,8,0:0:0:0:
289,234,97945,2,0,L|180:241,1,110.000003356934,2|0,0:0|0:0,0:0:0:0:
298,346,98288,1,0,0:0:0:0:
352,115,98460,1,8,0:0:0:0:
352,115,98802,6,0,L|236:109,1,100,6|0,0:0|0:0,0:0:0:0:
52,98,99145,1,8,0:0:0:0:
197,192,99317,2,0,P|248:211|301:197,1,100,2|0,0:0|0:0,0:0:0:0:
415,38,99660,1,0,0:0:0:0:
394,205,99831,2,0,L|381:323,1,100,8|0,0:0|0:0,0:0:0:0:
252,109,100174,6,0,P|176:93|99:176,1,200,2|8,0:0|0:0,0:0:0:0:
203,292,100688,2,0,L|197:192,1,100,2|0,0:0|0:0,0:0:0:0:
190,92,101031,1,0,0:0:0:0:
286,236,101202,2,0,P|303:291|286:350,1,100,8|0,0:0|0:0,0:0:0:0:
108,237,101545,6,0,L|114:137,1,100,2|0,0:0|0:0,0:0:0:0:
120,37,101888,1,8,0:0:0:0:
286,147,102060,2,0,P|251:182|193:192,1,100,2|0,0:0|0:0,0:0:0:0:
30,81,102402,1,0,0:0:0:0:
203,92,102574,2,0,L|209:191,1,100,8|0,0:0|0:0,0:0:0:0:
222,325,102917,6,0,B|272:343|317:314|317:314|362:286|412:304,1,200,2|8,0:0|0:0,0:0:0:0:
255,230,103431,2,0,P|218:180|214:131,1,100,2|0,0:0|0:0,0:0:0:0:
265,7,103774,1,0,0:0:0:0:
412,151,103945,2,0,L|313:148,1,100,8|0,0:0|0:0,0:0:0:0:
113,141,104288,6,0,P|103:205|125:257,1,100,2|0,0:0|0:0,0:0:0:0:
175,316,104631,1,8,0:0:0:0:
300,185,104802,2,0,L|201:190,1,100,2|0,0:0|0:0,0:0:0:0:
1,198,105145,1,0,0:0:0:0:
113,44,105317,2,0,P|124:92|113:141,1,100,8|0,0:0|0:0,0:0:0:0:
24,295,105660,6,0,L|233:306,1,200,2|8,0:0|0:0,0:0:0:0:
132,131,106174,2,0,P|144:180|178:216,1,100,2|0,0:0|0:0,0:0:0:0:
322,310,106517,1,0,0:0:0:0:
331,126,106688,2,0,L|226:131,1,100,8|0,0:0|0:0,0:0:0:0:
32,136,107031,1,0,0:0:0:0:
63,230,107374,5,0,0:0:0:0:
113,233,107888,1,0,0:0:0:0:
162,236,108402,1,0,0:0:0:0:
212,239,108917,1,0,0:0:0:0:
262,242,109431,1,0,0:0:0:0:
267,209,109516,1,8,0:2:0:0:
273,176,109602,1,8,0:3:0:0:
127,49,109774,6,0,L|136:172,1,110.000003356934,6|0,0:0|0:0,0:0:0:0:
143,267,110117,1,8,0:0:0:0:
226,96,110288,1,2,0:0:0:0:
36,110,110460,2,0,P|25:167|43:222,1,110.000003356934
247,318,110802,1,8,0:0:0:0:
335,87,110974,1,0,0:0:0:0:
406,246,111145,5,2,0:0:0:0:
332,77,111316,1,0,0:0:0:0:
238,322,111488,1,8,0:0:0:0:
415,248,111660,1,2,0:0:0:0:
265,145,111831,2,0,L|140:138,1,110.000003356934
45,131,112174,1,8,0:0:0:0:
215,46,112345,1,0,0:0:0:0:
315,244,112517,6,0,P|390:259|432:242,1,110.000003356934,2|0,0:0|0:0,0:0:0:0:
433,56,112860,1,8,0:0:0:0:
265,145,113031,1,2,0:0:0:0:
479,153,113202,2,0,L|361:119,1,110.000003356934
195,67,113545,1,8,0:0:0:0:
218,299,113717,1,0,0:0:0:0:
194,57,113888,5,2,0:0:0:0:
107,257,114060,1,0,0:0:0:0:
265,145,114231,2,0,P|295:97|294:34,1,110.000003356934,8|2,0:0|0:0,0:0:0:0:
93,44,114574,2,0,P|95:99|125:145,1,110.000003356934
335,223,114917,1,8,0:0:0:0:
134,154,115088,1,0,0:0:0:0:
413,153,115260,6,0,P|437:202|433:260,1,110.000003356934,2|0,0:0|0:0,0:0:0:0:
250,286,115602,1,8,0:0:0:0:
454,372,115773,1,2,0:0:0:0:
335,223,115945,2,0,P|311:174|315:116,1,110.000003356934
415,0,116288,1,8,0:0:0:0:
413,153,116460,1,0,0:0:0:0:
231,54,116631,5,2,0:0:0:0:
488,77,116802,1,0,0:0:0:0:
220,158,116974,2,0,P|166:137|132:89,1,110.000003356934,8|2,0:0|0:0,0:0:0:0:
324,15,117317,2,0,P|378:36|412:84,1,110.000003356934
411,288,117660,1,8,0:0:0:0:
313,119,117831,1,0,0:0:0:0:
215,288,118002,6,0,P|255:325|309:339,1,110.000003356934,2|0,0:0|0:0,0:0:0:0:
512,237,118345,1,8,0:0:0:0:
308,229,118517,1,2,0:0:0:0:
489,354,118688,2,0,L|497:231,1,110.000003356934
464,37,119031,1,8,0:0:0:0:
490,226,119202,1,0,0:0:0:0:
326,26,119374,5,2,0:0:0:0:
316,135,119545,1,0,0:0:0:0:
306,244,119717,1,8,0:0:0:0:
416,90,119888,1,2,0:0:0:0:
217,181,120060,2,0,L|87:239,1,110.000003356934
227,72,120402,1,8,0:0:0:0:
406,199,120574,1,0,0:0:0:0:
207,290,120745,6,0,P|188:227|204:166,1,110.000003356934,6|0,0:0|0:0,0:0:0:0:
330,37,121088,1,8,0:0:0:0:
297,227,121260,1,2,0:0:0:0:
227,72,121431,2,0,P|164:53|103:69,1,110.000003356934
21,273,121774,1,8,0:0:0:0:
164,162,121945,1,0,0:0:0:0:
30,41,122117,5,2,0:0:0:0:
172,162,122288,1,0,0:0:0:0:
10,273,122460,1,8,0:0:0:0:
20,41,122631,1,2,0:0:0:0:
180,162,122802,2,0,P|235:181|299:168,1,110.000003356934
465,102,123145,1,8,0:0:0:0:
245,70,123317,1,0,0:0:0:0:
340,361,123488,6,0,P|333:306|352:255,1,110.000003356934,2|0,0:0|0:0,0:0:0:0:
470,97,123831,1,8,0:0:0:0:
437,317,124002,1,2,0:0:0:0:
363,150,124174,2,0,L|313:40,1,110.000003356934
256,203,124517,1,8,0:0:0:0:
470,97,124688,1,0,0:0:0:0:
203,96,124860,5,2,0:0:0:0:
463,216,125031,1,0,0:0:0:0:
310,42,125202,2,0,P|339:101|327:167,1,110.000003356934,8|2,0:0|0:0,0:0:0:0:
73,258,125545,2,0,P|109:203|172:180,1,110.000003356934
353,253,125888,1,8,0:0:0:0:
232,115,126060,1,0,0:0:0:0:
171,276,126231,6,0,L|134:384,1,110.000003356934,2|0,0:0|0:0,0:0:0:0:
62,116,126574,1,8,0:0:0:0:
258,212,126745,1,2,0:0:0:0:
34,241,126917,2,0,P|29:186|49:135,1,110.000003356934
219,23,127260,1,8,0:0:0:0:
138,200,127431,1,0,0:0:0:0:
112,12,127602,5,2,0:0:0:0:
245,211,127774,1,0,0:0:0:0:
433,45,127945,2,0,L|287:30,1,110.000003356934,8|2,0:0|0:0,0:0:0:0:
354,221,128288,2,0,L|463:231,1,110.000003356934
323,34,128631,1,8,0:0:0:0:
138,200,128802,1,0,0:0:0:0:
354,221,128974,6,0,P|367:162|349:105,1,110.000003356934,2|0,0:0|0:0,0:0:0:0:
164,20,129317,1,8,0:0:0:0:
433,45,129488,1,2,0:0:0:0:
146,122,129660,2,0,L|23:154,1,110.000003356934
266,163,130002,1,8,0:0:0:0:
66,57,130174,1,0,0:0:0:0:
284,57,130345,5,2,0:0:0:0:
124,176,130517,1,0,0:0:0:0:
246,52,130688,5,8,0:0:0:0:
206,248,130860,1,2,0:0:0:0:
208,47,131031,5,0,0:0:0:0:
313,269,131202,1,0,0:0:0:0:
170,42,131374,5,8,0:0:0:0:
416,233,131545,1,0,0:0:0:0:
102,283,131717,5,6,0:0:0:0:
161,340,132060,1,2,0:0:0:0:
102,283,132574,5,2,0:0:0:0:
395,340,132745,1,8,0:0:0:0:
241,351,132917,1,0,0:0:0:0:
268,147,133088,6,0,P|289:97|338:62,1,110.000003356934,6|0,0:0|0:0,0:0:0:0:
488,32,133431,1,8,0:0:0:0:
387,270,133602,2,0,L|372:162,1,110.000003356934,2|0,0:0|0:0,0:0:0:0:
356,53,133945,1,0,0:0:0:0:
285,229,134117,2,0,P|224:247|155:226,1,110.000003356934,8|0,0:0|0:0,0:0:0:0:
238,37,134460,6,0,P|245:90|228:142,1,110.000003356934,2|0,0:0|0:0,0:0:0:0:
62,257,134802,1,8,0:0:0:0:
228,335,134974,2,0,L|347:343,1,110.000003356934,2|0,0:0|0:0,0:0:0:0:
446,349,135317,1,0,0:0:0:0:
277,139,135488,2,0,P|268:192|289:243,1,110.000003356934,8|0,0:0|0:0,0:0:0:0:
339,56,135831,6,0,P|288:35|235:44,1,110.000003356934,2|0,0:0|0:0,0:0:0:0:
74,137,136174,1,8,0:0:0:0:
272,248,136345,2,0,L|277:139,1,110.000003356934,2|0,0:0|0:0,0:0:0:0:
281,29,136688,1,0,0:0:0:0:
174,80,136860,2,0,L|178:189,1,110.000003356934,8|0,0:0|0:0,0:0:0:0:
367,308,137202,6,0,P|397:258|390:189,1,110.000003356934,2|0,0:0|0:0,0:0:0:0:
275,44,137545,2,0,P|276:98|305:145,1,110.000003356934,8|2,0:0|0:0,0:0:0:0:
485,151,137888,1,0,0:0:0:0:
369,69,138060,1,0,0:0:0:0:
188,243,138231,2,0,L|298:234,1,110.000003356934,8|0,0:0|0:0,0:0:0:0:
157,41,138574,6,0,P|133:101|143:155,1,110.000003356934,2|0,0:0|0:0,0:0:0:0:
237,341,138917,1,8,0:0:0:0:
287,171,139088,2,0,L|318:65,1,110.000003356934,2|0,0:0|0:0,0:0:0:0:
361,249,139431,1,0,0:0:0:0:
180,197,139602,2,0,P|182:140|209:93,1,110.000003356934,8|0,0:0|0:0,0:0:0:0:
501,118,139945,6,0,L|393:144,1,110.000003356934,2|0,0:0|0:0,0:0:0:0:
180,197,140288,2,0,P|192:130|163:68,1,110.000003356934,8|2,0:0|0:0,0:0:0:0:
41,14,140631,1,0,0:0:0:0:
70,188,140802,1,0,0:0:0:0:
275,39,140974,2,0,P|342:27|404:56,1,110.000003356934,8|0,0:0|0:0,0:0:0:0:
357,343,141317,6,0,L|326:125,1,220.000006713867,2|8,0:0|0:0,0:0:0:0:
255,301,141831,1,2,0:0:0:0:
428,166,142002,2,0,P|434:108|407:49,1,110.000003356934
155,36,142345,1,8,0:0:0:0:
326,125,142517,1,0,0:0:0:0:
113,141,142688,6,0,L|-27:151,1,110.000003356934,6|0,0:0|0:0,0:0:0:0:
331,230,143031,2,0,P|342:176|326:125,1,110.000003356934,8|2,0:0|0:0,0:0:0:0:
155,36,143374,1,0,0:0:0:0:
337,15,143545,1,0,0:0:0:0:
113,141,143717,2,0,P|102:208|127:256,1,110.000003356934,8|0,0:0|0:0,0:0:0:0:
317,187,144060,6,0,L|208:181,1,110.000003356934,2|0,0:0|0:0,0:0:0:0:
2,163,144402,1,8,0:0:0:0:
193,76,144574,2,0,P|215:126|208:180,1,110.000003356934,2|0,0:0|0:0,0:0:0:0:
46,315,144917,1,0,0:0:0:0:
113,141,145088,2,0,L|241:133,1,110.000003356934,8|0,0:0|0:0,0:0:0:0:
367,261,145431,6,0,P|336:216|329:163,1,110.000003356934,2|0,0:0|0:0,0:0:0:0:
476,5,145774,2,0,P|453:54|410:88,1,110.000003356934,8|2,0:0|0:0,0:0:0:0:
135,133,146117,1,0,0:0:0:0:
304,54,146288,1,0,0:0:0:0:
203,207,146460,2,0,L|141:300,1,110.000003356934,8|0,0:0|0:0,0:0:0:0:
135,133,146802,6,0,P|191:104|257:117,1,110.000003356934,2|0,0:0|0:0,0:0:0:0:
398,174,147145,1,8,0:0:0:0:
203,207,147317,2,0,L|194:84,2,110.000003356934,2|0|0,0:0|0:0|0:0,0:0:0:0:
372,275,147831,2,0,P|401:219|388:153,1,110.000003356934,8|0,0:0|0:0,0:0:0:0:
327,14,148174,5,6,0:0:0:0:
202,206,148345,2,0,L|312:203,1,110.000003356934,0|8,0:0|0:0,0:0:0:0:
492,196,148688,1,2,0:0:0:0:
226,7,148860,2,0,P|235:61|269:103,1,110.000003356934
500,200,149202,1,8,0:0:0:0:
328,24,149374,1,0,0:0:0:0:
256,243,149545,5,2,0:0:0:0:
449,71,149717,1,0,0:0:0:0:
260,125,149888,1,8,0:0:0:0:
402,262,150060,1,2,0:0:0:0:
342,60,150231,2,0,P|287:22|221:26,1,110.000003356934
61,109,150574,1,8,0:0:0:0:
267,126,150745,1,0,0:0:0:0:
66,328,150917,6,0,L|63:218,1,110.000003356934,6|0,0:0|0:0,0:0:0:0:
187,52,151260,2,0,P|155:95|150:149,1,110.000003356934,8|2,0:0|0:0,0:0:0:0:
261,310,151602,1,0,0:0:0:0:
365,139,151774,2,0,L|256:133,1,110.000003356934,0|8,0:0|0:0,0:0:0:0:
43,122,152117,1,0,0:0:0:0:
170,321,152288,6,0,P|209:261|212:201,1,110.000003356934,2|0,0:0|0:0,0:0:0:0:
174,21,152631,1,8,0:0:0:0:
102,232,152802,1,2,0:0:0:0:
324,222,152974,1,0,0:0:0:0:
75,105,153145,1,0,0:0:0:0:
223,292,153317,2,0,L|291:378,1,110.000003356934,8|0,0:0|0:0,0:0:0:0:
251,121,153660,6,0,B|192:103|142:122|142:122|100:137|45:135|2:95|2:95|11:136|25:191|88:220|138:198|138:198|191:173|241:196|241:196|308:201|342:147|338:82|286:54|286:54|180:22|98:61|98:61|142:98|157:173|149:232|115:284|115:284|146:260|176:258|200:258|200:258|269:289|353:257|409:192|398:100,1,1600,4|4,2:3|2:0,2:0:0:0:
494,121,165145,2,0,P|460:104|396:97,1,100,4|0,0:0|0:0,0:0:0:0:
256,192,170117,12,0,175517,0:0:0:0:
100,84,175602,6,0,B|175:211|113:345|113:345|95:285|38:245|38:245|189:306|271:247|271:247|245:314,1,700,4|0,0:3|0:0,0:0:0:0:
467,254,180060,6,0,B|451:367,2,100,2|2|2,0:3|2:0|2:0,2:0:0:0:
415,192,180917,1,2,0:0:0:0:
415,192,181260,2,0,B|367:224|319:192|319:192|271:160|223:192,1,200,2|2,0:0|0:0,0:0:0:0:
183,61,182802,6,0,B|282:47,2,100,2|2|2,0:3|2:0|2:0,2:0:0:0:
104,50,183660,1,2,0:0:0:0:
104,50,184002,2,0,B|93:114|93:114|51:171|51:171|41:236,1,200,2|2,2:0|2:0,2:0:0:0:
256,192,185031,12,0,186402,2:0:0:0:
185,159,186574,6,0,B|129:152|96:195|96:195|138:241|185:228|185:228|163:268|194:326|194:326|241:312|266:267|266:267|292:300|292:300|348:247|305:193|305:193|321:173|321:173|283:145|301:81|379:81|384:142,1,750,4|0,2:0|2:0,2:0:0:0:
112,141,191031,6,0,L|218:150,2,100,2|0|0,2:0|2:0|2:0,2:0:0:0:
33,171,191888,1,0,2:0:0:0:
33,171,192231,2,0,B|15:239|97:258|51:337|51:337|126:306|111:355|194:336,1,300,2|0,2:0|2:0,2:0:0:0:
158,257,193774,6,0,L|178:152,2,100,2|0|0,2:0|2:0|2:0,2:0:0:0:
184,337,194631,1,2,2:0:0:0:
184,337,194974,2,0,B|220:321|256:326|256:326|261:289|255:265|255:265|305:273|348:262,1,225,0|0,2:0|2:0,2:0:0:0:
356,264,195831,1,0,2:0:0:0:
193,91,196174,5,0,2:0:0:0:
144,86,196517,1,0,2:0:0:0:
95,82,196859,1,0,2:0:0:0:
46,78,197202,1,0,2:0:0:0:
67,209,197374,1,2,2:0:0:0:
87,340,197545,5,4,2:0:0:0:
319,91,207145,5,2,2:0:0:0:
368,86,207488,1,2,2:0:0:0:
417,82,207830,1,2,2:0:0:0:
466,78,208173,1,2,2:0:0:0:
445,209,208345,1,2,2:0:0:0:
425,340,208516,5,4,2:0:0:0:
196,121,217431,5,8,0:0:0:0:
81,327,217602,1,0,0:0:0:0:
77,145,217774,1,8,0:0:0:0:
197,307,217945,1,0,0:0:0:0:
248,57,218117,6,0,B|290:67|290:67|310:53|354:59|354:59|335:77|332:102,2,139.999995727539
122,341,219488,6,0,L|189:355,1,59.9999981689454,4|0,0:0|0:0,0:0:0:0:
255,322,220174,1,4,0:0:0:0:
329,290,220517,6,0,B|325:258|325:258|332:241|332:241|322:226|322:226|319:194,1,100,2|0,0:0|0:0,0:0:0:0:
257,65,221031,6,0,B|253:103|253:103|260:123|260:123|249:141|249:141|244:179,1,119.999996337891,2|0,0:0|0:0,0:0:0:0:
185,290,221545,6,0,B|180:246|180:246|189:223|189:223|176:203|176:203|171:160,1,134.999995880127,2|0,0:0|0:0,0:0:0:0:
116,90,221888,6,0,B|82:77|82:77|79:129|79:129|83:153|83:153|81:196,1,150.000005722046,0|0,3:2|0:0,0:0:0:0:
115,240,241431,6,0,B|162:225|177:150|177:150|187:225|234:237,1,225.000008583069,2|0,0:0|0:0,0:0:0:0:
238,241,242031,2,0,L|228:272,6,25,0|0|0|0|0|0|0,1:0|0:0|0:0|0:0|0:0|0:0|3:0,0:0:0:0:
179,68,285317,5,0,0:0:0:0:
202,338,285660,1,2,0:0:0:0:
249,129,286174,5,2,0:0:0:0:
270,285,286345,1,8,0:0:0:0:
273,250,286431,1,0,0:0:0:0:
276,215,286517,1,0,0:0:0:0:
72,238,316860,6,0,L|106:241,1,34.9999989318848
154,293,317202,2,0,L|188:290,1,34.9999989318848
231,231,317545,1,0,0:0:0:0:
236,238,317717,2,0,L|270:241,1,34.9999989318848
324,288,318060,1,0,0:0:0:0:
318,293,318231,2,0,L|320:327,1,34.9999989318848
427,285,318574,6,0,B|445:295|431:312|416:320|400:309|391:280|397:269|402:261|413:236|400:193,1,150
451,133,319260,2,0,B|366:111|299:142|299:142|234:106|153:131,1,300
96,79,320460,2,0,L|101:38,2,34.9999989318848
30,192,320974,6,0,B|58:182|73:162|73:162|58:232|94:272|94:272|68:286|57:318|67:355|120:379|150:334|150:334|193:287|264:297|294:325|294:325|280:353|251:349|251:349|204:269|243:198|243:198|271:217|315:215,1,775
328,217,323717,6,0,B|329:192|345:172|345:172|322:162|299:144|299:144|322:124|334:93|334:93|346:58|393:44|429:69|423:108|396:128|368:122|363:113|347:103|347:103|257:50|249:108|222:145|165:123|165:123|185:105|198:74|198:74|237:175|187:223|187:223|153:194,1,800
48,105,326631,2,0,B|26:97|3:84|6:43|11:16|55:6|106:7|127:61|127:61|82:104|59:177|62:252|62:252|115:254|147:280|147:280|107:288,1,550
305,298,328745,6,0,L|297:262,4,26.6666666666667
234,313,329031,6,0,L|226:277,2,36.6666677856446
239,327,329202,5,0,0:0:0:0:
