osu file format v14

[General]
AudioFilename: audio.mp3
AudioLeadIn: 1000
PreviewTime: 269365
Countdown: 1
SampleSet: Normal
StackLeniency: 0.7
Mode: 0
LetterboxInBreaks: 0
EpilepsyWarning: 1
WidescreenStoryboard: 1

[Editor]
Bookmarks: 38988,44473,44645,45845,46016,50473,56473,66416,71880,88165,91422,93822,96908,108737,114222,118508,137708,148680,149708,151422,154165,178851,181594,182965,185537,185622,185708,191022,191108,191194,196508,196594,196680,199251,199422,199765,200451,200794,201137,201308,201394,201480,201822,203537,204737,204822,204908,204994,205080,214508,226873,239537,247422,258394,261137,263880,299022,335194,340508,344816,350302,351673,355765,355788,366759,379080
DistanceSpacing: 0.9
BeatDivisor: 4
GridSize: 4
TimelineZoom: 1.7

[Metadata]
Title:Timberwolf
TitleUnicode:Timberwolf
Artist:Muzzy
ArtistUnicode:Muzzy
Creator:Secretpipe
Version:Wilderness
Source:
Tags:drum and bass dnb neurofunk endgame 2 nrg nerova riuz rx liiraye
BeatmapID:907388
BeatmapSetID:419291

[Difficulty]
HPDrainRate:7
CircleSize:4
OverallDifficulty:8
ApproachRate:9
SliderMultiplier:1.5
SliderTickRate:1

[Events]
//Background and Video events
0,0,"XpxSG21.jpg",0,0
//Break Periods
2,17588,20902
2,66616,71280
2,154194,157680
//Storyboard Layer 0 (Background)
//Storyboard Layer 1 (Fail)
//Storyboard Layer 2 (Pass)
//Storyboard Layer 3 (Foreground)
//Storyboard Sound Samples

[TimingPoints]
588,342.857142857143,4,2,11,70,1,0
930,-100,4,2,1,5,0,0
1102,-100,4,2,12,70,0,0
1445,-100,4,2,1,5,0,0
1616,-200,4,2,14,70,0,0
1702,-200,4,2,1,5,0,0
6073,-200,4,1,31,50,0,0
6159,-200,4,2,1,5,0,0
10873,-200,4,2,1,70,0,0
10959,-200,4,2,1,5,0,0
13788,-200,4,2,1,70,0,0
14130,-200,4,1,31,50,0,0
17388,-200,4,2,1,5,0,0
22359,-200,4,2,1,70,0,0
22530,-133.333333333333,4,1,31,70,0,0
22616,-133.333333333333,4,2,1,70,0,0
33502,-133.333333333333,4,1,31,70,0,0
33588,-133.333333333333,4,2,1,70,0,0
38988,-133.333333333333,4,2,1,70,0,0
44473,-100,4,1,31,50,0,1
44645,-100,4,2,1,70,0,0
45845,-100,4,1,31,50,0,1
46016,-100,4,2,1,70,0,0
49959,-100,4,1,31,50,0,0
50045,-100,4,2,1,70,0,0
55445,-100,4,1,31,50,0,0
55530,-100,4,2,1,70,0,0
60930,-100,4,1,31,50,0,0
61016,-100,4,2,1,70,0,0
66416,-100,4,2,1,70,0,0
71880,342.857142857143,4,2,1,70,1,0
71880,-83.3333333333333,4,2,1,70,0,0
88165,-200,4,1,31,70,0,0
88251,-200,4,2,1,5,0,0
91422,-200,4,2,1,70,0,0
91508,-200,4,2,1,5,0,0
93822,-83.3333333333333,4,1,1,70,0,0
97422,-83.3333333333333,4,1,22,70,0,0
97594,-83.3333333333333,4,1,1,70,0,0
108394,-83.3333333333333,4,1,22,70,0,0
108565,-83.3333333333333,4,1,1,70,0,0
110280,-76.9230769230769,4,1,1,80,0,0
115765,-71.4285714285714,4,1,2,90,0,0
119708,-71.4285714285714,4,1,1,90,0,0
120222,-71.4285714285714,4,1,2,90,0,0
125194,-71.4285714285714,4,1,1,90,0,0
125708,-71.4285714285714,4,1,2,90,0,0
130680,-71.4285714285714,4,1,1,90,0,0
131194,-71.4285714285714,4,1,2,90,0,0
133594,-71.4285714285714,4,1,2,70,0,0
136337,-71.4285714285714,4,1,2,50,0,0
137708,-166.666666666667,4,2,11,90,0,0
137794,-166.666666666667,4,1,1,5,0,0
138222,-166.666666666667,4,2,12,90,0,0
138308,-166.666666666667,4,1,1,5,0,0
138737,-166.666666666667,4,2,13,90,0,0
138908,-166.666666666667,4,1,1,50,0,0
139080,-166.666666666667,4,1,1,45,0,0
140451,-166.666666666667,4,1,1,40,0,0
141822,-166.666666666667,4,1,1,35,0,0
143194,-166.666666666667,4,1,1,30,0,0
144565,-166.666666666667,4,1,1,25,0,0
145937,-166.666666666667,4,1,1,20,0,0
146622,-166.666666666667,4,1,1,15,0,0
147308,-166.666666666667,4,1,1,10,0,0
147994,-166.666666666667,4,1,1,5,0,0
148680,-166.666666666667,4,1,11,90,0,0
149194,-166.666666666667,4,1,12,90,0,0
149708,-166.666666666667,4,1,13,90,0,0
149880,-166.666666666667,4,2,6,50,0,0
150051,-166.666666666667,4,2,6,45,0,0
150394,-166.666666666667,4,2,6,40,0,0
150737,-166.666666666667,4,2,6,35,0,0
151080,-166.666666666667,4,2,6,30,0,0
151422,-166.666666666667,4,2,6,35,0,0
151765,-166.666666666667,4,2,6,30,0,0
152108,-166.666666666667,4,2,6,25,0,0
152451,-166.666666666667,4,2,6,20,0,0
153137,-166.666666666667,4,2,6,15,0,0
153480,-166.666666666667,4,2,6,10,0,0
153822,-166.666666666667,4,2,6,5,0,0
158280,-166.666666666667,4,2,1,50,0,0
159480,-166.666666666667,4,2,1,5,0,0
159651,-76.9230769230769,4,2,11,90,0,0
159822,-76.9230769230769,4,1,1,70,0,0
160165,-76.9230769230769,4,2,12,90,0,0
160337,-76.9230769230769,4,1,1,70,0,0
160680,-76.9230769230769,4,2,13,90,0,0
160851,-76.9230769230769,4,1,1,70,0,0
170622,-76.9230769230769,4,2,11,90,0,0
170794,-76.9230769230769,4,1,1,70,0,0
171137,-76.9230769230769,4,2,12,90,0,0
171308,-76.9230769230769,4,1,1,70,0,0
171651,-76.9230769230769,4,2,13,90,0,0
171822,-76.9230769230769,4,1,1,70,0,0
181251,-76.9230769230769,4,1,1,5,0,0
181594,-76.9230769230769,4,2,11,90,0,0
181765,-76.9230769230769,4,1,1,70,0,0
182108,-76.9230769230769,4,2,12,90,0,0
182280,-76.9230769230769,4,1,1,70,0,0
182622,-76.9230769230769,4,2,13,90,0,0
182794,-76.9230769230769,4,1,1,70,0,0
182965,-76.9230769230769,4,2,11,90,0,0
183137,-76.9230769230769,4,1,1,70,0,0
183480,-76.9230769230769,4,2,12,90,0,0
183651,-76.9230769230769,4,1,1,70,0,0
192565,-76.9230769230769,4,2,11,90,0,0
192737,-76.9230769230769,4,1,1,70,0,0
193080,-76.9230769230769,4,2,12,90,0,0
193251,-76.9230769230769,4,1,1,70,0,0
193594,-76.9230769230769,4,2,13,90,0,0
193765,-76.9230769230769,4,1,1,70,0,0
193937,-76.9230769230769,4,2,11,90,0,0
194108,-76.9230769230769,4,1,1,70,0,0
194451,-76.9230769230769,4,2,12,90,0,0
194622,-76.9230769230769,4,1,1,70,0,0
202680,-133.333333333333,4,1,33,70,0,0
203365,-133.333333333333,4,1,1,5,0,0
203537,-66.6666666666667,4,1,32,90,0,1
203622,-66.6666666666667,4,1,3,90,0,1
224108,-66.6666666666667,4,1,3,70,0,1
225480,-66.6666666666667,4,1,11,90,0,0
225565,-66.6666666666667,4,1,1,90,0,0
225994,-66.6666666666667,4,1,12,90,0,0
226080,-66.6666666666667,4,1,1,90,0,0
226508,-66.6666666666667,4,1,13,90,0,0
226594,-66.6666666666667,4,1,1,90,0,0
228394,-66.6666666666667,4,1,3,90,0,0
228480,-66.6666666666667,4,1,1,90,0,0
229080,-66.6666666666667,4,1,3,90,0,0
229165,-66.6666666666667,4,1,1,90,0,0
229765,-66.6666666666667,4,1,3,90,0,0
229851,-66.6666666666667,4,1,1,90,0,0
236451,-66.6666666666667,4,1,11,90,0,0
236537,-66.6666666666667,4,1,1,90,0,0
236965,-66.6666666666667,4,1,12,90,0,0
237051,-66.6666666666667,4,1,1,90,0,0
237480,-66.6666666666667,4,1,13,90,0,0
237565,-66.6666666666667,4,1,1,90,0,0
239365,-66.6666666666667,4,1,3,90,0,0
239451,-66.6666666666667,4,1,1,90,0,0
240051,-66.6666666666667,4,1,3,90,0,0
240137,-66.6666666666667,4,1,1,90,0,0
240737,-66.6666666666667,4,1,3,90,0,0
240822,-66.6666666666667,4,1,1,90,0,0
247422,-200,4,1,31,90,0,0
247508,-200,4,2,1,5,0,0
248794,-200,4,2,1,70,0,0
248880,-200,4,2,1,5,0,0
250165,-200,4,2,1,70,0,0
250251,-200,4,2,1,5,0,0
251194,-142.857142857143,4,2,1,70,0,0
251280,-142.857142857143,4,2,1,5,0,0
252908,-142.857142857143,4,1,31,70,0,0
252994,-142.857142857143,4,2,1,5,0,0
254280,-142.857142857143,4,2,1,70,0,0
254365,-142.857142857143,4,2,1,5,0,0
255651,-142.857142857143,4,2,1,70,0,0
255737,-142.857142857143,4,2,1,5,0,0
256680,-142.857142857143,4,2,1,70,0,0
256765,-142.857142857143,4,2,1,5,0,0
258394,-142.857142857143,4,2,1,70,0,0
261051,-142.857142857143,4,2,1,5,0,0
261137,-142.857142857143,4,2,1,70,0,0
263194,-142.857142857143,4,2,1,5,0,0
263880,-166.666666666667,4,1,31,70,0,0
263965,-166.666666666667,4,1,1,5,0,0
265165,-166.666666666667,4,1,1,5,0,0
265251,-166.666666666667,4,2,1,70,0,0
265337,-166.666666666667,4,1,1,5,0,0
266537,-166.666666666667,4,1,1,5,0,0
266622,-166.666666666667,4,2,1,70,0,0
266708,-166.666666666667,4,1,1,5,0,0
267565,-166.666666666667,4,1,1,5,0,0
267651,-166.666666666667,4,2,1,70,0,0
269194,-166.666666666667,4,1,1,5,0,0
269365,-58.8235294117647,4,1,4,90,0,1
289251,-58.8235294117647,4,1,22,15,0,1
289422,-58.8235294117647,4,1,22,30,0,1
289508,-58.8235294117647,4,1,22,45,0,1
289594,-58.8235294117647,4,1,22,60,0,1
289680,-58.8235294117647,4,1,22,75,0,1
289765,-58.8235294117647,4,1,21,90,0,1
289851,-58.8235294117647,4,1,4,30,0,1
289937,-58.8235294117647,4,1,4,90,0,1
290108,-58.8235294117647,4,1,22,30,0,1
290194,-58.8235294117647,4,1,22,60,0,1
290280,-58.8235294117647,4,1,22,90,0,1
290451,-58.8235294117647,4,1,4,90,0,1
290794,-50,4,1,21,30,0,1
290908,-50,4,1,1,5,0,1
290965,-50,4,1,21,60,0,1
291080,-50,4,1,1,5,0,1
291137,-50,4,1,21,90,0,1
291251,-50,4,1,1,5,0,1
291308,-58.8235294117647,4,1,4,90,0,1
291394,-58.8235294117647,4,1,5,90,0,1
294051,-58.8235294117647,4,1,4,90,0,1
294137,-58.8235294117647,4,1,5,90,0,1
296794,-58.8235294117647,4,1,4,90,0,1
296880,-58.8235294117647,4,1,5,90,0,1
299537,-58.8235294117647,4,1,4,90,0,1
299622,-58.8235294117647,4,1,5,90,0,1
302280,-58.8235294117647,4,1,4,90,0,1
302365,-58.8235294117647,4,1,5,90,0,1
305022,-58.8235294117647,4,1,4,90,0,1
305108,-58.8235294117647,4,1,5,90,0,1
307765,-58.8235294117647,4,1,4,90,0,1
307851,-58.8235294117647,4,1,5,90,0,1
310508,-58.8235294117647,4,1,4,90,0,1
310594,-58.8235294117647,4,1,5,90,0,1
311880,-58.8235294117647,4,1,1,70,0,0
312051,-58.8235294117647,4,1,22,70,0,0
312137,-58.8235294117647,4,1,1,70,0,0
312565,-58.8235294117647,4,1,1,50,0,0
312737,-58.8235294117647,4,1,1,30,0,0
312908,-58.8235294117647,4,1,1,70,0,0
313080,-58.8235294117647,4,1,22,70,0,0
313165,-58.8235294117647,4,1,1,70,0,0
313251,-66.6666666666667,4,1,5,70,0,0
329537,-200,4,1,31,70,0,0
329622,-200,4,1,1,5,0,0
332794,-200,4,1,1,70,0,0
332880,-200,4,1,1,5,0,0
335194,-58.8235294117647,4,1,1,70,0,0
344794,-58.8235294117647,4,1,1,70,0,1
346165,-58.8235294117647,4,1,1,70,0,0
350280,-58.8235294117647,4,1,1,70,0,1
355765,-58.8235294117647,4,1,1,70,0,0
356280,-58.8235294117647,4,1,1,50,0,0
356365,-58.8235294117647,4,1,1,45,0,0
356451,-58.8235294117647,4,1,1,40,0,0
356537,-58.8235294117647,4,1,1,35,0,0
356622,-58.8235294117647,4,1,1,30,0,0
356708,-58.8235294117647,4,1,1,25,0,0
356794,-58.8235294117647,4,1,1,20,0,0
357137,-66.6666666666667,4,1,11,90,0,0
357222,-66.6666666666667,4,1,2,90,0,0
357651,-66.6666666666667,4,1,12,90,0,0
357737,-66.6666666666667,4,1,2,90,0,0
358165,-66.6666666666667,4,1,14,90,0,0
358251,-66.6666666666667,4,1,2,90,0,0
368108,-66.6666666666667,4,1,11,90,0,0
368194,-66.6666666666667,4,1,2,90,0,0
368622,-66.6666666666667,4,1,12,90,0,0
368708,-66.6666666666667,4,1,2,90,0,0
369137,-66.6666666666667,4,1,14,90,0,0
369222,-66.6666666666667,4,1,2,90,0,0
379594,-66.6666666666667,4,1,2,5,0,0
379765,-66.6666666666667,4,1,2,70,0,0
380108,-66.6666666666667,4,1,2,5,0,0
380280,-66.6666666666667,4,1,2,70,0,0
380794,-66.6666666666667,4,1,2,5,0,0
380965,-66.6666666666667,4,1,2,70,0,0
382565,-66.6666666666667,4,1,2,5,0,0
382622,-66.6666666666667,4,1,2,70,0,0
382680,-66.6666666666667,4,1,2,5,0,0
382737,-66.6666666666667,4,1,2,70,0,0
382794,-66.6666666666667,4,1,2,5,0,0
382851,-66.6666666666667,4,1,2,70,0,0
382908,-66.6666666666667,4,1,2,5,0,0
382965,-66.6666666666667,4,1,2,70,0,0
383022,-66.6666666666667,4,1,2,5,0,0
383080,-66.6666666666667,4,1,2,70,0,0
383137,-66.6666666666667,4,1,2,5,0,0
383194,-66.6666666666667,4,1,31,70,0,0

[Colours]
Combo1 : 124,184,228
Combo2 : 151,234,249
Combo3 : 85,95,213
Combo4 : 181,202,204

[HitObjects]
156,312,588,6,0,B|168:292|168:292|148:260|148:260|180:216|164:164,1,150
40,68,1102,2,0,P|42:139|101:201,1,150,0|0,0:0|0:0,0:0:0:0:
248,152,1616,6,0,B|276:200|276:200|332:160|332:160|340:256|424:300|504:276|504:276|476:232|440:232|440:232|492:128|412:0|288:44,1,750
299,40,6073,2,0,B|279:76|279:76|303:96|319:128|319:128|303:152|275:176|275:176|355:204|375:272|351:332|287:360|231:344|231:344|219:304|255:264|255:264|207:232|171:332|27:296|67:172,1,825
64,184,10873,2,0,B|104:196|104:196|136:164|136:164|152:240|200:296|200:296|260:192|212:80|212:80|264:92|288:76,1,525
352,64,13788,2,0,P|352:106|324:145,1,75
256,192,14302,12,4,17388,0:0:0:0:
256,192,21502,12,0,22359,0:0:0:0:
128,112,22530,6,0,L|116:237,1,112.500004291535
42,64,23216,1,0,0:0:0:0:
195,238,23559,1,0,0:0:0:0:
251,34,23902,2,0,P|198:22|134:48,1,112.500004291535
362,204,24588,2,0,P|412:183|449:125,1,112.500004291535
141,128,25273,6,0,L|148:184,1,56.2500021457673
256,124,25616,2,0,L|272:44,1,56.2500021457673
232,228,25959,1,0,0:0:0:0:
368,82,26302,1,0,0:0:0:0:
157,56,26645,2,0,L|42:75,1,112.500004291535
232,228,27330,2,0,L|347:247,1,112.500004291535
119,97,28016,6,0,P|118:145|152:219,1,112.500004291535
318,113,28702,2,0,P|370:105|442:125,1,112.500004291535
254,261,29388,2,0,P|197:267|134:253,1,112.500004291535
319,345,30073,2,0,P|376:351|439:337,1,112.500004291535
254,261,30759,5,0,0:0:0:0:
451,111,31102,1,0,0:0:0:0:
435,268,31445,1,0,0:0:0:0:
331,34,31788,1,0,0:0:0:0:
173,198,32130,6,0,L|184:115,1,56.2500021457673
308,232,32473,2,0,L|300:287,1,56.2500021457673
197,354,32816,2,0,L|208:271,1,56.2500021457673
397,192,33159,2,0,L|389:247,1,56.2500021457673
127,296,33502,5,0,0:0:0:0:
284,93,33845,1,0,0:0:0:0:
306,332,34188,1,0,0:0:0:0:
103,206,34530,1,0,0:0:0:0:
324,191,34873,6,0,P|370:157|390:90,1,112.500004291535
175,178,35559,2,0,P|166:234|199:296,1,112.500004291535
393,247,36245,2,0,L|268:236,2,112.500004291535
229,338,37273,1,0,0:0:0:0:
362,64,37616,2,0,P|366:116|339:171,1,112.500004291535
129,120,38302,2,0,P|173:87|229:91,1,112.500004291535
478,168,38988,5,0,0:0:0:0:
318,323,39330,1,0,0:0:0:0:
384,64,39673,1,0,0:0:0:0:
454,290,40016,1,0,0:0:0:0:
279,106,40359,2,0,P|224:96|152:128,1,112.500004291535
111,333,41045,2,0,P|169:326|216:278,1,112.500004291535
328,130,41730,6,0,L|405:135,1,56.2500021457673
209,177,42073,2,0,L|152:180,1,56.2500021457673
321,49,42416,2,0,L|377:52,1,56.2500021457673
167,99,42759,2,0,L|110:102,1,56.2500021457673
268,247,43102,1,0,0:0:0:0:
253,52,43444,1,0,0:0:0:0:
212,317,43788,2,0,P|268:329|337:299,1,112.500004291535
487,149,44473,5,0,0:0:0:0:
237,75,44645,1,0,0:0:0:0:
203,238,44816,1,0,0:0:0:0:
309,193,44988,1,0,0:0:0:0:
123,142,45159,2,0,L|25:155,1,75
119,333,45502,2,0,L|217:346,1,75
30,272,45845,5,0,0:0:0:0:
309,193,46016,1,0,0:0:0:0:
257,318,46188,1,0,0:0:0:0:
201,166,46359,1,0,0:0:0:0:
371,281,46530,2,0,P|402:257|411:213,1,75
297,118,46873,2,0,L|312:215,1,75
223,58,47216,6,0,P|184:54|135:74,1,75
140,220,47559,2,0,P|175:203|208:162,1,75
55,168,47902,2,0,L|49:78,2,75
87,337,48416,1,0,0:0:0:0:
311,218,48588,2,0,P|353:217|410:233,1,75
226,291,48930,2,0,P|184:292|127:276,1,75
318,304,49273,2,0,P|319:346|303:403,1,75
206,194,49616,2,0,P|208:152|229:96,1,75
403,169,49959,6,0,L|300:165,1,75
452,92,50302,1,0,0:0:0:0:
206,194,50645,1,0,0:0:0:0:
378,16,50988,1,0,0:0:0:0:
236,282,51330,6,0,P|207:286|147:265,1,75
346,230,51673,2,0,P|375:226|435:247,1,75
261,188,52016,2,0,L|268:89,1,75
313,298,52359,2,0,L|320:397,1,75
418,236,52702,1,0,0:0:0:0:
266,30,53045,1,0,0:0:0:0:
172,175,53388,6,0,P|138:183|76:169,1,75
211,76,53730,1,0,0:0:0:0:
255,207,53902,1,0,0:0:0:0:
315,46,54073,2,0,P|352:41|388:49,1,75
328,210,54416,2,0,P|291:215|255:207,1,75
404,142,54759,2,0,P|441:137|477:145,1,75
372,329,55102,2,0,P|335:334|299:326,1,75
103,218,55445,5,0,0:0:0:0:
236,136,55616,1,0,0:0:0:0:
209,233,55788,2,0,L|202:328,1,75
192,60,56130,2,0,P|225:50|278:60,1,75
386,97,56473,2,0,P|422:101|458:91,1,75
282,155,56816,6,0,L|288:249,1,75
320,348,57159,1,0,0:0:0:0:
401,251,57330,1,0,0:0:0:0:
213,307,57502,2,0,P|173:307|116:277,1,75
401,251,57845,2,0,P|440:250|497:280,1,75
320,348,58188,5,0,0:0:0:0:
380,60,58530,1,0,0:0:0:0:
209,213,58873,2,0,P|171:218|106:204,1,75
25,172,59216,1,0,0:0:0:0:
176,72,59388,1,0,0:0:0:0:
204,231,59559,6,0,P|166:236|101:222,1,75
20,191,59902,1,0,0:0:0:0:
202,68,60074,1,0,0:0:0:0:
203,268,60245,2,0,P|165:273|100:259,1,75
288,197,60588,2,0,P|325:191|363:199,1,75
335,360,60930,6,0,L|324:286,1,75
459,209,61273,2,0,L|447:283,1,75
410,129,61616,2,0,P|447:114|497:123,1,75
331,195,61959,1,0,0:0:0:0:
169,89,62130,1,0,0:0:0:0:
97,283,62302,6,0,P|84:243|90:189,1,75
277,310,62645,2,0,L|169:317,1,75
389,236,62988,1,0,0:0:0:0:
351,371,63159,1,0,0:0:0:0:
364,152,63330,2,0,P|413:152|457:181,1,75
220,239,63673,6,0,L|228:141,2,75
178,359,64188,1,0,0:0:0:0:
145,138,64359,2,0,L|153:40,2,75
111,255,64873,1,0,0:0:0:0:
328,288,65045,6,0,P|365:297|425:278,1,75
178,228,65388,2,0,P|142:234|93:277,1,75
363,165,65730,2,0,P|391:134|404:76,1,75
174,38,66073,2,0,P|196:67|228:86,1,75
478,61,66416,5,0,0:0:0:0:
389,120,71880,5,2,0:0:0:0:
299,249,72051,1,4,0:0:0:0:
210,115,72222,2,0,P|166:106|104:115,1,89.9999972534181,8|2,0:0|0:0,0:0:0:0:
98,123,72480,1,0,0:0:0:0:
81,144,72566,2,0,P|66:189|77:253,1,89.9999972534181,2|4,0:0|0:0,0:0:0:0:
243,232,72908,2,0,P|206:207|162:201,1,89.9999972534181,8|0,0:0|0:0,0:0:0:0:
250,342,73251,5,2,0:0:0:0:
355,173,73423,1,4,0:0:0:0:
162,201,73594,1,8,0:0:0:0:
364,316,73766,1,2,0:0:0:0:
390,318,73851,1,0,0:0:0:0:
412,319,73937,1,2,0:0:0:0:
182,288,74108,1,4,0:0:0:0:
269,189,74280,2,0,P|271:144|251:87,1,89.9999972534181,8|0,0:0|0:0,0:0:0:0:
176,31,74623,5,2,0:0:0:0:
116,178,74794,1,4,0:0:0:0:
336,95,74966,1,8,0:0:0:0:
93,67,75137,1,2,0:0:0:0:
66,62,75223,1,0,0:0:0:0:
39,57,75308,1,2,0:0:0:0:
195,215,75480,1,4,0:0:0:0:
120,318,75651,2,0,P|81:319|30:301,1,89.9999972534181,8|0,0:0|0:0,0:0:0:0:
195,215,75994,6,0,P|239:207|283:214,1,89.9999972534181,2|4,0:0|0:0,0:0:0:0:
412,289,76337,1,8,0:0:0:0:
252,346,76508,2,0,P|244:325|242:303,2,44.999998626709,2|0|2,0:0|0:0|0:0,0:0:0:0:
283,214,76851,1,4,0:0:0:0:
164,340,77023,2,0,P|117:349|50:325,1,89.9999972534181,8|0,0:0|0:0,0:0:0:0:
102,97,77366,6,0,P|146:100|186:120,1,89.9999972534181,2|4,0:0|0:0,0:0:0:0:
283,214,77708,1,8,0:0:0:0:
104,242,77880,1,2,0:0:0:0:
113,211,77966,1,0,0:0:0:0:
123,181,78051,1,2,0:0:0:0:
181,318,78223,1,4,0:0:0:0:
46,174,78394,2,0,L|33:81,1,89.9999972534181,8|0,0:0|0:0,0:0:0:0:
211,89,78737,6,0,P|166:97|113:85,2,89.9999972534181,2|4|8,0:0|0:0|0:0,0:0:0:0:
371,48,79251,1,2,0:0:0:0:
402,51,79337,1,0,0:0:0:0:
433,56,79423,1,2,0:0:0:0:
330,145,79594,1,4,0:0:0:0:
416,299,79766,2,0,P|430:259|421:193,1,89.9999972534181,8|0,0:0|0:0,0:0:0:0:
247,336,80108,6,0,L|365:353,1,89.9999972534181,2|4,0:0|0:0,0:0:0:0:
234,178,80451,1,8,0:0:0:0:
108,300,80623,2,0,P|105:322|110:344,2,44.999998626709,2|0|2,0:0|0:0|0:0,0:0:0:0:
115,133,80966,1,4,0:0:0:0:
286,275,81137,2,0,P|322:241|326:186,1,89.9999972534181,8|0,0:0|0:0,0:0:0:0:
189,235,81480,6,0,P|178:284|200:332,1,89.9999972534181,2|4,0:0|0:0,0:0:0:0:
165,137,81823,2,0,L|63:146,1,89.9999972534181,8|2,0:0|0:0,0:0:0:0:
62,147,82080,1,0,0:0:0:0:
48,149,82166,1,2,0:0:0:0:
116,249,82337,1,4,0:0:0:0:
242,93,82508,2,0,P|287:82|353:102,1,89.9999972534181,8|0,0:0|0:0,0:0:0:0:
234,273,82851,6,0,L|219:184,1,89.9999972534181,2|4,0:0|0:0,0:0:0:0:
377,245,83194,2,0,L|362:333,1,89.9999972534181,8|2,0:0|0:0,0:0:0:0:
360,347,83451,1,0,0:0:0:0:
359,360,83537,1,2,0:0:0:0:
312,182,83708,1,4,0:0:0:0:
210,345,83880,2,0,P|168:352|101:332,1,89.9999972534181,8|0,0:0|0:0,0:0:0:0:
21,261,84223,5,2,0:0:0:0:
185,224,84394,1,4,0:0:0:0:
32,353,84566,1,8,0:0:0:0:
99,188,84737,2,0,L|100:113,2,44.999998626709,2|0|2,0:0|0:0|0:0,0:0:0:0:
121,342,85080,1,4,0:0:0:0:
199,144,85251,2,0,P|246:134|311:159,1,89.9999972534181,8|0,0:0|0:0,0:0:0:0:
291,324,85594,6,0,P|260:299|250:246,1,89.9999972534181,2|4,0:0|0:0,0:0:0:0:
404,221,85937,1,8,0:0:0:0:
203,345,86108,1,2,0:0:0:0:
203,345,86194,1,0,0:0:0:0:
203,345,86280,2,0,L|73:338,1,89.9999972534181,2|4,0:0|0:0,0:0:0:0:
248,256,86623,2,0,L|378:249,1,89.9999972534181,8|0,0:0|0:0,0:0:0:0:
136,239,86966,6,0,P|125:212|141:147,1,89.9999972534181,2|4,0:0|0:0,0:0:0:0:
196,63,87308,1,8,0:0:0:0:
354,180,87480,1,2,0:0:0:0:
354,180,87565,1,0,0:0:0:0:
354,180,87651,2,0,P|392:198|459:194,1,89.9999972534181,2|4,0:0|0:0,0:0:0:0:
426,57,87994,1,8,0:0:0:0:
263,102,88166,38,0,B|219:81|202:35|202:35|192:84|109:163|57:177|-48:150|-33:34|0:-20|97:-2|157:-5|172:132|172:195|146:241,1,675,0|4,0:0|0:0,0:0:0:0:
139,348,91423,70,0,B|110:314|62:308|62:308|111:295|160:305|203:325|203:325|235:320|263:327|263:327|240:290|240:290|305:308|365:281,1,450,8|0,0:0|0:0,0:0:0:0:
462,225,93823,6,0,P|446:180|456:116,1,89.9999972534181,4|0,0:0|3:1,0:0:0:0:
470,43,94166,1,0,0:0:0:0:
321,169,94337,2,0,P|252:190|139:167,1,179.999994506836,4|0,0:0|3:1,0:0:0:0:
303,71,94851,2,0,P|356:70|406:89,1,89.9999972534181,2|0,0:0|3:1,0:0:0:0:
409,342,95194,6,0,P|387:255|403:154,1,179.999994506836,4|0,0:0|0:0,0:0:0:0:
307,324,95708,2,0,B|246:313|246:313|185:329|185:329|114:319,1,179.999994506836,4|0,0:0|3:1,0:0:0:0:
26,125,96223,1,2,0:0:0:0:
22,242,96394,1,0,0:0:0:0:
161,84,96566,6,0,L|269:74,1,89.9999972534181,4|0,0:0|0:0,0:0:0:0:
111,250,96908,2,0,L|21:241,2,89.9999972534181,0|4|0,0:0|0:0|0:0,0:0:0:0:
256,262,97423,1,0,0:0:0:0:
175,156,97594,1,4,0:0:0:0:
78,333,97766,1,2,0:0:0:0:
51,336,97851,1,2,0:0:0:0:
24,340,97937,1,4,0:0:0:0:
228,353,98108,1,2,0:0:0:0:
81,186,98280,6,0,P|76:146|100:83,1,89.9999972534181,0|4,0:0|0:0,0:0:0:0:
271,118,98623,1,0,0:0:0:0:
181,250,98794,1,0,3:1:0:0:
240,40,98966,2,0,P|289:35|342:71,1,89.9999972534181,2|0,0:0|0:0,0:0:0:0:
273,208,99308,6,0,P|267:164|271:120,1,89.9999972534181,4|0,0:0|3:1,0:0:0:0:
356,272,99651,1,8,0:0:0:0:
272,332,99823,1,4,0:0:0:0:
200,260,99994,1,0,0:0:0:0:
368,176,100166,1,0,3:1:0:0:
364,364,100337,1,4,0:0:0:0:
274,209,100508,1,0,0:0:0:0:
415,261,100680,6,0,P|463:270|533:262,2,89.9999972534181,4|0|8,0:0|3:1|0:0,0:0:0:0:
274,209,101194,1,4,0:0:0:0:
352,129,101366,2,0,P|401:127|461:140,1,89.9999972534181,0|0,0:0|3:1,0:0:0:0:
337,312,101708,2,0,P|288:318|247:309,1,89.9999972534181,2|0,0:0|0:0,0:0:0:0:
133,190,102051,6,0,L|121:72,1,89.9999972534181,4|0,0:0|0:0,0:0:0:0:
70,250,102394,2,0,L|60:342,1,89.9999972534181,8|4,0:0|0:0,0:0:0:0:
165,277,102737,1,0,0:0:0:0:
44,165,102908,1,0,0:0:0:0:
140,369,103080,1,12,0:0:0:0:
251,162,103251,5,2,0:0:0:0:
251,162,103337,1,2,0:0:0:0:
251,162,103423,1,4,0:0:0:0:
138,78,103594,1,2,3:1:0:0:
267,248,103766,2,0,P|321:258|384:235,1,89.9999972534181,8|4,0:0|0:0,0:0:0:0:
481,207,104108,1,0,3:1:0:0:
353,110,104280,1,0,0:0:0:0:
274,333,104451,2,0,P|220:343|157:320,1,89.9999972534181,8|0,0:0|0:0,0:0:0:0:
100,192,104794,6,0,L|89:309,1,89.9999972534181,4|0,0:0|3:1,0:0:0:0:
202,105,105137,2,0,L|214:220,1,89.9999972534181,8|4,0:0|0:0,0:0:0:0:
284,53,105480,1,2,0:0:0:0:
126,46,105651,1,0,3:1:0:0:
348,172,105823,2,0,P|392:172|446:142,1,89.9999972534181,8|0,0:0|3:1,0:0:0:0:
273,233,106166,6,0,L|261:344,1,89.9999972534181,4|0,0:0|3:1,0:0:0:0:
247,344,106423,1,0,0:0:0:0:
223,356,106508,2,0,P|176:358|111:341,1,89.9999972534181,8|4,0:0|0:0,0:0:0:0:
21,309,106851,1,0,0:0:0:0:
175,258,107023,1,0,3:1:0:0:
36,125,107194,2,0,P|25:80|39:24,1,89.9999972534181,8|0,0:0|0:0,0:0:0:0:
210,89,107537,6,0,L|121:79,2,89.9999972534181,4|0|8,0:0|0:0|0:0,0:0:0:0:
336,148,108051,1,4,0:0:0:0:
249,288,108223,2,0,P|202:290|151:272,1,89.9999972534181
371,227,108566,1,12,0:0:0:0:
335,356,108737,5,2,0:0:0:0:
335,356,108823,1,2,0:0:0:0:
335,356,108908,1,4,0:0:0:0:
268,190,109080,1,2,0:0:0:0:
423,303,109251,6,0,P|471:309|526:281,1,89.9999972534181,8|4,0:0|0:0,0:0:0:0:
268,190,109594,2,0,P|220:184|165:212,1,89.9999972534181,0|0,0:0|3:1,0:0:0:0:
283,104,109937,2,0,P|211:95|130:136,1,134.999995880127,8|0,0:0|0:0,0:0:0:0:
81,170,110280,5,4,0:0:0:0:
81,58,110451,1,0,3:1:0:0:
167,272,110623,2,0,P|217:283|278:267,1,97.4999955368044,8|4,0:0|0:0,0:0:0:0:
386,185,110966,2,0,P|336:178|289:190,1,97.4999955368044,0|0,0:0|3:1,0:0:0:0:
446,268,111308,1,8,0:0:0:0:
463,81,111480,1,0,3:1:0:0:
285,118,111651,6,0,P|233:124|176:106,1,97.4999955368044,4|0,0:0|3:1,0:0:0:0:
352,251,111994,2,0,L|337:356,1,97.4999955368044,8|4,0:0|0:0,0:0:0:0:
446,268,112337,1,0,0:0:0:0:
396,153,112508,1,4,3:1:0:0:
231,285,112680,2,0,P|181:295|113:284,1,97.4999955368044,8|0,0:0|0:0,0:0:0:0:
26,262,113023,5,4,0:0:0:0:
108,171,113194,1,0,0:0:0:0:
165,368,113366,1,8,0:0:0:0:
56,348,113537,1,4,0:0:0:0:
197,195,113708,1,2,0:0:0:0:
237,294,113880,1,4,0:0:0:0:
22,178,114051,1,8,0:0:0:0:
104,88,114223,6,0,L|93:30,2,48.7499977684022,2|2|4,0:0|0:0|0:0,0:0:0:0:
129,247,114566,1,2,3:1:0:0:
233,111,114737,2,0,P|284:110|332:126,1,97.4999955368044,8|4,0:0|0:0,0:0:0:0:
445,177,115080,1,0,0:0:0:0:
405,15,115251,1,4,0:0:0:0:
346,270,115423,2,0,P|273:282|191:271,1,146.249993305207,8|0,0:0|0:0,0:0:0:0:
115,217,115766,6,0,L|120:106,1,104.999996795654,4|0,0:0|3:1,0:0:0:0:
413,149,116108,1,8,0:0:0:0:
383,179,116193,1,0,0:0:0:0:
347,199,116279,1,4,0:0:0:0:
305,202,116365,1,2,0:0:0:0:
264,192,116451,1,2,0:0:0:0:
133,137,116623,1,4,3:1:0:0:
337,15,116794,2,0,L|326:137,1,104.999996795654,8|0,0:0|3:1,0:0:0:0:
310,324,117137,5,4,0:0:0:0:
436,211,117308,1,2,3:1:0:0:
200,266,117480,2,0,P|148:274|99:258,1,104.999996795654,8|0,0:0|0:0,0:0:0:0:
14,190,117823,1,2,0:0:0:0:
114,359,117994,1,0,0:0:0:0:
156,134,118166,1,8,0:0:0:0:
18,293,118337,1,4,3:1:0:0:
266,218,118508,6,0,P|318:210|367:226,1,104.999996795654,4|0,0:0|0:0,0:0:0:0:
461,347,118851,1,8,0:0:0:0:
420,357,118937,1,0,0:0:0:0:
378,354,119023,1,4,0:0:0:0:
342,334,119109,1,2,0:0:0:0:
312,304,119194,1,2,0:0:0:0:
487,174,119366,1,4,0:0:0:0:
266,218,119537,1,8,0:0:0:0:
116,140,119708,5,2,0:0:0:0:
116,140,119794,1,2,0:0:0:0:
116,140,119880,1,4,0:0:0:0:
121,304,120051,1,2,0:0:0:0:
168,70,120223,2,0,P|118:52|67:59,1,104.999996795654,8|0,0:0|0:0,0:0:0:0:
219,168,120566,1,2,0:0:0:0:
282,30,120737,1,4,3:1:0:0:
163,252,120908,2,0,P|215:266|287:247,1,104.999996795654,8|0,0:0|0:0,0:0:0:0:
428,178,121251,6,0,P|376:170|326:184,1,104.999996795654,4|0,0:0|3:1,0:0:0:0:
485,358,121594,1,8,0:0:0:0:
491,316,121680,1,0,0:0:0:0:
495,274,121766,1,4,0:0:0:0:
500,232,121851,1,2,0:0:0:0:
503,189,121937,1,2,0:0:0:0:
382,50,122108,1,4,3:1:0:0:
264,258,122280,2,0,P|324:269|379:250,1,104.999996795654,8|0,0:0|3:1,0:0:0:0:
503,189,122622,5,4,0:0:0:0:
299,80,122794,1,2,3:1:0:0:
166,241,122965,2,0,P|170:289|212:338,1,104.999996795654,8|4,0:0|0:0,0:0:0:0:
264,258,123308,1,2,0:0:0:0:
84,318,123480,1,4,0:0:0:0:
200,96,123651,2,0,P|169:58|106:42,1,104.999996795654,8|0,0:0|0:0,0:0:0:0:
100,158,123994,1,4,0:0:0:0:
203,332,124165,1,0,0:0:0:0:
394,208,124337,5,8,0:0:0:0:
364,178,124422,1,0,0:0:0:0:
328,158,124508,1,4,0:0:0:0:
286,155,124594,1,2,0:0:0:0:
245,165,124680,1,2,0:0:0:0:
306,268,124851,1,4,0:0:0:0:
490,153,125022,1,8,0:0:0:0:
299,81,125194,5,2,0:0:0:0:
257,85,125279,1,2,0:0:0:0:
215,91,125365,1,4,0:0:0:0:
59,15,125537,1,2,3:1:0:0:
115,211,125708,2,0,L|124:326,1,104.999996795654,8|4,0:0|0:0,0:0:0:0:
205,185,126051,1,2,0:0:0:0:
140,42,126222,1,4,0:0:0:0:
36,238,126394,2,0,L|45:353,1,104.999996795654,8|0,0:0|0:0,0:0:0:0:
309,270,126737,6,0,P|259:259|183:280,1,104.999996795654,4|0,0:0|3:1,0:0:0:0:
355,365,127080,1,8,0:0:0:0:
385,335,127165,1,0,0:0:0:0:
405,299,127251,1,4,0:0:0:0:
408,257,127337,1,2,0:0:0:0:
398,216,127423,1,2,0:0:0:0:
301,103,127594,1,4,3:1:0:0:
103,269,127765,2,0,P|154:278|217:263,1,104.999996795654,8|0,0:0|3:1,0:0:0:0:
326,221,128108,5,4,0:0:0:0:
225,85,128280,1,2,3:1:0:0:
280,341,128451,2,0,L|415:333,1,104.999996795654,8|4,0:0|0:0,0:0:0:0:
503,230,128794,1,2,0:0:0:0:
470,377,128965,1,4,3:1:0:0:
396,139,129137,2,0,L|291:145,1,104.999996795654,8|0,0:0|0:0,0:0:0:0:
191,219,129480,1,4,0:0:0:0:
280,341,129651,1,0,0:0:0:0:
124,147,129822,5,8,0:0:0:0:
105,184,129908,1,2,0:0:0:0:
98,226,129994,1,4,0:0:0:0:
109,265,130080,1,0,0:0:0:0:
132,301,130165,1,2,0:0:0:0:
193,88,130337,1,4,0:0:0:0:
0,242,130508,1,8,0:0:0:0:
219,316,130680,1,2,0:0:0:0:
219,316,130765,1,2,0:0:0:0:
219,316,130851,5,4,0:0:0:0:
322,203,131022,1,2,0:0:0:0:
108,276,131194,2,0,P|97:333|123:384,1,104.999996795654,8|4,0:0|0:0,0:0:0:0:
294,288,131537,1,2,0:0:0:0:
189,174,131708,1,4,3:1:0:0:
337,358,131880,2,0,P|390:363|446:341,1,104.999996795654,8|0,0:0|0:0,0:0:0:0:
315,201,132222,6,0,P|262:209|214:245,1,104.999996795654,4|0,0:0|3:1,0:0:0:0:
423,168,132565,1,8,0:0:0:0:
397,133,132650,1,0,0:0:0:0:
365,108,132736,1,4,0:0:0:0:
324,98,132822,1,2,0:0:0:0:
282,102,132908,1,2,0:0:0:0:
132,151,133080,1,4,3:1:0:0:
318,295,133251,2,0,L|454:308,1,104.999996795654,8|0,0:0|3:1,0:0:0:0:
296,209,133594,5,4,0:0:0:0:
266,367,133765,1,2,3:1:0:0:
489,348,133937,2,0,P|499:293|467:229,1,104.999996795654,8|0,0:0|0:0,0:0:0:0:
473,229,134194,1,0,0:0:0:0:
461,211,134280,1,0,0:0:0:0:
342,75,134451,1,4,3:1:0:0:
191,217,134622,2,0,L|308:207,1,104.999996795654,8|0,0:0|0:0,0:0:0:0:
156,296,134965,6,0,L|51:287,1,104.999996795654,4|0,0:0|0:0,0:0:0:0:
220,353,135308,1,8,0:0:0:0:
262,347,135394,1,0,0:0:0:0:
304,343,135480,1,2,0:0:0:0:
346,338,135565,1,2,0:0:0:0:
389,335,135651,1,2,0:0:0:0:
486,237,135822,1,4,0:0:0:0:
289,115,135994,1,8,0:0:0:0:
329,269,136165,5,2,0:0:0:0:
329,269,136251,1,2,0:0:0:0:
329,269,136337,1,4,0:0:0:0:
431,109,136508,1,2,0:0:0:0:
201,47,136680,2,0,P|144:44|76:79,1,104.999996795654,8|4,0:0|0:0,0:0:0:0:
271,198,137022,1,0,0:0:0:0:
444,103,137194,1,4,0:0:0:0:
186,36,137365,2,0,P|136:32|61:68,1,104.999996795654,8|2,0:0|0:0,0:0:0:0:
186,263,137708,6,0,P|136:297|46:294,2,134.999995880127
259,184,138908,1,0,0:0:0:0:
153,171,139080,1,0,0:0:0:0:
284,280,139251,6,0,L|327:273,2,22.4999993133545
224,351,139594,1,0,0:0:0:0:
317,362,139765,1,0,0:0:0:0:
394,307,139937,1,0,0:0:0:0:
399,212,140108,1,0,0:0:0:0:
338,138,140280,1,0,0:0:0:0:
244,122,140451,1,0,0:0:0:0:
155,154,140622,5,0,0:0:0:0:
123,150,140708,1,0,0:0:0:0:
91,147,140794,1,0,0:0:0:0:
231,222,140965,1,0,0:0:0:0:
153,276,141137,2,0,L|154:320,1,44.999998626709
238,365,141480,2,0,L|239:320,1,44.999998626709
308,255,141822,1,0,0:0:0:0:
369,327,141994,6,0,L|376:370,2,22.4999993133545
407,240,142337,1,0,0:0:0:0:
347,166,142508,2,0,L|302:167,1,44.999998626709
222,116,142851,2,0,L|177:117,1,44.999998626709
307,65,143194,1,0,0:0:0:0:
221,207,143365,6,0,L|219:239,2,22.4999993133545
167,285,143708,1,0,0:0:0:0:
252,326,143880,2,0,L|304:323,1,44.999998626709
355,249,144222,2,0,L|310:246,1,44.999998626709
387,338,144565,1,0,0:0:0:0:
445,257,144737,5,0,0:0:0:0:
449,226,144822,1,0,0:0:0:0:
453,194,144908,1,0,0:0:0:0:
395,118,145080,1,0,0:0:0:0:
317,172,145251,2,0,L|256:177,1,44.999998626709
186,134,145594,2,0,L|188:77,2,44.999998626709
108,188,146108,6,0,L|70:179,2,22.4999993133545
194,225,146451,2,0,L|232:216,2,22.4999993133545
115,277,146794,2,0,L|77:268,2,22.4999993133545
201,316,147137,1,0,0:0:0:0:
231,309,147222,1,0,0:0:0:0:
261,299,147308,1,0,0:0:0:0:
324,228,147480,6,0,L|321:186,2,22.4999993133545
371,309,147822,2,0,L|368:351,2,22.4999993133545
424,230,148165,1,0,0:0:0:0:
424,230,148251,1,0,0:0:0:0:
384,144,148422,1,0,0:0:0:0:
384,144,148508,1,0,0:0:0:0:
260,65,148680,5,0,0:0:0:0:
73,290,149194,1,0,0:0:0:0:
359,278,149708,2,0,L|410:285,9,44.999998626709
275,317,151422,2,0,L|224:324,7,44.999998626709
356,364,152794,2,0,L|407:371,7,44.999998626709
256,192,158280,12,0,159480,0:0:0:0:
345,89,159651,5,6,0:1:0:0:
460,193,159822,1,0,0:0:0:0:
307,367,159994,1,8,0:0:0:0:
296,239,160165,1,0,0:1:0:0:
394,307,160337,2,0,P|454:312|509:281,1,97.4999955368044,0|4,0:0|0:0,0:0:0:0:
264,153,160680,2,0,P|204:148|149:179,1,97.4999955368044,8|0,0:1|0:0,0:0:0:0:
74,232,161022,5,4,0:0:0:0:
216,309,161194,1,0,0:0:0:0:
127,80,161365,2,0,P|76:56|21:62,1,97.4999955368044,8|0,0:0|0:0,0:0:0:0:
170,161,161708,1,0,0:0:0:0:
236,38,161880,1,4,0:0:0:0:
74,232,162051,2,0,P|62:292|84:349,1,97.4999955368044,8|0,0:0|0:0,0:0:0:0:
261,275,162394,6,0,L|145:281,2,97.4999955368044,4|0|8,0:0|0:0|0:0,0:0:0:0:
425,273,162908,1,0,0:0:0:0:
325,357,163080,1,0,0:0:0:0:
344,85,163251,1,4,0:0:0:0:
421,170,163422,1,8,0:0:0:0:
248,148,163594,5,2,0:0:0:0:
248,148,163680,1,2,0:0:0:0:
248,148,163765,2,0,P|233:99|256:28,1,97.4999955368044,4|2,0:0|0:0,0:0:0:0:
334,281,164108,2,0,L|200:278,1,97.4999955368044,8|0,0:0|0:0,0:0:0:0:
329,195,164451,1,0,0:0:0:0:
456,287,164622,1,4,0:0:0:0:
248,364,164794,2,0,L|114:361,1,97.4999955368044,8|0,0:0|0:0,0:0:0:0:
43,250,165137,6,0,P|36:207|61:136,1,97.4999955368044,4|0,0:0|0:0,0:0:0:0:
236,278,165480,1,8,0:0:0:0:
132,202,165651,1,0,0:0:0:0:
360,211,165822,1,0,0:0:0:0:
333,345,165994,1,4,0:0:0:0:
299,98,166165,2,0,P|354:82|422:104,1,97.4999955368044,8|0,0:0|0:0,0:0:0:0:
212,143,166508,6,0,P|156:140|109:111,1,97.4999955368044,4|0,0:0|0:0,0:0:0:0:
267,250,166851,2,0,L|255:361,1,97.4999955368044,8|0,0:0|0:0,0:0:0:0:
186,213,167194,1,0,0:0:0:0:
345,196,167365,1,4,0:0:0:0:
125,297,167537,2,0,P|99:244|107:176,1,97.4999955368044,8|0,0:0|0:0,0:0:0:0:
263,101,167880,6,0,L|393:92,1,97.4999955368044,4|0,0:0|0:0,0:0:0:0:
203,308,168222,1,8,0:0:0:0:
176,135,168394,1,0,0:0:0:0:
328,214,168565,1,0,0:0:0:0:
112,231,168737,1,4,0:0:0:0:
314,66,168908,1,8,0:0:0:0:
419,279,169080,6,0,L|416:335,2,48.7499977684022,2|2|4,0:0|0:0|0:0,0:0:0:0:
463,158,169422,1,2,0:0:0:0:
305,318,169594,2,0,P|249:326|179:307,1,97.4999955368044,8|0,0:0|0:0,0:0:0:0:
53,253,169937,1,0,0:0:0:0:
80,376,170108,1,4,0:0:0:0:
145,159,170280,2,0,P|143:102|116:47,1,97.4999955368044,8|0,0:0|0:0,0:0:0:0:
223,244,170622,6,0,L|343:235,1,97.4999955368044,4|0,0:1|0:0,0:0:0:0:
476,147,170965,1,8,0:0:0:0:
368,97,171137,1,0,0:1:0:0:
377,323,171308,1,0,0:0:0:0:
472,260,171480,1,4,0:0:0:0:
231,155,171651,2,0,L|118:146,1,97.4999955368044,8|0,0:1|0:0,0:0:0:0:
229,239,171994,5,4,0:0:0:0:
183,66,172165,1,0,0:0:0:0:
357,197,172337,2,0,L|500:179,1,97.4999955368044,8|0,0:0|0:0,0:0:0:0:
343,27,172680,2,0,P|316:75|321:152,1,97.4999955368044,0|4,0:0|0:0,0:0:0:0:
323,359,173022,1,8,0:0:0:0:
221,244,173194,1,0,0:0:0:0:
479,289,173365,6,0,P|488:244|451:164,1,97.4999955368044,4|0,0:0|0:0,0:0:0:0:
274,31,173708,2,0,L|396:33,1,97.4999955368044,8|0,0:0|0:0,0:0:0:0:
219,135,174051,1,0,0:0:0:0:
131,21,174222,1,4,0:0:0:0:
169,249,174394,2,0,P|217:257|305:227,1,97.4999955368044,8|2,0:0|0:0,0:0:0:0:
286,237,174651,1,2,0:0:0:0:
305,226,174737,6,0,P|353:218|441:248,1,97.4999955368044,4|2,0:0|0:0,0:0:0:0:
219,149,175080,2,0,L|208:19,1,97.4999955368044,8|0,0:0|0:0,0:0:0:0:
340,122,175422,1,0,0:0:0:0:
286,237,175594,1,4,0:0:0:0:
126,131,175765,2,0,L|115:1,1,97.4999955368044,8|0,0:0|0:0,0:0:0:0:
93,223,176108,6,0,P|47:185|42:118,1,97.4999955368044,4|0,0:0|0:0,0:0:0:0:
272,153,176451,1,8,0:0:0:0:
193,260,176622,1,0,0:0:0:0:
199,78,176794,1,0,0:0:0:0:
348,217,176965,1,4,0:0:0:0:
129,128,177137,2,0,P|116:73|148:4,1,97.4999955368044,8|0,0:0|0:0,0:0:0:0:
296,82,177480,6,0,L|157:75,1,97.4999955368044,4|0,0:0|0:0,0:0:0:0:
431,44,177822,2,0,P|437:97|399:160,1,97.4999955368044,8|0,0:0|0:0,0:0:0:0:
288,229,178165,1,0,0:0:0:0:
296,82,178337,1,4,0:0:0:0:
389,302,178508,2,0,P|445:318|514:302,1,97.4999955368044,8|0,0:0|0:0,0:0:0:0:
328,157,178851,5,4,0:0:0:0:
48,313,179194,1,8,0:0:0:0:
120,193,179365,1,0,0:0:0:0:
127,159,179451,1,0,0:0:0:0:
134,126,179537,1,0,0:0:0:0:
55,26,179708,1,0,0:0:0:0:
204,202,179880,5,0,0:0:0:0:
256,192,179965,12,0,181251,0:0:0:0:
318,210,181594,5,6,0:1:0:0:
401,320,181765,1,0,0:0:0:0:
360,117,181937,2,0,P|315:111|251:137,1,97.4999955368044,8|0,0:0|0:0,0:0:0:0:
103,211,182280,1,0,0:0:0:0:
234,331,182451,1,4,0:0:0:0:
174,114,182622,2,0,L|155:8,1,97.4999955368044,8|0,0:1|0:0,0:0:0:0:
248,222,182965,6,0,L|267:116,1,97.4999955368044,4|0,0:1|0:0,0:0:0:0:
68,27,183308,1,8,0:0:0:0:
19,158,183480,1,0,0:0:0:0:
126,239,183651,1,0,0:0:0:0:
174,114,183822,1,4,0:0:0:0:
4,274,183994,2,0,P|-7:324|13:379,1,97.4999955368044,8|0,0:0|0:0,0:0:0:0:
188,313,184337,6,0,L|64:326,1,97.4999955368044,4|0,0:0|0:0,0:0:0:0:
316,357,184680,1,8,0:0:0:0:
277,169,184851,1,0,0:0:0:0:
188,313,185022,1,0,0:0:0:0:
372,245,185194,1,4,0:0:0:0:
154,195,185365,1,8,0:0:0:0:
366,41,185537,5,2,0:0:0:0:
366,41,185622,1,2,0:0:0:0:
366,41,185708,2,0,P|376:92|345:146,1,97.4999955368044,4|2,0:0|0:0,0:0:0:0:
95,143,186051,2,0,P|143:120|210:127,1,97.4999955368044,8|0,0:0|0:0,0:0:0:0:
345,206,186394,1,0,0:0:0:0:
264,61,186565,1,4,0:0:0:0:
303,293,186737,2,0,P|347:296|411:268,1,97.4999955368044,8|0,0:0|0:0,0:0:0:0:
201,275,187080,6,0,P|155:258|107:260,1,97.4999955368044,4|0,0:0|0:0,0:0:0:0:
278,182,187422,2,0,L|274:84,1,97.4999955368044,8|0,0:0|0:0,0:0:0:0:
201,275,187765,1,0,0:0:0:0:
383,164,187937,1,4,0:0:0:0:
175,21,188108,1,8,0:0:0:0:
201,150,188280,1,0,0:0:0:0:
364,58,188451,6,0,P|416:48|484:68,1,97.4999955368044,4|0,0:0|0:0,0:0:0:0:
319,255,188794,2,0,L|307:139,1,97.4999955368044,8|0,0:0|0:0,0:0:0:0:
457,242,189137,1,0,0:0:0:0:
363,376,189308,1,4,0:0:0:0:
229,219,189480,2,0,L|217:103,1,97.4999955368044,8|0,0:0|0:0,0:0:0:0:
169,293,189822,6,0,P|118:298|52:278,1,97.4999955368044,4|0,0:0|0:0,0:0:0:0:
298,172,190165,1,8,0:0:0:0:
315,361,190337,1,0,0:0:0:0:
191,189,190508,1,0,0:0:0:0:
381,229,190680,1,4,0:0:0:0:
202,364,190851,1,8,0:0:0:0:
83,203,191022,5,2,0:0:0:0:
74,180,191108,1,2,0:0:0:0:
63,158,191194,1,4,0:0:0:0:
178,44,191365,1,2,0:0:0:0:
286,237,191537,2,0,P|340:242|405:210,1,97.4999955368044,8|0,0:0|0:0,0:0:0:0:
493,143,191880,1,0,0:0:0:0:
393,50,192051,1,4,0:0:0:0:
464,245,192222,2,0,P|453:288|464:349,1,97.4999955368044,8|0,0:0|0:0,0:0:0:0:
329,341,192565,6,0,L|221:327,1,97.4999955368044,4|0,0:1|0:0,0:0:0:0:
67,300,192908,1,8,0:0:0:0:
221,187,193080,1,0,0:0:0:0:
148,361,193251,1,0,0:0:0:0:
96,148,193422,1,4,0:0:0:0:
301,253,193594,2,0,L|424:230,1,97.4999955368044,8|0,0:1|0:0,0:0:0:0:
221,187,193937,5,4,0:1:0:0:
232,328,194108,1,0,0:0:0:0:
280,116,194280,2,0,P|239:100|170:117,1,97.4999955368044,8|0,0:0|0:0,0:0:0:0:
372,190,194622,1,0,0:0:0:0:
404,35,194794,1,4,0:0:0:0:
321,258,194965,2,0,P|372:273|438:254,1,97.4999955368044,8|0,0:0|0:0,0:0:0:0:
340,71,195308,5,4,0:0:0:0:
251,174,195480,1,0,0:0:0:0:
466,179,195651,2,0,P|467:132|445:74,1,97.4999955368044,8|0,0:0|0:0,0:0:0:0:
414,265,195994,2,0,P|398:310|399:359,1,97.4999955368044,0|4,0:0|0:0,0:0:0:0:
322,146,196337,1,8,0:0:0:0:
217,304,196508,5,2,0:0:0:0:
217,304,196594,1,2,0:0:0:0:
217,304,196680,2,0,P|166:313|102:302,1,97.4999955368044,4|2,0:0|0:0,0:0:0:0:
259,121,197022,2,0,L|266:247,1,97.4999955368044,8|0,0:0|0:0,0:0:0:0:
179,62,197365,1,0,0:0:0:0:
358,77,197537,1,4,0:0:0:0:
170,232,197708,2,0,P|124:238|61:198,1,97.4999955368044,8|0,0:0|0:0,0:0:0:0:
379,192,198051,6,0,L|367:302,1,97.4999955368044,4|0,0:0|0:0,0:0:0:0:
311,88,198394,1,8,0:0:0:0:
470,196,198565,1,0,0:0:0:0:
289,204,198737,1,0,0:0:0:0:
425,79,198908,1,4,0:0:0:0:
341,321,199080,1,8,0:0:0:0:
479,273,199251,1,0,0:0:0:0:
289,204,199422,6,0,P|242:198|178:217,1,97.4999955368044,4|0,0:0|0:0,0:0:0:0:
394,115,199765,2,0,L|380:1,1,97.4999955368044,8|0,0:0|0:0,0:0:0:0:
361,201,200108,1,0,0:0:0:0:
491,93,200280,1,4,0:0:0:0:
274,62,200451,2,0,P|229:50|159:76,1,97.4999955368044,8|0,0:0|0:0,0:0:0:0:
194,224,200794,6,0,P|225:176|222:123,1,97.4999955368044,4|0,0:0|0:0,0:0:0:0:
79,275,201137,1,8,0:0:0:0:
212,333,201308,1,0,0:0:0:0:
233,344,201394,1,0,0:0:0:0:
254,355,201480,1,0,0:0:0:0:
315,198,201651,1,4,0:0:0:0:
144,161,201822,2,0,P|96:158|35:178,1,97.4999955368044,8|0,0:0|0:0,0:0:0:0:
239,272,202165,5,4,0:0:0:0:
423,224,202337,1,0,0:0:0:0:
279,102,202508,1,8,0:0:0:0:
399,313,202680,2,0,P|474:292|476:148,1,225.000008583069,4|0,0:0|0:0,0:0:0:0:
381,81,203537,6,0,P|328:68|257:88,1,112.500004291535,4|0,0:0|0:0,0:0:0:0:
244,274,203880,1,8,0:0:0:0:
279,257,203965,1,2,0:3:0:0:
305,227,204051,1,0,0:0:0:0:
321,191,204137,1,2,0:3:0:0:
325,152,204222,1,2,0:3:0:0:
259,35,204394,1,4,3:1:0:0:
106,159,204565,1,8,0:0:0:0:
200,354,204737,5,2,3:3:0:0:
239,351,204822,1,2,0:3:0:0:
278,348,204908,1,4,0:0:0:0:
317,345,204994,1,2,0:3:0:0:
357,342,205079,1,2,3:3:0:0:
137,268,205251,1,8,0:0:0:0:
263,123,205422,5,0,0:0:0:0:
271,161,205507,1,2,0:3:0:0:
269,200,205593,1,0,0:0:0:0:
257,237,205679,1,2,0:3:0:0:
235,270,205764,1,4,0:0:0:0:
139,55,205937,2,0,P|89:41|19:59,1,112.500004291535,8|0,0:0|3:1,0:0:0:0:
263,123,206280,6,0,L|393:109,1,112.500004291535,4|0,0:0|0:0,0:0:0:0:
150,293,206622,1,8,0:0:0:0:
391,256,206794,1,2,0:3:0:0:
406,220,206879,1,2,0:3:0:0:
407,180,206965,1,0,0:0:0:0:
396,142,207051,1,2,0:3:0:0:
374,110,207136,1,4,0:0:0:0:
143,185,207308,6,0,L|269:193,1,112.500004291535,8|0,0:0|3:1,0:0:0:0:
266,195,207565,1,2,0:0:0:0:
277,196,207651,1,4,0:0:0:0:
288,198,207737,1,2,0:0:0:0:
299,199,207822,1,2,3:1:0:0:
76,48,207994,6,0,P|55:99|53:182,1,112.500004291535,8|0,0:0|0:0,0:0:0:0:
64,191,208251,1,0,0:0:0:0:
83,218,208337,2,0,L|154:224,1,56.2500021457673,2|2,0:3|0:3,0:0:0:0:
60,299,208508,2,0,L|-11:305,1,56.2500021457673,4|0,3:1|0:0,0:0:0:0:
122,355,208680,2,0,P|197:365|252:345,1,112.500004291535,8|0,0:0|0:0,0:0:0:0:
209,135,209022,6,0,L|194:273,1,112.500004291535,4|0,0:0|0:0,0:0:0:0:
110,43,209365,1,8,0:0:0:0:
300,192,209537,1,0,0:0:0:0:
335,207,209622,1,2,0:3:0:0:
375,208,209708,1,0,0:0:0:0:
413,197,209794,1,2,0:3:0:0:
445,175,209879,1,4,3:1:0:0:
285,330,210051,5,8,0:0:0:0:
235,124,210222,1,0,3:1:0:0:
203,102,210307,1,2,0:3:0:0:
165,91,210393,1,4,0:0:0:0:
125,92,210479,1,2,0:3:0:0:
90,107,210564,1,2,3:3:0:0:
170,333,210737,6,0,P|232:339|297:319,1,112.500004291535,8|0,0:0|0:0,0:0:0:0:
310,311,210994,1,2,0:3:0:0:
348,302,211080,1,0,0:0:0:0:
386,310,211165,1,2,0:3:0:0:
419,331,211251,1,4,0:0:0:0:
213,202,211422,2,0,L|222:58,1,112.500004291535,8|0,0:0|3:1,0:0:0:0:
276,28,211680,1,0,0:0:0:0:
276,28,211765,6,0,P|328:21|388:32,1,112.500004291535,4|0,0:0|0:0,0:0:0:0:
132,99,212108,1,8,0:0:0:0:
341,263,212280,5,0,0:0:0:0:
338,223,212365,1,2,0:3:0:0:
335,184,212451,1,0,0:0:0:0:
332,145,212537,1,2,0:3:0:0:
329,106,212622,1,4,3:1:0:0:
304,354,212794,2,0,P|367:353|418:320,1,112.500004291535,8|0,0:0|3:1,0:0:0:0:
428,295,213051,1,2,0:0:0:0:
432,255,213137,6,0,L|425:175,2,56.2500021457673,4|2|2,0:0|0:0|0:0,0:0:0:0:
466,40,213480,2,0,P|413:34|345:65,1,112.500004291535,8|0,0:0|0:0,0:0:0:0:
297,114,213737,1,0,0:0:0:0:
297,114,213823,2,0,L|209:121,1,56.2500021457673,2|2,0:3|0:3,0:0:0:0:
350,175,213994,2,0,L|406:179,1,56.2500021457673,4|0,3:1|0:0,0:0:0:0:
282,236,214165,2,0,P|232:247|147:230,1,112.500004291535,8|0,0:0|0:0,0:0:0:0:
188,28,214508,6,0,P|204:96|204:148,1,112.500004291535,4|0,0:0|0:0,0:0:0:0:
102,311,214851,1,8,0:0:0:0:
314,284,215022,1,0,0:0:0:0:
316,255,215107,1,2,0:3:0:0:
318,227,215193,1,0,0:0:0:0:
320,199,215279,1,2,0:3:0:0:
322,171,215364,1,4,3:1:0:0:
180,189,215537,1,8,0:0:0:0:
453,231,215708,1,0,3:1:0:0:
460,192,215793,1,2,0:3:0:0:
468,152,215880,6,0,L|481:74,2,56.2500021457673,4|2|2,0:0|0:3|3:3,0:0:0:0:
431,346,216222,1,8,0:0:0:0:
211,233,216394,1,0,0:0:0:0:
172,222,216480,1,2,0:3:0:0:
133,219,216565,1,0,0:0:0:0:
94,225,216651,1,2,0:3:0:0:
57,239,216737,2,0,P|55:281|61:309,1,56.2500021457673,4|0,0:0|0:0,0:0:0:0:
105,369,216908,1,8,0:0:0:0:
92,69,217080,1,0,3:1:0:0:
70,101,217165,1,0,0:0:0:0:
58,140,217251,6,0,P|122:159|229:127,1,168.750006437302,4|0,0:0|0:0,0:0:0:0:
316,229,217594,2,0,B|322:284|322:284|308:339,1,112.500004291535,8|0,0:0|0:0,0:0:0:0:
229,307,217851,1,0,0:0:0:0:
218,287,217937,2,0,L|210:230,1,56.2500021457673,2|2,0:3|0:3,0:0:0:0:
310,93,218108,2,0,L|366:95,1,56.2500021457673,4|0,3:1|0:0,0:0:0:0:
490,201,218280,2,0,B|405:198|405:198|436:228,1,112.500004291535,8|0,0:0|3:1,0:0:0:0:
477,282,218537,5,2,0:0:0:0:
281,158,218708,1,2,0:0:0:0:
272,172,218794,1,4,0:0:0:0:
335,282,218965,1,8,0:0:0:0:
369,64,219137,1,0,0:0:0:0:
369,64,219222,1,0,0:0:0:0:
369,64,219308,2,0,P|337:71|313:69,1,56.2500021457673,2|2,0:3|0:3,0:0:0:0:
191,138,219480,2,0,P|179:199|188:239,1,56.2500021457673,4|0,3:1|0:0,0:0:0:0:
370,273,219651,2,0,L|314:278,1,56.2500021457673,8|0,0:0|0:0,0:0:0:0:
148,340,219822,2,0,L|203:346,1,56.2500021457673
286,141,219994,6,0,P|273:87|231:50,1,112.500004291535,4|0,0:0|0:0,0:0:0:0:
61,257,220337,2,0,B|117:274|117:274|189:257,1,112.500004291535,8|0,0:0|0:0,0:0:0:0:
244,233,220594,1,0,0:0:0:0:
264,226,220680,2,0,L|328:236,1,56.2500021457673,2|2,0:3|0:3,0:0:0:0:
442,218,220851,2,0,P|451:265|452:299,1,56.2500021457673,4|0,3:1|0:0,0:0:0:0:
327,345,221022,2,0,P|315:271|320:230,1,112.500004291535,8|0,0:0|3:1,0:0:0:0:
298,153,221280,1,2,0:3:0:0:
282,141,221365,6,0,L|213:149,2,56.2500021457673,4|2|2,0:0|0:3|3:3,0:0:0:0:
184,303,221708,2,0,P|111:301|67:281,1,112.500004291535,8|0,0:0|0:0,0:0:0:0:
94,210,221965,1,0,0:0:0:0:
106,191,222051,2,0,L|173:186,1,56.2500021457673,2|2,0:3|0:3,0:0:0:0:
263,74,222222,2,0,L|196:66,1,56.2500021457673,4|0,3:1|0:0,0:0:0:0:
128,58,222394,1,8,0:0:0:0:
338,217,222565,2,0,L|343:284,1,56.2500021457673
241,360,222737,6,0,B|234:233|234:233|201:286,1,168.750006437302,4|0,0:0|0:0,0:0:0:0:
327,356,223080,2,0,P|382:352|421:311,1,112.500004291535,8|0,0:0|0:0,0:0:0:0:
412,235,223337,1,2,0:3:0:0:
417,202,223422,1,0,0:0:0:0:
420,168,223508,1,2,0:3:0:0:
424,134,223594,1,0,3:1:0:0:
290,51,223765,2,0,P|273:107|286:162,1,112.500004291535,8|0,0:0|3:1,0:0:0:0:
294,239,224022,1,0,0:0:0:0:
279,257,224108,6,0,L|272:320,2,56.2500021457673,2|2|0,0:3|0:3|0:0,0:0:0:0:
130,131,224451,2,0,P|56:122|6:152,1,112.500004291535
78,215,224708,1,2,0:3:0:0:
95,229,224794,2,0,P|138:237|166:231,1,56.2500021457673,2|2,0:3|0:3,0:0:0:0:
270,198,224965,2,0,L|273:271,1,56.2500021457673,0|0,3:1|0:0,0:0:0:0:
280,336,225137,1,2,0:3:0:0:
289,348,225480,6,0,L|298:232,1,112.500004291535,6|0,0:0|3:1,0:0:0:0:
115,144,225822,2,0,P|123:217|159:263,1,112.500004291535,8|0,0:0|0:0,0:0:0:0:
181,326,226080,1,0,0:0:0:0:
165,338,226165,2,0,L|97:331,1,56.2500021457673,2|2,0:3|0:3,0:0:0:0:
27,220,226337,2,0,L|91:214,1,56.2500021457673,4|0,3:1|0:0,0:0:0:0:
285,123,226508,2,0,L|296:234,1,112.500004291535,8|0,0:0|3:1,0:0:0:0:
314,263,226765,1,2,0:3:0:0:
327,294,226851,6,0,L|334:367,2,56.2500021457673,4|2|2,0:0|0:3|3:3,0:0:0:0:
457,217,227194,1,8,0:0:0:0:
192,204,227365,1,0,0:0:0:0:
164,199,227450,1,2,0:3:0:0:
136,194,227536,1,0,0:0:0:0:
108,189,227622,1,2,0:3:0:0:
81,184,227708,2,0,L|8:197,1,56.2500021457673,4|0,3:1|0:0,0:0:0:0:
94,311,227880,2,0,L|207:319,1,112.500004291535,8|0,0:0|0:0,0:0:0:0:
281,274,228137,1,0,0:0:0:0:
292,260,228222,6,0,B|301:215|301:215|282:187|282:187|277:131,2,112.500004291535,4|0|8,0:0|3:1|0:0,0:0:0:0:
429,182,228737,1,0,0:0:0:0:
432,177,228822,1,2,0:3:0:0:
434,172,228908,1,0,0:0:0:0:
435,166,228994,1,2,0:3:0:0:
434,160,229080,2,0,L|352:152,1,56.2500021457673,4|0,3:1|0:0,0:0:0:0:
264,53,229251,2,0,B|350:47|350:47|326:77,1,112.500004291535,8|0,0:0|0:0,0:0:0:0:
293,133,229508,5,2,0:0:0:0:
399,297,229680,1,2,0:0:0:0:
403,315,229765,1,4,3:1:0:0:
193,286,229937,2,0,L|65:266,1,112.500004291535,8|0,0:0|0:0,0:0:0:0:
41,196,230194,1,0,0:0:0:0:
54,181,230280,2,0,L|114:191,1,56.2500021457673,2|2,0:3|0:3,0:0:0:0:
135,357,230451,2,0,L|75:347,1,56.2500021457673,4|0,3:1|0:0,3:1:0:0:
15,305,230622,1,8,0:0:0:0:
271,156,230794,1,0,0:0:0:0:
415,264,230965,6,0,P|441:234|441:145,2,112.500004291535,4|0|8,0:0|3:1|0:0,0:0:0:0:
292,308,231480,2,0,L|297:252,1,56.2500021457673
177,215,231651,2,0,L|171:159,1,56.2500021457673,2|2,0:3|0:3,0:0:0:0:
274,118,231822,2,0,L|279:62,1,56.2500021457673,4|0,3:1|0:0,0:0:0:0:
67,107,231994,2,0,B|62:140|62:140|71:221,1,112.500004291535,8|0,0:0|3:1,0:0:0:0:
113,293,232251,1,2,0:3:0:0:
130,308,232337,6,0,P|155:319|183:322,2,56.2500021457673,4|2|2,0:0|0:3|3:3,0:0:0:0:
189,208,232680,1,8,0:0:0:0:
372,291,232851,1,0,0:0:0:0:
372,291,232937,1,0,0:0:0:0:
372,291,233022,2,0,L|452:271,1,56.2500021457673,2|2,0:3|0:3,0:0:0:0:
331,154,233194,2,0,L|372:102,1,56.2500021457673,4|0,3:1|0:0,0:0:0:0:
188,98,233365,2,0,P|177:153|189:208,1,112.500004291535,8|0,0:0|0:0,0:0:0:0:
198,219,233622,1,2,0:3:0:0:
210,232,233708,6,0,P|143:270|83:268,1,112.500004291535,4|0,0:0|0:0,0:0:0:0:
63,140,234051,1,8,0:0:0:0:
280,110,234222,1,0,0:0:0:0:
307,105,234307,1,2,0:3:0:0:
335,104,234393,1,0,0:0:0:0:
363,108,234479,1,2,0:3:0:0:
390,115,234565,2,0,L|403:204,1,56.2500021457673,4|0,0:0|0:0,0:0:0:0:
347,276,234737,2,0,B|296:248|292:207|292:207|283:213|273:215,1,112.500004291535,8|0,0:0|0:0,0:0:0:0:
196,220,234994,5,2,0:0:0:0:
378,83,235165,1,2,0:0:0:0:
385,66,235251,1,4,3:1:0:0:
129,53,235422,2,0,L|136:168,1,112.500004291535,8|0,0:0|0:0,0:0:0:0:
196,220,235680,1,0,0:0:0:0:
208,234,235765,2,0,L|211:290,1,56.2500021457673,2|2,0:3|0:3,0:0:0:0:
55,217,235937,2,0,L|51:160,1,56.2500021457673,4|0,0:0|0:0,0:0:0:0:
45,79,236108,1,8,0:0:0:0:
155,353,236280,1,0,3:1:0:0:
335,328,236451,6,0,L|348:273,2,56.2500021457673,4|0|0,0:0|0:0|3:1,0:0:0:0:
239,195,236794,2,0,P|231:131|239:75,1,112.500004291535,8|0,0:0|0:0,0:0:0:0:
236,83,237051,1,2,0:3:0:0:
236,83,237137,1,2,0:3:0:0:
369,144,237308,1,4,3:1:0:0:
81,214,237480,1,8,0:0:0:0:
222,332,237651,1,0,3:1:0:0:
259,345,237736,1,2,0:3:0:0:
298,341,237822,5,4,0:0:0:0:
332,322,237908,1,2,0:3:0:0:
356,291,237994,2,0,P|363:238|361:214,1,56.2500021457673,2|0,3:3|0:0,0:0:0:0:
236,83,238165,2,0,P|230:138|237:195,1,112.500004291535,8|0,0:0|0:0,0:0:0:0:
187,259,238422,1,0,0:0:0:0:
174,270,238508,2,0,L|96:275,1,56.2500021457673,2|2,0:3|0:3,0:0:0:0:
12,166,238680,2,0,L|68:169,1,56.2500021457673,4|0,3:1|0:0,0:0:0:0:
166,287,238851,2,0,L|88:278,1,56.2500021457673,8|0,0:0|0:0,0:0:0:0:
21,149,239022,2,0,L|75:162,1,56.2500021457673,2|2,0:3|0:3,0:0:0:0:
44,348,239194,6,0,P|20:297|23:241,1,112.500004291535,4|0,0:0|3:1,0:0:0:0:
264,91,239537,1,8,0:0:0:0:
376,193,239708,1,0,0:0:0:0:
379,220,239793,1,2,0:3:0:0:
382,248,239879,1,0,0:0:0:0:
385,276,239965,1,2,0:3:0:0:
388,304,240051,2,0,L|336:338,1,56.2500021457673,4|0,3:1|0:0,0:0:0:0:
184,266,240222,2,0,B|259:278|259:278|294:259,1,112.500004291535,8|0,0:0|0:0,0:0:0:0:
246,195,240480,5,2,0:0:0:0:
73,319,240651,1,2,0:0:0:0:
66,336,240737,1,4,3:1:0:0:
19,138,240908,2,0,L|131:132,1,112.500004291535,8|0,0:0|0:0,0:0:0:0:
210,128,241165,1,0,0:0:0:0:
231,140,241251,2,0,P|244:185|246:220,1,56.2500021457673,2|2,0:3|0:3,0:0:0:0:
159,350,241422,2,0,P|152:322|150:294,1,56.2500021457673,4|0,3:1|0:0,0:0:0:0:
160,216,241594,1,8,0:0:0:0:
445,252,241765,1,0,0:0:0:0:
176,212,241937,6,0,P|239:211|291:217,1,112.500004291535,4|0,0:0|3:1,0:0:0:0:
362,338,242280,1,8,0:0:0:0:
429,151,242451,1,0,0:0:0:0:
431,122,242536,1,2,0:3:0:0:
433,94,242622,1,0,0:0:0:0:
436,66,242708,1,2,0:3:0:0:
438,38,242793,1,4,3:1:0:0:
276,79,242965,1,8,0:0:0:0:
289,280,243137,1,2,3:3:0:0:
289,280,243223,1,2,0:3:0:0:
289,280,243309,6,0,L|298:356,1,56.2500021457673,4|0,0:0|0:0,0:0:0:0:
431,289,243480,2,0,L|435:232,1,56.2500021457673,0|0,3:1|0:0,0:0:0:0:
247,160,243651,2,0,B|202:154|202:154|126:163,1,112.500004291535,8|0,0:0|0:0,0:0:0:0:
87,230,243908,1,0,0:0:0:0:
102,245,243994,2,0,L|172:254,1,56.2500021457673,2|2,0:3|0:3,0:0:0:0:
284,336,244165,2,0,L|226:342,1,56.2500021457673,4|0,3:1|0:0,0:0:0:0:
151,350,244336,1,8,0:0:0:0:
62,92,244508,1,2,0:3:0:0:
62,92,244594,1,2,0:3:0:0:
62,92,244680,6,0,P|124:71|198:74,1,112.500004291535,4|0,0:0|0:0,0:0:0:0:
438,144,245022,2,0,B|405:224|405:224|393:201,1,112.500004291535,8|0,0:0|0:0,0:0:0:0:
342,136,245280,1,0,0:0:0:0:
320,129,245365,2,0,L|252:137,1,56.2500021457673,2|2,0:3|0:3,0:0:0:0:
214,258,245537,2,0,L|282:266,1,56.2500021457673,4|0,0:0|0:0,0:0:0:0:
399,333,245708,2,0,L|406:214,1,112.500004291535,8|0,0:0|0:0,0:0:0:0:
416,141,245965,5,2,0:0:0:0:
206,276,246137,1,2,0:0:0:0:
198,295,246222,1,4,3:1:0:0:
246,35,246394,1,8,0:0:0:0:
79,154,246565,1,0,0:0:0:0:
76,168,246651,1,2,0:3:0:0:
74,182,246737,2,0,L|16:168,2,56.2500021457673,0|2|0,0:0|0:3|0:0,0:0:0:0:
330,203,247080,1,2,0:0:0:0:
191,312,247251,1,2,0:3:0:0:
166,59,247422,6,0,B|237:31|291:59|291:59|356:41|356:41|398:64|444:48,1,281.25
437,50,248794,6,0,B|445:120|413:156|413:156|413:191|434:219|434:219|395:222|374:262|323:244,1,281.25
338,248,250165,6,0,P|236:204|174:268,1,206.25
176,261,251194,6,0,B|111:298|53:275|53:275|95:193|53:136|53:136|140:151|194:109|195:56|274:57,1,498.749984779358
253,58,252908,6,0,B|373:88|336:26|458:73|458:73|431:184|499:156|451:260,1,393.749987983704
454,252,254280,6,0,B|352:317|273:268|273:268|200:225|138:259|79:297,1,393.749987983704
85,293,255651,6,0,B|101:215|75:120|75:120|140:163|193:131,1,288.74999118805
182,136,256680,6,0,B|296:98|374:127|374:127|406:63|465:71|465:71|504:148|385:190|456:278,1,524.999983978272
256,192,258480,12,0,261051,0:0:0:0:
256,192,261137,12,0,263194,0:0:0:0:
115,227,263880,6,0,B|174:247|260:216|260:216|233:271|233:271|308:254|361:263,1,337.499989700318
360,262,265251,6,0,B|342:152|388:171|356:79|356:79|257:53|286:111|193:76,1,337.499989700318
208,81,266622,6,0,P|146:58|141:198,1,247.4999924469
181,237,267651,5,0,0:0:0:0:
256,192,267994,12,0,269194,0:0:0:0:
323,98,269365,5,6,3:1:0:0:
245,322,269537,1,0,0:0:0:0:
84,224,269708,2,0,P|84:152|100:88,1,127.50000243187,10|0,0:0|0:0,0:0:0:0:
176,92,269965,1,2,0:3:0:0:
191,111,270051,2,0,L|199:179,2,63.7500012159348,0|2|6,0:0|0:3|0:0,0:0:0:0:
70,241,270394,1,8,0:0:0:0:
215,336,270565,5,2,0:3:0:0:
269,352,270650,1,2,0:3:0:0:
326,352,270736,1,6,0:0:0:0:
379,330,270822,1,2,0:3:0:0:
420,291,270907,1,0,0:0:0:0:
447,121,271080,2,0,L|320:131,1,127.50000243187,10|0,0:0|0:0,0:0:0:0:
251,79,271337,1,2,0:3:0:0:
231,63,271422,2,0,L|154:50,2,63.7500012159348,0|2|6,0:0|0:3|0:0,0:0:0:0:
154,316,271765,1,8,0:0:0:0:
411,368,271937,1,2,0:3:0:0:
427,320,272022,1,2,0:3:0:0:
444,273,272108,6,0,B|456:223|456:223|444:123,1,127.50000243187,6|0,3:1|0:0,0:0:0:0:
235,208,272451,2,0,B|225:283|225:283|237:333,1,127.50000243187,10|0,0:0|0:0,0:0:0:0:
323,322,272708,1,2,0:3:0:0:
334,299,272794,2,0,L|344:221,2,63.7500012159348,0|2|6,0:0|0:3|0:0,0:0:0:0:
64,76,273137,2,0,P|130:113|201:89,1,127.50000243187,8|0,0:0|0:0,0:0:0:0:
251,69,273394,5,4,0:3:0:0:
468,181,273565,1,4,0:3:0:0:
448,236,273651,1,4,0:0:0:0:
225,232,273822,2,0,L|85:212,1,127.50000243187,10|0,0:0|0:0,0:0:0:0:
104,232,274080,1,2,0:3:0:0:
107,250,274165,1,0,0:0:0:0:
110,268,274251,1,2,0:3:0:0:
115,286,274337,2,0,L|182:295,1,63.7500012159348,6|0,0:0|0:0,0:0:0:0:
343,299,274508,2,0,P|357:270|363:239,1,63.7500012159348,8|0,0:0|0:0,0:0:0:0:
216,91,274680,2,0,P|202:119|196:150,1,63.7500012159348,2|2,0:3|0:3,0:0:0:0:
462,251,274851,6,0,B|475:182|424:124|424:124|456:137|497:115,1,191.250003647804,6|0,3:1|0:0,0:0:0:0:
374,36,275194,2,0,P|328:99|332:157,1,127.50000243187,10|0,0:0|0:0,0:0:0:0:
356,223,275451,1,4,0:3:0:0:
114,286,275622,1,4,0:3:0:0:
92,232,275708,1,6,0:0:0:0:
265,357,275880,2,0,L|257:225,1,127.50000243187,8|0,0:0|0:0,0:0:0:0:
239,195,276137,1,2,0:3:0:0:
220,161,276222,6,0,L|215:73,2,63.7500012159348,6|2|2,0:0|0:3|0:3,0:0:0:0:
371,343,276565,2,0,P|455:337|491:305,1,127.50000243187,10|0,0:0|0:0,0:0:0:0:
488,234,276822,2,0,L|476:153,1,63.7500012159348,2|0,0:3|0:0,0:0:0:0:
400,128,276994,1,2,0:3:0:0:
385,106,277080,2,0,L|394:1,1,63.7500012159348,6|0,0:0|0:0,0:0:0:0:
221,128,277251,2,0,P|203:187|218:261,1,127.50000243187,8|0,0:0|0:0,0:0:0:0:
176,323,277508,1,0,0:0:0:0:
152,332,277594,6,0,P|93:339|23:307,1,127.50000243187,6|0,3:1|0:0,0:0:0:0:
125,65,277937,1,10,0:0:0:0:
328,142,278108,1,2,0:3:0:0:
354,192,278193,1,2,0:3:0:0:
364,248,278279,1,0,0:0:0:0:
359,305,278365,1,2,0:3:0:0:
335,357,278450,1,6,0:0:0:0:
143,298,278622,2,0,B|165:255|147:206|147:206|166:219|183:217,1,127.50000243187,8|0,0:0|0:0,0:0:0:0:
255,205,278880,5,4,0:3:0:0:
454,114,279051,1,4,0:3:0:0:
466,170,279137,1,4,0:0:0:0:
155,122,279308,2,0,L|285:118,1,127.50000243187,10|0,0:0|0:0,0:0:0:0:
333,183,279565,1,0,0:0:0:0:
318,203,279651,2,0,L|254:204,1,63.7500012159348,2|2,0:3|0:3,0:0:0:0:
183,43,279822,2,0,L|246:41,1,63.7500012159348,6|0,0:0|0:0,0:0:0:0:
325,42,279994,1,8,0:0:0:0:
156,340,280165,1,0,0:0:0:0:
29,222,280337,6,0,B|24:148|24:148|42:104|42:104|38:20,1,191.250003647804,6|0,3:1|0:0,0:0:0:0:
110,170,280680,2,0,B|114:248|114:248|78:318,1,127.50000243187,10|0,0:0|0:0,0:0:0:0:
44,356,280937,1,4,0:3:0:0:
285,277,281108,1,4,0:3:0:0:
271,332,281194,1,6,0:0:0:0:
164,102,281365,2,0,P|153:55|179:96,1,127.50000243187,8|0,0:0|0:0,0:0:0:0:
200,173,281622,1,2,0:3:0:0:
222,184,281708,6,0,P|263:186|293:177,2,63.7500012159348,6|2|2,0:0|0:3|0:3,0:0:0:0:
434,64,282051,2,0,P|472:121|475:191,1,127.50000243187,10|0,0:0|0:0,0:0:0:0:
468,201,282308,1,2,0:3:0:0:
459,225,282394,1,0,0:0:0:0:
450,249,282480,1,2,0:3:0:0:
440,272,282565,2,0,L|370:277,1,63.7500012159348,6|0,0:0|0:0,0:0:0:0:
237,122,282737,2,0,P|309:131|347:174,1,127.50000243187,8|0,0:0|0:0,0:0:0:0:
293,228,282994,1,0,0:0:0:0:
279,249,283080,6,0,B|266:315|266:315|277:375,1,127.50000243187,6|0,3:1|0:0,0:0:0:0:
436,350,283422,1,10,0:0:0:0:
123,184,283594,1,0,0:0:0:0:
70,207,283680,1,2,0:3:0:0:
47,259,283765,2,0,P|43:295|49:328,1,63.7500012159348,0|2,0:0|0:3,0:0:0:0:
206,228,283937,2,0,P|214:192|211:147,1,63.7500012159348,6|0,0:0|0:0,0:0:0:0:
91,73,284108,2,0,L|248:61,1,127.50000243187,8|0,0:0|0:0,0:0:0:0:
299,56,284365,5,4,0:3:0:0:
329,232,284537,1,4,0:3:0:0:
359,280,284622,1,4,0:0:0:0:
134,346,284794,2,0,P|117:284|125:222,1,127.50000243187,10|0,0:0|0:0,0:0:0:0:
202,189,285051,1,0,0:0:0:0:
215,209,285137,2,0,P|216:241|210:272,1,63.7500012159348,2|2,0:3|0:3,0:0:0:0:
40,353,285308,2,0,P|29:302|31:263,1,63.7500012159348,6|0,0:0|0:0,0:0:0:0:
36,208,285480,1,8,0:0:0:0:
359,348,285651,1,0,0:0:0:0:
468,176,285822,6,0,L|337:158,1,127.50000243187,6|0,3:1|0:0,0:0:0:0:
153,341,286165,2,0,P|216:309|252:244,1,127.50000243187,10|0,0:0|0:0,0:0:0:0:
253,181,286422,1,4,0:3:0:0:
69,62,286594,1,4,0:3:0:0:
55,118,286680,1,6,0:0:0:0:
266,167,286851,1,8,0:0:0:0:
125,251,287022,1,2,0:3:0:0:
136,306,287108,1,2,0:3:0:0:
147,362,287194,6,0,P|109:366|73:365,2,63.7500012159348,6|2|0,0:0|0:3|0:0,0:0:0:0:
385,268,287537,1,10,0:0:0:0:
235,115,287708,1,0,0:0:0:0:
273,72,287793,1,2,0:3:0:0:
325,50,287879,1,0,0:0:0:0:
382,50,287965,1,2,0:3:0:0:
434,73,288050,1,6,0:0:0:0:
404,260,288222,1,8,0:0:0:0:
150,193,288394,2,0,B|115:185|115:185|70:199,1,63.7500012159348,2|2,0:3|0:3,0:0:0:0:
124,281,288565,6,0,B|181:294|181:294|266:268,1,127.50000243187,6|0,3:1|0:0,0:0:0:0:
307,125,288908,1,10,0:0:0:0:
128,98,289080,2,0,L|134:161,1,63.7500012159348
136,167,289251,1,0,0:0:0:0:
138,172,289337,1,0,0:0:0:0:
140,177,289422,1,0,0:0:0:0:
142,182,289508,1,0,0:0:0:0:
143,188,289594,1,0,0:0:0:0:
144,194,289680,1,0,0:0:0:0:
146,199,289765,2,0,L|153:272,1,63.7500012159348,4|0,3:0|0:0,0:0:0:0:
241,345,289937,6,0,L|246:273,1,63.7500012159348
303,204,290108,1,0,0:0:0:0:
341,204,290194,1,0,0:0:0:0:
375,220,290280,2,0,L|393:369,1,127.50000243187
433,134,290622,2,0,L|370:120,1,63.7500012159348
148,141,290794,6,0,B|214:181|214:181|214:134,1,100
307,250,290965,2,0,B|308:172|308:172|288:184,1,100
322,57,291137,2,0,B|254:94|254:94|274:105,1,100
396,210,291308,6,0,P|404:275|375:329,1,127.50000243187,6|0,3:1|0:0,0:0:0:0:
62,247,291651,1,10,0:0:0:0:
245,39,291822,1,2,0:3:0:0:
299,25,291907,1,2,0:3:0:0:
357,33,291993,1,0,0:0:0:0:
406,59,292079,1,2,0:3:0:0:
444,103,292164,1,6,0:0:0:0:
314,254,292337,1,8,3:1:0:0:
88,246,292508,5,0,0:0:0:0:
65,193,292593,1,2,0:3:0:0:
62,136,292679,1,6,0:0:0:0:
79,82,292765,1,0,0:0:0:0:
114,37,292850,1,2,0:3:0:0:
246,179,293022,1,10,0:0:0:0:
351,330,293194,1,2,0:3:0:0:
406,345,293280,1,2,0:3:0:0:
460,328,293365,2,0,P|468:284|469:229,1,63.7500012159348,2|0,0:3|0:0,0:0:0:0:
339,150,293537,2,0,P|342:181|348:212,1,63.7500012159348,6|0,0:0|0:0,0:0:0:0:
472,75,293708,2,0,B|385:42|385:42|395:66|388:92,1,127.50000243187,8|0,3:1|0:0,0:0:0:0:
300,77,293965,1,2,0:3:0:0:
283,66,294051,6,0,L|115:55,1,127.50000243187,6|0,3:1|0:0,0:0:0:0:
16,242,294394,2,0,B|68:258|68:258|153:247,1,127.50000243187,10|0,0:0|0:0,0:0:0:0:
220,235,294651,1,0,0:0:0:0:
238,252,294737,2,0,L|254:342,1,63.7500012159348,2|2,0:3|0:3,0:0:0:0:
394,366,294908,2,0,L|405:303,1,63.7500012159348,6|0,0:0|0:0,0:0:0:0:
301,100,295080,2,0,P|207:74|140:97,1,127.50000243187,8|0,3:1|0:0,0:0:0:0:
108,121,295337,5,4,0:3:0:0:
172,295,295508,1,4,0:3:0:0:
139,342,295594,1,4,0:0:0:0:
365,271,295765,2,0,L|501:264,1,127.50000243187,10|0,0:0|0:0,0:0:0:0:
500,240,296022,1,2,0:3:0:0:
493,215,296108,1,0,0:0:0:0:
480,192,296194,1,2,0:3:0:0:
458,177,296280,2,0,L|391:180,1,63.7500012159348,6|0,0:0|0:0,0:0:0:0:
353,357,296451,2,0,L|416:354,1,63.7500012159348,8|0,3:1|0:0,0:0:0:0:
242,175,296622,2,0,L|245:282,1,63.7500012159348,2|2,0:3|0:3,0:0:0:0:
368,91,296794,6,0,P|326:43|268:19,1,127.50000243187,6|0,3:1|0:0,0:0:0:0:
59,244,297137,1,10,0:0:0:0:
329,363,297308,1,0,0:0:0:0:
337,306,297393,1,2,0:3:0:0:
324,251,297479,1,0,0:0:0:0:
291,205,297565,1,2,0:3:0:0:
242,175,297651,2,0,P|201:217|188:247,1,63.7500012159348,6|0,0:0|0:0,0:0:0:0:
378,166,297822,6,0,P|364:104|323:56,1,127.50000243187,8|0,3:1|0:0,0:0:0:0:
266,71,298080,1,2,0:3:0:0:
209,77,298165,1,6,0:0:0:0:
152,67,298251,1,2,0:3:0:0:
105,33,298337,2,0,P|133:19|164:13,1,63.7500012159348
242,175,298508,6,0,P|253:258|244:347,1,127.50000243187,10|0,0:0|0:0,0:0:0:0:
182,350,298765,1,0,0:0:0:0:
150,353,298851,2,0,L|81:342,1,63.7500012159348,2|2,0:3|0:3,0:0:0:0:
12,218,299022,2,0,L|81:207,1,63.7500012159348,6|0,0:0|0:0,0:0:0:0:
278,85,299194,6,0,L|112:61,1,127.50000243187,8|0,3:1|0:0,0:0:0:0:
83,110,299451,1,2,0:3:0:0:
95,135,299537,2,0,L|245:158,1,127.50000243187,6|0,3:1|0:0,0:0:0:0:
441,64,299880,1,10,0:0:0:0:
412,316,300051,1,0,0:0:0:0:
364,346,300136,1,2,0:3:0:0:
307,354,300222,1,0,0:0:0:0:
251,338,300308,1,2,0:3:0:0:
208,298,300394,2,0,L|195:220,1,63.7500012159348,6|0,0:0|0:0,0:0:0:0:
341,64,300565,2,0,L|322:218,1,127.50000243187,8|0,3:1|0:0,0:0:0:0:
313,267,300822,5,4,0:3:0:0:
119,119,300994,1,4,0:3:0:0:
64,137,301080,1,4,0:0:0:0:
154,370,301251,2,0,P|188:306|185:234,1,127.50000243187,10|0,0:0|0:0,0:0:0:0:
114,198,301508,1,2,0:3:0:0:
101,219,301594,2,0,P|96:253|103:294,1,63.7500012159348
260,368,301765,2,0,P|275:304|274:276,1,63.7500012159348,2|2,0:0|0:3,0:0:0:0:
217,160,301937,2,0,L|314:150,1,63.7500012159348,8|0,3:1|0:0,0:0:0:0:
374,40,302108,2,0,L|299:28,1,63.7500012159348,2|2,0:3|0:3,0:0:0:0:
92,97,302280,6,0,P|80:159|101:219,1,127.50000243187,6|0,3:1|0:0,0:0:0:0:
431,287,302622,1,10,0:0:0:0:
290,123,302794,1,0,0:0:0:0:
249,163,302879,1,2,0:3:0:0:
224,214,302965,1,0,0:0:0:0:
215,271,303051,1,2,0:3:0:0:
224,327,303137,2,0,P|290:335|328:331,1,63.7500012159348,6|0,0:0|0:0,0:0:0:0:
171,150,303308,2,0,P|106:147|28:178,1,127.50000243187,8|0,3:1|0:0,0:0:0:0:
25,244,303565,1,2,0:3:0:0:
35,270,303651,6,0,L|43:340,2,63.7500012159348,6|0|0,0:0|0:0|0:0,0:0:0:0:
219,42,303994,1,10,0:0:0:0:
441,196,304165,1,0,0:0:0:0:
407,241,304250,1,2,0:3:0:0:
357,269,304336,1,0,0:0:0:0:
300,274,304422,1,2,0:3:0:0:
247,256,304508,2,0,P|238:225|237:193,1,63.7500012159348,6|0,0:0|0:0,0:0:0:0:
110,28,304680,2,0,P|122:90|122:154,1,127.50000243187,8|0,3:1|0:0,0:0:0:0:
100,240,304937,1,2,0:3:0:0:
120,258,305022,6,0,P|183:265|246:256,1,127.50000243187,6|0,3:1|0:0,0:0:0:0:
467,225,305365,1,10,0:0:0:0:
303,60,305537,1,2,0:3:0:0:
258,95,305622,1,2,0:3:0:0:
232,146,305708,1,0,0:0:0:0:
228,203,305794,1,2,0:3:0:0:
246,256,305880,2,0,P|311:271|338:270,1,63.7500012159348,6|0,0:0|0:0,0:0:0:0:
167,66,306051,2,0,P|138:123|135:193,1,127.50000243187,8|0,3:1|0:0,0:0:0:0:
153,266,306308,5,4,0:3:0:0:
394,191,306480,1,4,0:3:0:0:
383,135,306565,1,4,0:0:0:0:
259,348,306737,1,10,0:0:0:0:
69,287,306908,1,0,0:0:0:0:
35,241,306993,1,2,0:3:0:0:
20,185,307079,1,0,0:0:0:0:
30,128,307165,1,2,0:3:0:0:
60,79,307251,2,0,L|132:71,1,63.7500012159348,6|0,0:0|0:0,0:0:0:0:
339,63,307422,2,0,L|351:150,1,63.7500012159348,8|0,3:1|0:0,0:0:0:0:
196,265,307594,2,0,L|199:200,1,63.7500012159348,2|2,0:3|0:3,0:0:0:0:
405,237,307765,6,0,P|418:324|394:391,1,127.50000243187,6|0,3:1|0:0,0:0:0:0:
112,318,308108,1,10,0:0:0:0:
308,216,308280,1,2,0:3:0:0:
305,158,308365,1,2,0:3:0:0:
287,104,308451,1,0,0:0:0:0:
254,58,308537,1,2,0:3:0:0:
209,23,308622,2,0,P|177:26|147:36,1,63.7500012159348,6|0,0:0|0:0,0:0:0:0:
35,203,308794,2,0,P|38:280|65:343,1,127.50000243187,8|0,3:1|0:0,0:0:0:0:
107,302,309051,1,2,0:3:0:0:
163,290,309137,1,6,0:0:0:0:
219,296,309222,1,2,0:3:0:0:
272,317,309308,2,0,P|311:326|343:327,1,63.7500012159348
371,91,309480,6,0,P|328:138|311:199,1,127.50000243187,10|0,0:0|0:0,0:0:0:0:
375,254,309737,1,0,0:0:0:0:
402,263,309822,2,0,L|470:256,1,63.7500012159348,2|2,0:3|0:3,0:0:0:0:
273,63,309994,2,0,L|205:56,1,63.7500012159348,6|0,0:0|0:0,0:0:0:0:
133,298,310165,2,0,P|183:261|212:178,1,127.50000243187,8|0,3:1|0:0,0:0:0:0:
209,202,310422,1,0,0:0:0:0:
209,202,310508,5,6,3:1:0:0:
453,42,310680,1,0,0:0:0:0:
352,362,310851,1,10,0:0:0:0:
34,181,311022,1,2,0:3:0:0:
50,124,311107,1,2,0:3:0:0:
82,78,311193,1,0,0:0:0:0:
128,45,311279,1,2,0:3:0:0:
184,28,311365,2,0,P|212:66|217:108,1,63.7500012159348,6|0,0:0|0:0,0:0:0:0:
139,309,311537,2,0,B|125:255|125:255|133:183,1,127.50000243187,8|0,3:1|0:0,0:0:0:0:
215,158,311794,5,2,0:3:0:0:
233,176,311880,1,4,0:0:0:0:
249,194,311965,2,0,L|316:210,2,63.7500012159348
350,90,312222,2,0,L|488:77,1,127.50000243187,8|0,0:0|0:0,0:0:0:0:
493,167,312480,1,0,0:0:0:0:
479,183,312565,2,0,L|471:246,1,63.7500012159348
369,355,312737,2,0,L|361:291,1,63.7500012159348
232,275,312908,2,0,B|203:264|140:258|140:258|167:253|178:240,1,127.50000243187
333,129,313251,6,0,L|322:252,1,112.500004291535,6|8,0:0|0:3,0:0:0:0:
400,29,313594,2,0,L|425:149,1,112.500004291535,8|0,0:0|0:0,0:0:0:0:
220,186,313937,1,0,0:0:0:0:
417,234,314108,1,4,0:0:0:0:
279,24,314280,2,0,P|223:20|156:50,1,112.500004291535,8|8,3:1|0:3,0:0:0:0:
225,240,314622,6,0,L|229:113,1,112.500004291535,6|8,0:0|0:3,0:0:0:0:
286,313,314965,2,0,P|348:323|413:298,1,112.500004291535,8|0,0:0|0:0,0:0:0:0:
139,226,315308,1,0,0:0:0:0:
95,352,315480,1,4,0:0:0:0:
347,199,315651,2,0,L|335:70,1,112.500004291535,8|0,3:1|0:0,0:0:0:0:
178,185,315994,6,0,L|188:309,1,112.500004291535,6|0,0:0|0:0,0:0:0:0:
194,71,316337,2,0,P|136:77|94:119,1,112.500004291535,8|0,0:0|0:0,0:0:0:0:
56,200,316680,1,0,0:0:0:0:
66,18,316851,1,4,0:0:0:0:
263,139,317022,2,0,P|320:149|371:120,1,112.500004291535,8|2,3:1|0:3,0:0:0:0:
389,100,317280,1,4,0:3:0:0:
413,76,317365,6,0,L|421:198,1,112.500004291535,6|4,0:0|0:3,0:0:0:0:
170,271,317708,2,0,P|213:243|286:249,1,112.500004291535,8|0,0:0|0:0,0:0:0:0:
241,352,318051,1,0,0:0:0:0:
67,260,318222,1,4,0:0:0:0:
346,305,318394,2,0,P|361:217|340:177,1,112.500004291535,8|0,3:1|0:0,0:0:0:0:
128,121,318737,6,0,L|251:118,1,112.500004291535,6|8,0:0|0:3,0:0:0:0:
41,211,319080,1,8,0:0:0:0:
82,27,319251,1,0,0:0:0:0:
150,263,319422,1,0,0:0:0:0:
19,118,319594,1,4,0:0:0:0:
294,213,319765,2,0,P|369:194|397:147,1,112.500004291535,8|8,3:1|0:3,0:0:0:0:
227,256,320108,6,0,L|234:374,1,112.500004291535,6|8,0:0|0:3,0:0:0:0:
131,83,320451,2,0,L|138:201,1,112.500004291535,8|0,0:0|0:0,0:0:0:0:
200,31,320794,1,0,0:0:0:0:
34,138,320965,1,4,0:0:0:0:
227,256,321137,2,0,P|296:262|346:227,1,112.500004291535,8|0,3:1|0:0,0:0:0:0:
100,242,321480,5,6,0:0:0:0:
177,362,321651,1,0,0:0:0:0:
266,161,321822,2,0,L|249:38,1,112.500004291535,8|0,0:0|0:0,0:0:0:0:
207,234,322165,1,0,0:0:0:0:
352,131,322337,1,4,0:0:0:0:
170,22,322508,2,0,P|111:17|40:35,1,112.500004291535,8|2,3:1|0:3,0:0:0:0:
31,47,322765,1,4,0:3:0:0:
29,80,322851,6,0,L|44:200,1,112.500004291535,6|4,0:0|0:3,0:0:0:0:
269,181,323194,2,0,P|206:168|142:207,1,112.500004291535,8|0,0:0|0:0,0:0:0:0:
314,304,323537,1,0,0:0:0:0:
400,183,323708,1,4,0:0:0:0:
156,73,323880,2,0,L|164:205,1,112.500004291535,8|0,3:1|0:0,0:0:0:0:
347,36,324222,6,0,P|291:25|223:46,1,112.500004291535,6|8,0:0|0:3,0:0:0:0:
417,167,324565,1,8,0:0:0:0:
463,24,324737,1,0,0:0:0:0:
299,153,324908,1,0,0:0:0:0:
156,73,325080,1,4,0:0:0:0:
339,264,325251,2,0,P|400:274|466:244,1,112.500004291535,8|8,3:1|0:3,0:0:0:0:
227,207,325594,6,0,P|166:197|100:227,1,112.500004291535,6|8,0:0|0:3,0:0:0:0:
285,372,325937,1,8,0:0:0:0:
340,170,326108,1,0,0:0:0:0:
414,337,326280,1,0,0:0:0:0:
183,287,326451,1,4,0:0:0:0:
311,57,326622,2,0,P|371:51|440:86,1,112.500004291535,8|0,3:1|0:0,0:0:0:0:
209,125,326965,6,0,P|194:70|217:-8,1,112.500004291535,6|0,0:0|0:0,0:0:0:0:
141,220,327308,2,0,L|12:229,1,112.500004291535,8|0,0:0|0:0,0:0:0:0:
267,175,327651,1,0,0:0:0:0:
218,353,327822,1,4,0:0:0:0:
218,87,327994,2,0,P|277:78|341:108,1,112.500004291535,8|2,3:1|0:3,0:0:0:0:
356,109,328251,1,4,0:3:0:0:
383,114,328337,5,6,0:0:0:0:
482,30,328508,1,4,0:3:0:0:
445,258,328680,2,0,L|436:373,1,112.500004291535,8|0,0:0|0:0,0:0:0:0:
342,186,329022,1,0,0:0:0:0:
488,121,329194,1,4,0:0:0:0:
325,320,329365,1,8,3:1:0:0:
246,220,329537,38,0,B|215:183|156:160|23:125|4:182|-46:266|-8:316|94:372|157:283|163:230|119:124|77:97|77:97|126:98|161:64,1,675
233,29,332794,6,0,B|306:54|370:26|370:26|359:107|386:153|386:153|366:191|366:191|376:240|376:240|367:297|316:318,1,450
133,343,335194,5,4,0:0:0:0:
274,242,335365,1,0,3:1:0:0:
183,152,335537,2,0,L|172:2,1,127.50000243187,8|0,0:0|0:0,0:0:0:0:
173,24,335794,1,2,0:3:0:0:
173,24,335880,1,2,0:3:0:0:
311,109,336051,1,4,3:1:0:0:
55,181,336222,2,0,L|44:318,1,127.50000243187,8|0,0:0|3:1,0:0:0:0:
246,300,336565,6,0,B|351:258|403:350|496:298,1,255.000004863739,4|8,0:0|0:0,0:0:0:0:
359,21,337080,2,0,P|335:80|333:144,1,127.50000243187
478,115,337422,1,4,3:1:0:0:
188,28,337594,1,8,0:0:0:0:
68,132,337765,1,2,0:3:0:0:
68,132,337851,1,2,0:3:0:0:
68,132,337937,6,0,L|80:279,1,127.50000243187,4|0,0:0|0:0,0:0:0:0:
294,336,338280,1,8,0:0:0:0:
381,205,338451,1,0,0:0:0:0:
344,180,338536,1,2,0:3:0:0:
300,169,338622,1,2,0:3:0:0:
256,174,338708,1,2,0:3:0:0:
217,194,338794,2,0,L|206:282,1,63.7500012159348,4|0,0:0|0:0,0:0:0:0:
125,350,338965,2,0,B|25:331|25:331|69:304,1,127.50000243187,8|0,0:0|0:0,0:0:0:0:
105,269,339222,5,2,0:0:0:0:
39,53,339394,1,2,0:0:0:0:
30,70,339480,1,4,0:0:0:0:
228,115,339651,2,0,L|382:111,1,127.50000243187,8|0,0:0|0:0,0:0:0:0:
406,175,339908,1,0,0:0:0:0:
384,189,339994,2,0,L|295:192,1,63.7500012159348,2|2,0:3|0:3,0:0:0:0:
229,32,340165,2,0,L|292:29,1,63.7500012159348,4|0,3:1|0:0,0:0:0:0:
374,30,340337,1,8,0:0:0:0:
284,316,340508,1,0,0:0:0:0:
111,269,340680,6,0,P|103:195|115:130,1,127.50000243187,4|0,0:0|3:1,0:0:0:0:
386,149,341022,2,0,P|315:187|260:185,1,127.50000243187,8|0,0:0|0:0,0:0:0:0:
228,118,341280,1,0,0:0:0:0:
240,95,341365,2,0,P|242:59|237:20,2,63.7500012159348,2|2|4,0:3|0:3|3:1,0:0:0:0:
175,253,341708,2,0,P|257:280|308:272,1,127.50000243187,8|0,0:0|3:1,0:0:0:0:
334,250,341965,1,2,0:3:0:0:
375,233,342051,5,4,0:0:0:0:
419,229,342137,1,2,0:3:0:0:
461,241,342222,1,0,3:1:0:0:
409,366,342394,1,8,0:0:0:0:
305,152,342565,2,0,L|314:75,2,63.7500012159348,0|2|2,0:0|0:3|0:3,0:0:0:0:
148,199,342908,1,4,3:1:0:0:
26,59,343080,1,8,0:0:0:0:
52,311,343251,1,2,0:3:0:0:
52,311,343337,1,2,0:3:0:0:
52,311,343422,6,0,P|119:348|184:343,1,127.50000243187,4|0,0:0|0:0,0:0:0:0:
389,248,343765,1,8,0:0:0:0:
296,360,343937,1,0,0:0:0:0:
269,324,344022,1,2,0:3:0:0:
252,283,344108,1,2,0:3:0:0:
246,239,344194,1,2,0:3:0:0:
251,194,344280,2,0,P|294:184|336:180,1,63.7500012159348,4|0,0:0|0:0,0:0:0:0:
459,230,344451,2,0,P|464:144|444:57,1,127.50000243187,8|0,0:0|0:0,0:0:0:0:
389,46,344708,1,2,0:3:0:0:
368,61,344794,6,0,P|296:57|241:39,1,127.50000243187,4|0,0:0|0:0,0:0:0:0:
35,163,345137,2,0,P|106:159|161:141,1,127.50000243187,8|0,0:0|0:0,0:0:0:0:
354,229,345480,1,0,0:0:0:0:
246,336,345651,1,4,0:0:0:0:
267,111,345822,2,0,P|357:83|426:106,1,127.50000243187,8|0,0:0|0:0,0:0:0:0:
140,243,346165,6,0,P|91:169|94:85,1,127.50000243187,4|0,0:0|3:1,0:0:0:0:
198,25,346508,1,8,0:0:0:0:
346,194,346680,1,0,0:0:0:0:
348,238,346765,1,2,0:3:0:0:
351,283,346851,1,2,0:3:0:0:
342,326,346937,1,2,0:3:0:0:
333,370,347022,1,4,3:1:0:0:
70,259,347194,2,0,P|158:197|211:190,1,127.50000243187,8|0,0:0|3:1,0:0:0:0:
175,193,347451,1,2,0:3:0:0:
175,193,347537,5,4,0:0:0:0:
237,330,347708,1,0,3:1:0:0:
457,269,347880,1,8,0:0:0:0:
390,135,348051,1,0,0:0:0:0:
373,116,348137,1,2,0:3:0:0:
357,97,348222,2,0,L|287:78,2,63.7500012159348,2|2|4,0:3|0:3|3:1,0:0:0:0:
256,216,348565,2,0,P|163:223|106:210,1,127.50000243187,8|0,0:0|0:0,0:0:0:0:
77,146,348822,1,2,0:3:0:0:
66,124,348908,6,0,P|145:117|225:131,2,127.50000243187,4|0|8,0:0|0:0|0:0,0:0:0:0:
268,320,349422,1,0,0:0:0:0:
309,303,349507,1,2,0:3:0:0:
339,271,349593,1,2,0:3:0:0:
352,228,349679,1,2,0:3:0:0:
346,184,349765,2,0,P|276:174|246:179,1,63.7500012159348,4|0,0:0|0:0,0:0:0:0:
112,48,349937,2,0,P|108:144|136:213,1,127.50000243187,8|0,0:0|0:0,0:0:0:0:
181,227,350194,1,2,0:3:0:0:
189,253,350280,6,0,P|101:287|27:270,1,127.50000243187,4|0,0:0|0:0,0:0:0:0:
24,139,350622,1,8,0:0:0:0:
299,169,350794,2,0,P|227:157|204:138,1,63.7500012159348,2|2,0:3|0:3,0:0:0:0:
277,73,350965,2,0,P|369:76|417:105,1,127.50000243187,0|4,0:0|3:1,0:0:0:0:
364,266,351308,1,8,0:0:0:0:
409,118,351480,1,0,0:0:0:0:
167,278,351651,6,0,P|78:272|30:236,1,127.50000243187,4|0,0:0|3:1,0:0:0:0:
114,24,351994,2,0,P|132:84|130:147,1,127.50000243187,8|0,0:0|0:0,0:0:0:0:
293,191,352337,2,0,B|362:204|362:204|431:189,1,127.50000243187,0|4,0:0|3:1,0:0:0:0:
484,132,352594,1,2,0:3:0:0:
475,107,352680,2,0,B|406:94|406:94|337:109,1,127.50000243187,8|0,0:0|3:1,0:0:0:0:
257,281,353022,5,4,0:0:0:0:
85,208,353194,1,2,3:3:0:0:
61,221,353280,1,2,0:3:0:0:
42,237,353365,2,0,P|46:286|57:309,1,63.7500012159348,8|0,0:0|0:0,0:0:0:0:
149,354,353537,2,0,B|166:280|166:280|148:165,1,191.250003647804
125,88,353880,1,4,3:1:0:0:
51,299,354051,1,8,0:0:0:0:
373,353,354222,1,0,0:0:0:0:
297,174,354394,6,0,B|216:161|216:161|171:171,1,127.50000243187,4|0,0:0|0:0,0:0:0:0:
137,362,354737,1,8,0:0:0:0:
218,242,354908,1,0,0:0:0:0:
412,330,355080,1,0,0:0:0:0:
215,270,355251,1,4,0:0:0:0:
422,345,355422,2,0,P|426:282|416:201,1,127.50000243187,8|0,0:0|0:0,0:0:0:0:
262,96,355765,5,4,0:0:0:0:
361,24,355937,1,0,3:1:0:0:
314,208,356108,2,0,P|256:222|184:204,1,127.50000243187,8|0,0:0|0:0,0:0:0:0:
159,185,356365,1,0,0:0:0:0:
127,162,356451,1,0,0:0:0:0:
90,149,356537,1,0,0:0:0:0:
52,149,356622,1,0,0:0:0:0:
21,172,356708,1,0,0:0:0:0:
15,209,356794,2,0,L|26:343,1,127.50000243187
260,282,357137,6,0,P|196:272|127:290,1,112.500004291535,4|0,2:1|3:0,0:0:0:0:
330,216,357480,1,10,0:0:0:0:
330,182,357565,1,2,0:0:0:0:
330,148,357651,1,2,2:1:0:0:
332,114,357737,1,2,0:3:0:0:
333,80,357822,1,2,0:3:0:0:
436,176,357994,1,4,3:0:0:0:
207,57,358165,2,0,P|143:51|65:74,1,112.500004291535,8|0,2:1|3:0,0:0:0:0:
239,246,358508,6,0,L|252:124,1,112.500004291535,4|2,0:0|3:0,0:0:0:0:
61,202,358851,2,0,L|74:324,1,112.500004291535,8|2,0:0|0:0,0:0:0:0:
75,324,359108,1,2,0:3:0:0:
76,335,359194,1,2,0:3:0:0:
146,159,359365,1,4,3:1:0:0:
272,357,359537,2,0,L|406:347,1,112.500004291535,8|0,0:0|0:0,0:0:0:0:
467,116,359880,6,0,L|354:107,1,112.500004291535,4|0,0:0|0:0,0:0:0:0:
282,162,360222,1,10,0:0:0:0:
256,131,360308,1,2,0:0:0:0:
245,92,360394,1,2,0:0:0:0:
256,54,360479,1,2,0:3:0:0:
269,23,360565,2,0,L|403:34,1,112.500004291535,2|4,0:3|0:0,0:0:0:0:
131,97,360908,1,8,0:0:0:0:
247,249,361080,5,2,0:3:0:0:
285,259,361165,1,2,0:0:0:0:
324,249,361251,1,6,0:0:0:0:
355,223,361337,1,2,0:0:0:0:
373,188,361422,1,2,0:3:0:0:
256,54,361594,1,8,0:0:0:0:
158,211,361765,5,2,0:3:0:0:
148,249,361850,1,2,0:0:0:0:
157,288,361936,1,2,0:3:0:0:
184,319,362022,1,2,0:3:0:0:
219,337,362107,1,6,0:3:0:0:
324,206,362280,1,8,0:0:0:0:
169,69,362451,1,0,0:0:0:0:
334,208,362622,6,0,P|396:215|461:188,1,112.500004291535,4|0,0:0|3:0,0:0:0:0:
278,125,362965,5,10,0:0:0:0:
246,148,363050,1,2,0:0:0:0:
229,185,363136,1,2,0:0:0:0:
231,226,363222,1,2,0:3:0:0:
248,261,363307,1,2,0:3:0:0:
390,129,363480,1,4,3:0:0:0:
194,56,363651,2,0,L|51:62,1,112.500004291535,8|0,0:0|3:0,0:0:0:0:
278,125,363994,6,0,L|421:131,1,112.500004291535,4|2,0:0|3:0,0:0:0:0:
231,226,364337,1,10,0:3:0:0:
192,231,364422,1,2,0:0:0:0:
152,233,364508,1,2,0:0:0:0:
113,239,364594,1,2,0:3:0:0:
73,241,364680,1,2,0:3:0:0:
241,353,364851,1,4,3:0:0:0:
426,202,365022,2,0,L|408:66,1,112.500004291535,8|0,0:0|0:0,0:0:0:0:
491,259,365365,6,0,P|418:289|382:278,1,112.500004291535,4|0,0:0|0:0,0:0:0:0:
229,211,365708,5,10,0:0:0:0:
193,191,365793,1,2,0:0:0:0:
152,187,365879,1,2,0:0:0:0:
114,202,365965,1,2,0:3:0:0:
89,232,366050,1,2,0:3:0:0:
188,348,366222,1,4,0:0:0:0:
306,167,366394,2,0,L|289:40,1,112.500004291535,8|0,0:0|0:0,0:0:0:0:
387,214,366737,6,0,P|454:208|503:168,2,112.500004291535,4|2|8,0:0|0:0|0:0,0:0:0:0:
227,187,367251,1,0,0:0:0:0:
118,55,367422,2,0,L|142:168,1,112.500004291535,2|4,0:0|0:0,0:0:0:0:
65,338,367765,2,0,L|83:224,1,112.500004291535,8|2,0:0|0:3,0:0:0:0:
273,341,368108,6,0,P|336:359|403:330,1,112.500004291535,4|0,2:1|3:0,0:0:0:0:
379,106,368451,1,10,0:0:0:0:
349,136,368536,1,2,0:0:0:0:
329,172,368622,1,2,2:1:0:0:
326,214,368708,1,2,0:3:0:0:
336,255,368794,1,2,0:3:0:0:
477,208,368965,1,4,3:0:0:0:
272,58,369137,2,0,L|155:69,1,112.500004291535,8|0,2:1|3:0,0:0:0:0:
174,256,369480,6,0,L|188:135,1,112.500004291535,4|0,0:0|3:0,0:0:0:0:
97,315,369822,1,10,0:3:0:0:
125,341,369908,1,2,0:0:0:0:
163,350,369994,1,2,0:0:0:0:
201,341,370080,1,2,0:3:0:0:
231,316,370165,2,0,P|287:301|347:317,1,112.500004291535,2|4,0:3|3:0,0:0:0:0:
163,245,370508,1,8,0:0:0:0:
239,62,370680,1,0,0:0:0:0:
133,148,370851,6,0,L|18:162,1,112.500004291535,4|0,0:0|0:0,0:0:0:0:
267,206,371194,1,10,0:0:0:0:
306,209,371280,1,2,0:0:0:0:
344,211,371365,1,2,0:3:0:0:
383,212,371451,1,2,0:3:0:0:
422,212,371537,2,0,P|442:156|430:97,1,112.500004291535,2|4,0:3|0:0,0:0:0:0:
192,288,371880,2,0,L|338:299,1,112.500004291535,8|0,0:0|0:0,0:0:0:0:
122,104,372222,6,0,P|112:159|126:214,1,112.500004291535,4|0,0:0|0:0,0:0:0:0:
339,34,372565,1,10,0:3:0:0:
300,35,372651,1,2,0:0:0:0:
262,37,372736,1,2,0:3:0:0:
223,40,372822,1,2,0:0:0:0:
183,43,372908,1,2,0:3:0:0:
367,122,373080,1,4,0:0:0:0:
253,319,373251,2,0,P|239:273|250:192,1,112.500004291535,8|0,0:0|0:0,0:0:0:0:
442,271,373594,6,0,L|319:258,1,112.500004291535,4|0,0:0|3:0,0:0:0:0:
154,220,373937,2,0,L|158:143,1,56.2500021457673,10|2,0:0|0:0,0:0:0:0:
97,282,374108,2,0,L|106:337,1,56.2500021457673,2|2,0:3|0:3,0:0:0:0:
67,201,374280,2,0,P|61:137|88:78,1,112.500004291535,2|4,0:3|3:0,0:0:0:0:
269,169,374622,2,0,L|131:162,1,112.500004291535,8|0,0:0|3:0,0:0:0:0:
363,102,374965,5,4,0:0:0:0:
292,273,375137,1,2,3:0:0:0:
253,73,375308,1,10,0:3:0:0:
213,68,375394,1,2,0:0:0:0:
175,64,375479,1,2,0:3:0:0:
136,62,375565,1,2,0:0:0:0:
96,59,375651,1,2,0:3:0:0:
194,240,375822,1,4,3:0:0:0:
337,130,375994,2,0,P|354:65|323:4,1,112.500004291535,8|0,0:0|0:0,0:0:0:0:
271,247,376337,6,0,P|256:300|273:353,1,112.500004291535,4|0,0:0|0:0,0:0:0:0:
501,206,376680,1,10,0:0:0:0:
461,201,376766,1,2,0:0:0:0:
423,197,376851,1,2,0:0:0:0:
384,195,376937,1,2,0:3:0:0:
344,192,377023,1,2,0:3:0:0:
400,322,377194,1,4,0:0:0:0:
435,48,377365,2,0,P|366:37|306:60,1,112.500004291535,8|0,0:0|0:0,0:0:0:0:
199,192,377708,6,0,B|136:211|136:211|83:196,2,112.500004291535,4|2|8,0:0|0:0|0:0,0:0:0:0:
404,290,378222,2,0,B|341:271|341:271|296:283,2,112.500004291535,0|2|4,0:0|0:0|0:0,0:0:0:0:
180,349,378737,2,0,B|135:361|135:361|72:342,1,112.500004291535,8|2,0:0|0:3,0:0:0:0:
188,150,379080,1,4,0:0:0:0:
256,192,379165,12,0,383194,0:0:0:0:
