osu file format v14

[General]
AudioFilename: audio.mp3
AudioLeadIn: 0
PreviewTime: 163008
Countdown: 0
SampleSet: None
StackLeniency: 0.7
Mode: 0
LetterboxInBreaks: 0
EpilepsyWarning: 1
WidescreenStoryboard: 1

[Editor]
Bookmarks: 6837,6843,9408,9580,10608,10780,12151,12322,13694,13865,14894,15065,16437,16608,17808,17980,19180,19351,20380,20551,21922,22094,23122,23294,24494,24665,25865,26037,27237,27408,28608,28780,29980,30151,31351,31522,32722,32894,34265,42500,64437,67014,89643,94443,116386,138328,141071,152043,163014,174322,174837,175351,177065,177579,178094,179808,180322,180837,182208,195928,204151,206900,209643,228837,231579,248037,250786,269979,272728,316614,341471,363243
DistanceSpacing: 0.8
BeatDivisor: 4
GridSize: 4
TimelineZoom: 2.399999

[Metadata]
Title:Spectrum
TitleUnicode:Spectrum
Artist:Muzzy
ArtistUnicode:Muzzy
Creator:Secretpipe
Version:Chroma
Source:
Tags:drum and bass dnb Gordon123 Kawa
BeatmapID:1259046
BeatmapSetID:595389

[Difficulty]
HPDrainRate:7
CircleSize:4.5
OverallDifficulty:8.5
ApproachRate:9.3
SliderMultiplier:1.4
SliderTickRate:1

[Events]
//Background and Video events
0,0,"thumb-1920-811590.jpg",0,0
//Break Periods
2,88889,93883
2,138351,140511
2,204494,206340
2,323494,340740
//Storyboard Layer 0 (Background)
//Storyboard Layer 1 (Fail)
//Storyboard Layer 2 (Pass)
//Storyboard Layer 3 (Foreground)
//Storyboard Sound Samples

[TimingPoints]
1180,342.857142857143,4,2,0,10,1,0
6837,342.857142857143,4,3,1,45,1,0
6837,-200,4,3,1,45,0,0
7094,-200,4,1,1,10,0,0
9580,-200,4,3,1,45,0,0
9837,-200,4,1,1,10,0,0
10780,-200,4,3,1,45,0,0
11037,-200,4,1,1,10,0,0
12322,-200,4,3,1,45,0,0
12580,-200,4,1,1,10,0,0
13865,-200,4,3,1,45,0,0
14122,-200,4,1,1,10,0,0
15065,-200,4,3,1,45,0,0
15322,-200,4,1,1,10,0,0
16608,-200,4,3,1,45,0,0
16865,-200,4,1,1,10,0,0
17980,-200,4,3,1,45,0,0
18237,-200,4,1,1,10,0,0
19351,-200,4,3,1,45,0,0
19608,-200,4,1,1,10,0,0
20551,-200,4,3,1,45,0,0
20894,-200,4,1,1,10,0,0
22094,-200,4,3,1,45,0,0
22351,-200,4,1,1,10,0,0
23294,-200,4,3,1,45,0,0
23551,-200,4,1,1,10,0,0
24665,-200,4,3,1,45,0,0
24922,-200,4,1,1,10,0,0
26037,-200,4,3,1,45,0,0
26294,-200,4,1,1,10,0,0
27408,-200,4,3,1,45,0,0
27665,-200,4,1,1,10,0,0
28780,-200,4,3,1,45,0,0
29037,-200,4,1,1,10,0,0
30151,-200,4,3,1,45,0,0
30408,-200,4,1,1,10,0,0
31522,-200,4,3,1,45,0,0
31780,-200,4,1,1,10,0,0
32894,-200,4,3,1,45,0,0
33151,-200,4,1,1,10,0,0
34437,-200,4,3,1,45,0,0
34694,-200,4,1,1,10,0,0
36151,-200,4,3,1,45,0,0
36408,-200,4,1,1,10,0,0
37008,-200,4,3,1,45,0,0
37265,-200,4,1,1,10,0,0
38380,-200,4,3,1,45,0,0
38637,-200,4,1,1,10,0,0
39751,-200,4,3,1,45,0,0
40008,-200,4,1,1,10,0,0
41294,-200,4,3,1,45,0,0
41551,-200,4,1,1,10,0,0
42494,-153.846153846154,4,3,1,45,0,0
42751,-200,4,1,1,10,0,0
45122,-153.846153846154,4,3,1,45,0,0
45408,-200,4,1,1,10,0,0
47980,-153.846153846154,4,3,1,45,0,0
48237,-200,4,1,1,10,0,0
49351,-153.846153846154,4,3,1,45,0,0
49608,-200,4,1,1,10,0,0
50722,-153.846153846154,4,3,1,45,0,0
50980,-200,4,1,1,10,0,0
53465,-153.846153846154,4,3,1,45,0,0
53722,-200,4,1,1,10,0,0
54837,-153.846153846154,4,3,1,45,0,0
54922,-200,4,1,1,10,0,0
56208,-153.846153846154,4,1,1,45,0,0
56465,-200,4,1,1,10,0,0
61694,-153.846153846154,4,3,1,45,0,0
61951,-200,4,1,1,10,0,0
67008,-153.846153846153,4,1,1,40,0,0
75233,342.857142857143,4,1,1,40,1,0
75233,-153.846153846154,4,1,1,40,0,0
78604,-153.846153846154,4,1,1,40,0,0
78693,342.857142857143,4,1,1,40,1,0
78978,-153.846153846154,4,1,1,40,0,0
79378,-153.846153846154,4,1,1,15,0,0
80750,-153.846153846154,4,1,1,40,0,0
83495,342.857142857143,4,1,1,40,1,0
85270,545.454545454546,4,1,1,40,1,0
85270,-117.647058823529,4,1,1,40,0,0
85815,359.281437125748,4,1,1,40,1,0
85815,-200,4,1,1,40,0,0
94437,342.857142857143,4,3,1,50,1,0
94437,-133.333333333333,4,3,1,50,0,0
116379,-100,4,3,1,50,0,0
141065,-83.3333333333333,4,3,3,80,0,0
141322,-83.3333333333333,4,1,1,80,0,0
141751,-83.3333333333333,4,3,1,80,0,0
143808,-83.3333333333333,4,3,3,80,0,0
144065,-83.3333333333333,4,1,1,80,0,0
144494,-83.3333333333333,4,3,1,80,0,0
146551,-83.3333333333333,4,3,3,80,0,0
146808,-83.3333333333333,4,1,1,80,0,0
147237,-83.3333333333333,4,3,1,80,0,0
149294,-83.3333333333333,4,3,3,80,0,0
149551,-83.3333333333333,4,1,1,80,0,0
149979,-83.3333333333333,4,3,1,80,0,0
152037,-76.9230769230769,4,3,1,80,0,0
162151,-76.9230769230769,4,3,0,80,0,0
163008,-58.8235294117647,4,3,3,80,0,1
163351,-71.4285714285714,4,3,3,80,0,1
164551,-71.4285714285714,4,3,2,80,0,1
165751,-66.6666666666667,4,3,3,80,0,1
166094,-71.4285714285714,4,3,3,80,0,1
167465,-71.4285714285714,4,3,2,80,0,1
170037,-71.4285714285714,4,3,2,80,0,1
171237,-66.6666666666667,4,3,3,80,0,1
171579,-71.4285714285714,4,3,2,80,0,1
174322,-66.6666666666667,4,3,1,85,0,1
175522,-66.6666666666667,4,3,2,90,0,1
176722,-71.4285714285714,4,3,3,100,0,1
177065,-62.5,4,3,1,100,0,1
178265,-71.4285714285714,4,3,2,80,0,1
179808,-58.8235294117647,4,3,2,80,0,1
182208,-62.5,4,3,2,80,0,1
183579,-62.5,4,3,0,60,0,0
183751,-90.9090909090909,4,3,0,60,0,0
184094,-76.9230769230769,4,3,2,60,0,0
184951,-71.4285714285714,4,3,1,60,0,0
195922,-66.6666666666667,4,3,2,80,0,0
206894,-100,4,3,0,65,0,0
207237,-58.8235294117647,4,3,2,65,0,0
207408,-58.8235294117647,4,1,1,65,0,0
207751,-58.8235294117647,4,3,2,65,0,0
207922,-58.8235294117647,4,1,1,65,0,0
208265,-58.8235294117647,4,3,2,65,0,0
209637,-76.9230769230769,4,3,0,65,0,0
209979,-62.5,4,3,1,65,0,0
212379,-76.9230769230769,4,3,0,65,0,0
212722,-62.5,4,3,1,65,0,0
217865,-76.9230769230769,4,3,0,65,0,0
218208,-62.5,4,3,3,65,0,0
220608,-76.9230769230769,4,3,0,65,0,0
220951,-62.5,4,3,2,65,0,0
223351,-76.9230769230769,4,3,0,65,0,0
223694,-58.8235294117647,4,3,1,65,0,0
224894,-58.8235294117647,4,3,2,65,0,0
228837,-200,4,3,0,65,0,0
230551,-100,4,3,0,65,0,0
230722,-83.3333333333333,4,3,0,65,0,0
230894,-71.4285714285714,4,3,0,65,0,0
231065,-62.5,4,3,0,65,0,0
231237,-55.5555555555556,4,3,0,65,0,0
231579,-83.3333333333333,4,3,0,65,0,0
249751,-100,4,3,0,65,0,0
249922,-83.3333333333333,4,3,0,65,0,0
250094,-71.4285714285714,4,3,0,65,0,0
250265,-62.5,4,3,0,65,0,0
250437,-55.5555555555556,4,3,0,65,0,0
250779,-62.5,4,3,0,85,0,1
250951,-62.5,4,3,2,85,0,1
269979,-83.3333333333333,4,3,0,65,0,0
272722,-71.4285714285714,4,3,0,65,0,0
294665,-62.5,4,3,0,65,0,0
305637,-62.5,4,3,2,65,0,0
313865,-55.5555555555556,4,3,2,65,0,0
321579,-55.5555555555556,4,3,2,60,0,0
321922,-55.5555555555556,4,3,2,50,0,0
322265,-55.5555555555556,4,3,2,40,0,0
322608,-55.5555555555556,4,3,2,30,0,0
322951,-55.5555555555556,4,3,2,20,0,0
323294,-55.5555555555556,4,3,2,10,0,0
341294,-212.765957446809,4,3,0,15,0,0
341379,-212.765957446809,4,1,1,15,0,0
344208,-208.333333333333,4,3,0,15,0,0
344294,-212.765957446809,4,1,1,15,0,0
346865,-200,4,3,0,15,0,0
352437,-212.765957446809,4,1,1,15,0,0
357151,-212.765957446809,4,3,0,10,0,0
357237,-212.765957446809,4,1,1,10,0,0

[Colours]
Combo1 : 0,157,0
Combo2 : 0,151,75
Combo3 : 174,255,255
Combo4 : 130,4,255

[HitObjects]
256,192,1180,12,0,6665,0:0:0:0:
170,235,6837,6,0,B|139:259|135:303|135:303|158:257|219:246|278:261|255:315|255:349|298:359|318:362|356:376|392:343|443:307|453:266|432:242|405:227|369:230|378:275,1,525,2|0,0:0|0:0,0:0:0:0:
314,232,9580,2,0,B|323:212|335:200|349:179|397:138|474:193|479:237,1,210,8|0,0:0|0:0,0:0:0:0:
455,121,10780,2,0,B|393:94|335:116|311:131|311:131|329:59|228:84|252:133|289:133,1,280,8|0,0:0|0:0,0:0:0:0:
230,42,12322,6,0,B|183:67|162:144|224:187|242:191|242:191|196:197|172:227,1,262.5,8|0,0:0|0:0,0:0:0:0:
113,262,13865,2,0,B|105:298|101:318|134:381|187:364|214:360|218:341|230:312|243:326,1,210,8|0,0:0|0:0,0:0:0:0:
313,345,15065,2,0,B|359:341|377:324|397:314|415:295|428:274|442:244|436:216|437:203|443:182|466:179|488:196|485:235|457:245,1,280,8|0,0:0|0:0,0:0:0:0:
364,221,16608,2,0,B|360:247|347:261|335:277|324:286|304:273|298:276|286:278|270:280|250:298|231:309|246:334|241:364|245:370|257:374|266:392|222:360,1,245,8|0,0:0|0:0,0:0:0:0:
182,312,17980,6,0,B|196:254|222:232|255:221|274:214|296:210|296:210|281:180|223:186,1,245,8|0,0:0|0:0,0:0:0:0:
155,208,19351,2,0,B|138:183|148:111|197:123|221:98|263:127|240:51|211:58|190:95,1,210,8|0,0:0|0:0,0:0:0:0:
219,185,20551,2,0,B|247:167|274:161|305:125|303:102|300:73|291:53|291:53|313:93|342:111|368:105|384:101,1,280,8|0,0:0|0:0,0:0:0:0:
367,36,22094,2,0,B|405:28|421:43|440:50|464:81|465:115|443:141|436:150|421:164|392:170,1,210,8|0,0:0|0:0,0:0:0:0:
509,147,23294,6,0,B|490:204|445:223|430:229|400:235|400:235|424:234|454:239|481:255|492:271,1,245,8|0,0:0|0:0,0:0:0:0:
432,306,24665,2,0,B|415:297|393:303|372:304|346:275|346:275|349:295|336:326|315:353|256:339|251:318|251:305|259:294|280:289,1,245,8|0,0:0|0:0,0:0:0:0:
276,221,26037,2,0,B|219:227|181:273|182:307|193:339|210:362|210:362|181:349|162:322,1,245,8|0,0:0|0:0,0:0:0:0:
99,264,27408,2,0,B|109:227|138:186|151:153|191:184|238:152|165:102|159:104|144:104|107:121|138:153,1,245,8|0,0:0|0:0,0:0:0:0:
57,194,28780,6,0,B|39:222|24:264|20:277|26:318|67:340|92:340|117:339|128:324|149:314|155:297,1,245,8|0,0:0|0:0,0:0:0:0:
99,261,30151,2,0,B|121:231|158:222|178:231|210:236|225:261|226:283|213:320|250:305|265:288|268:265|249:250|217:248,1,245,8|0,0:0|0:0,0:0:0:0:
177,173,31522,2,0,B|197:178|217:187|217:187|263:186|306:212|324:254|318:295|318:295|324:280|333:257,1,245,8|0,0:0|0:0,0:0:0:0:
370,341,32894,2,0,B|407:275|402:244|391:228|370:209|370:209|327:154|375:125|402:143|415:174|407:196,1,280,8|0,0:0|0:0,0:0:0:0:
414,87,34437,6,0,B|372:76|332:76|301:121|301:121|244:117|212:88|212:88|165:75|118:102,1,315,8|0,0:0|0:0,0:0:0:0:
73,150,36151,2,0,P|93:227|84:290,1,140,8|0,0:0|0:0,0:0:0:0:
25,347,37008,2,0,P|74:324|259:352,1,245,8|0,0:0|0:0,0:0:0:0:
307,306,38380,2,0,P|189:253|62:258,1,245,8|0,0:0|0:0,0:0:0:0:
36,194,39751,6,0,P|25:97|167:114,1,280,8|0,0:0|0:0,0:0:0:0:
196,177,41294,2,0,P|285:206|283:117,1,210,8|0,0:0|0:0,0:0:0:0:
276,44,42494,6,0,P|356:93|292:278,2,318.499985420228,8|0|0,0:0|0:0|0:0,0:0:0:0:
157,39,45151,2,0,B|98:77|25:44|25:44|50:133|-1:180|-1:180|-17:255|23:307|23:307|63:286|97:293|97:293|137:339|209:340|209:340|179:298|196:247,1,705.249967716219,8|0,0:0|0:0,0:0:0:0:
238,147,47980,6,0,B|314:125|296:165|346:155|346:155|375:130|406:120|452:141|460:172|457:204|439:227|411:234|384:218,1,318.499985420228,8|0,0:0|0:0,0:0:0:0:
396,223,49351,2,0,B|371:303|402:351|402:351|360:326|305:320|305:320|272:340|218:331,1,318.499985420228,8|0,0:0|0:0,0:0:0:0:
153,288,50722,2,8,B|162:243|162:243|138:180|138:180|163:106|163:106|67:60|87:129|5:100,2,341.249984378815,8|0|0,0:0|0:0|0:0,0:0:0:0:
236,278,53465,2,0,B|245:233|245:233|221:170|221:170|256:72|256:72|311:97|361:72,1,318.499985420228,8|0,0:0|0:0,0:0:0:0:
421,62,54837,2,0,B|395:20|395:20|381:239|381:239|421:196,1,318.499985420228,8|0,0:0|0:0,0:0:0:0:
452,146,56208,6,0,B|373:125|319:169|319:169|242:146|197:172|197:172|139:180|61:146|114:45|189:36|265:88|190:232|190:232|216:274|206:325,2,705.249967716219,2|0|2,0:0|0:0|0:0,0:0:0:0:
460,219,61694,2,0,B|386:187|353:218|335:253|335:253|331:287|327:306|361:351|361:351|316:326|266:347,2,341.249984378815,8|0|0,0:0|0:0|0:0,0:0:0:0:
256,192,64437,12,0,66837,0:0:0:0:
126,281,67008,6,0,P|195:277|267:285,1,136.499993751526,4|0,0:0|0:0,0:0:0:0:
339,256,67694,2,0,L|344:206,1,45.4999979171754,2|0,0:2|0:0,0:0:0:0:
295,144,68037,2,0,L|277:84,1,45.4999979171754
327,31,68380,2,0,P|290:49|197:54,1,136.499993751526,2|0,0:2|0:0,0:0:0:0:
121,20,69065,2,0,L|131:164,1,136.499993751526,2|0,0:2|0:0,0:0:0:0:
104,234,69751,2,0,P|35:230|35:288,1,136.499993751526,4|0,0:0|0:0,0:0:0:0:
78,349,70437,2,2,L|141:336,1,45.4999979171754,2|0,0:2|0:0,0:0:0:0:
203,332,70780,2,0,B|242:330|277:348|277:348|319:350|361:319|361:319|329:248|359:192|359:192|368:128|326:81,1,409.499981254579,2|0,0:2|0:0,0:0:0:0:
263,40,72494,6,0,L|119:48,1,136.499993751526,4|0,0:0|0:0,0:0:0:0:
60,96,73180,6,0,L|53:161,1,45.4999979171754,2|0,0:2|0:0,0:0:0:0:
106,205,73522,2,0,L|110:250,1,45.4999979171754
58,313,73865,2,0,L|170:301,2,90.9999958343508,2|0|0,0:2|0:0|0:2,0:0:0:0:
218,350,74894,1,2,0:2:0:0:
204,119,75233,2,0,P|175:187|195:259,1,136.499993751526,8|0,0:0|0:0,0:0:0:0:
213,277,75833,2,0,L|295:291,1,68.2499968757631,2|0,0:2|0:0,0:0:0:0:
401,239,76261,2,0,L|341:248,1,45.4999979171754,2|0,0:2|0:0,0:0:0:0:
448,301,76604,6,0,P|477:248|351:178,1,227.499989585877,4|0,0:0|0:0,0:0:0:0:
290,199,77633,2,0,L|230:193,1,45.4999979171754,2|0,0:2|0:0,0:0:0:0:
152,91,77975,6,0,B|169:131|169:131|156:234,1,136.499993751526,4|0,0:0|0:0,0:0:0:0:
126,250,78575,1,8,0:0:0:0:
301,330,78950,2,0,L|231:323,1,70,2|0,0:2|0:0,0:0:0:0:
366,293,79378,2,0,P|386:256|378:226,1,68.2499968757631,8|0,0:0|0:0,0:0:0:0:
330,179,79721,2,0,P|324:141|341:114,1,68.2499968757631,2|0,0:2|0:0,0:0:0:0:
397,68,80064,2,0,L|315:70,1,68.2499968757631,8|0,0:0|0:0,0:0:0:0:
266,59,80407,2,0,P|272:92|251:141,1,68.2499968757631,2|0,0:2|0:0,0:0:0:0:
216,181,80750,2,0,B|56:196|56:196|114:147,1,227.499989585877,4|0,0:0|0:0,0:0:0:0:
221,76,81778,5,0,0:0:0:0:
464,159,82121,2,0,L|460:222,1,45.4999979171754,8|0,0:0|0:0,0:0:0:0:
292,343,82464,2,0,P|281:291|336:235,1,136.499993751526,2|0,0:2|0:0,0:0:0:0:
405,271,83150,2,0,L|389:330,1,45.4999979171754,8|0,0:0|0:0,0:0:0:0:
457,209,83495,6,0,B|428:179|449:136|449:136|438:94|404:80|404:80|357:100|314:79|314:79|264:68|209:102|209:102|120:108|109:1|239:-21|296:21|215:177,1,665,4|0,0:0|0:0,0:0:0:0:
183,215,85270,2,0,L|77:209,1,89.2500017023087,8|0,0:0|0:0,0:0:0:0:
253,269,85815,6,0,B|348:283|411:222|411:222|533:223|504:346|333:402|377:120,1,560,4|0,0:0|0:0,0:0:0:0:
161,236,94437,6,0,L|169:303,1,52.5000020027161,4|0,1:0|0:0,0:0:0:0:
204,167,94779,2,0,L|210:113,1,52.5000020027161
263,220,95122,2,0,L|274:318,1,78.7500030040742,8|0,0:0|0:0,0:0:0:0:
299,326,95465,2,0,L|370:327,1,52.5000020027161
392,213,95808,2,0,L|406:273,1,52.5000020027161,2|8,0:0|0:0,0:0:0:0:
446,147,96151,6,0,L|454:93,2,52.5000020027161,2|0|2,1:2|0:0|1:2,0:0:0:0:
403,37,96665,1,2,2:0:0:0:
285,114,96837,1,2,0:2:0:0:
371,165,97008,1,0,0:0:0:0:
316,32,97179,6,0,L|254:39,1,52.5000020027161,8|0,0:0|0:0,0:0:0:0:
189,77,97522,2,0,L|129:73,1,52.5000020027161,2|0,0:0|0:0,0:0:0:0:
275,179,97865,1,8,0:0:0:0:
278,169,98208,1,0,0:0:0:0:
252,310,98379,2,0,L|246:241,1,52.5000020027161,8|0,0:0|0:0,0:0:0:0:
184,189,98722,1,0,0:0:0:0:
114,234,98894,5,2,0:2:0:0:
181,268,99065,1,0,0:0:0:0:
106,157,99237,1,2,0:2:0:0:
110,318,99408,1,0,0:0:0:0:
255,235,99579,1,2,0:2:0:0:
172,109,99751,1,0,0:0:0:0:
342,26,99922,6,0,L|335:113,1,78.7500030040742,8|0,0:0|0:0,0:0:0:0:
313,137,100265,2,0,L|320:198,1,52.5000020027161,2|0,0:0|0:0,0:0:0:0:
435,316,100608,2,0,P|398:305|356:311,1,78.7500030040742,8|0,0:0|0:0,0:0:0:0:
328,335,100951,1,2,0:0:0:0:
173,278,101122,2,0,L|236:287,1,52.5000020027161,8|0,0:0|0:0,0:0:0:0:
98,315,101465,1,0,0:0:0:0:
99,176,101637,5,2,0:2:0:0:
46,245,101808,1,0,0:0:0:0:
182,196,101979,1,2,0:2:0:0:
140,40,102151,1,0,0:0:0:0:
188,116,102322,1,2,0:2:0:0:
64,99,102494,1,0,0:0:0:0:
295,42,102665,6,0,L|220:52,1,52.5000020027161,8|0,0:0|0:0,0:0:0:0:
417,99,103008,2,0,L|352:90,1,52.5000020027161,2|0,0:0|0:0,0:0:0:0:
168,46,103351,1,0,0:0:0:0:
156,48,103694,1,0,0:0:0:0:
198,178,103865,2,0,L|205:120,1,52.5000020027161,8|0,0:0|0:0,0:0:0:0:
155,291,104208,6,0,L|143:220,2,52.5000020027161,0|2|0,0:0|1:2|0:0,0:0:0:0:
92,177,104722,1,2,0:2:0:0:
226,252,104894,1,0,0:1:0:0:
61,269,105065,1,2,0:2:0:0:
172,149,105237,1,0,0:1:0:0:
183,363,105408,5,4,0:1:0:0:
232,199,105751,2,0,L|226:252,1,52.5000020027161,8|0,0:0|0:0,0:0:0:0:
269,123,106094,2,0,L|266:59,1,52.5000020027161,2|0,0:0|0:0,0:0:0:0:
334,207,106437,1,0,0:0:0:0:
179,98,106608,2,0,L|177:29,1,52.5000020027161,8|0,0:0|0:0,0:0:0:0:
136,165,106951,6,0,L|126:238,1,52.5000020027161,0|2,0:0|0:2,0:0:0:0:
142,338,107294,1,0,0:0:0:0:
203,247,107465,1,2,0:2:0:0:
70,280,107637,1,2,0:0:0:0:
240,355,107808,2,0,L|300:342,1,52.5000020027161,2|0,0:2|0:1,0:0:0:0:
483,303,108151,5,8,0:0:0:0:
361,191,108494,2,0,L|372:256,1,52.5000020027161,2|0,0:0|0:0,0:0:0:0:
415,71,108837,2,0,L|406:131,1,52.5000020027161,8|0,0:0|0:0,0:0:0:0:
483,23,109179,1,2,0:0:0:0:
290,87,109351,2,0,L|302:148,1,52.5000020027161,8|0,0:0|0:0,0:0:0:0:
346,33,109694,5,0,0:0:0:0:
259,229,109865,1,2,0:2:0:0:
196,59,110037,1,0,0:0:0:0:
163,154,110208,1,2,0:2:0:0:
290,87,110379,1,0,0:0:0:0:
115,225,110551,1,2,0:2:0:0:
163,154,110722,1,2,0:2:0:0:
201,317,110894,6,0,L|262:307,1,52.5000020027161,8|0,0:0|0:0,0:0:0:0:
384,302,111237,2,0,L|327:291,1,52.5000020027161,2|0,0:0|0:0,0:0:0:0:
158,206,111579,2,0,L|163:153,1,52.5000020027161,2|0,0:0|0:0,0:0:0:0:
131,88,111922,1,2,0:0:0:0:
269,245,112094,2,0,L|258:194,1,52.5000020027161,8|0,0:0|0:0,0:0:0:0:
340,291,112437,6,0,L|353:233,2,52.5000020027161,2|2|2,0:0|0:2|0:0,0:0:0:0:
421,193,112951,1,2,0:2:0:0:
321,150,113122,1,0,0:0:0:0:
426,275,113294,1,2,0:2:0:0:
396,98,113465,1,0,0:0:0:0:
266,269,113637,6,0,L|273:204,1,52.5000020027161,8|0,0:0|0:0,0:0:0:0:
190,337,113979,2,0,L|180:276,1,52.5000020027161,2|0,0:0|0:0,0:0:0:0:
139,162,114322,2,0,L|148:97,2,52.5000020027161,2|0|0,0:0|0:0|0:0,0:0:0:0:
262,36,114837,2,0,L|281:104,1,52.5000020027161,8|0,0:0|0:0,0:0:0:0:
343,164,115179,1,0,0:0:0:0:
143,273,115351,6,0,L|201:284,1,52.5000020027161,2|0,0:2|0:0,0:0:0:0:
439,303,115694,1,8,0:0:0:0:
338,333,115865,1,0,0:0:0:0:
246,238,116037,1,2,0:2:0:0:
111,339,116208,1,2,0:2:0:0:
149,98,116379,6,0,P|161:143|144:206,1,105,4|0,0:1|0:0,0:0:0:0:
127,227,116722,2,0,L|49:240,1,70,2|0,0:2|0:0,0:0:0:0:
223,182,117065,2,0,L|300:194,1,70,2|0,0:2|0:0,0:0:0:0:
438,157,117408,2,0,P|397:149|361:173,1,70
367,317,117751,2,0,L|361:243,1,70,0|0,0:1|0:0,0:0:0:0:
312,62,118094,5,2,0:2:0:0:
251,132,118265,1,0,0:0:0:0:
332,146,118437,1,2,0:2:0:0:
231,49,118608,1,0,0:0:0:0:
275,216,118779,1,2,0:2:0:0:
390,86,118951,1,2,0:2:0:0:
160,112,119122,6,0,P|144:158|173:222,1,105,2|0,0:2|0:0,0:0:0:0:
183,236,119465,2,0,L|169:331,1,70,2|0,0:0|0:0,0:0:0:0:
275,216,119808,2,0,L|262:295,1,70,8|0,0:0|0:0,0:0:0:0:
410,195,120151,2,0,L|398:124,1,70,2|8,0:0|0:0,0:0:0:0:
306,46,120494,1,0,0:0:0:0:
197,146,120665,1,0,0:0:0:0:
275,216,120837,5,2,0:2:0:0:
284,126,121008,1,0,0:0:0:0:
180,232,121179,1,2,0:2:0:0:
345,169,121351,1,0,0:0:0:0:
202,72,121522,2,0,P|144:57|90:79,1,105,2|0,0:2|0:2,0:2:0:0:
45,113,121865,6,0,L|67:201,1,70,8|0,0:0|0:0,0:0:0:0:
84,332,122208,2,0,L|101:245,1,70,2|0,0:0|0:0,0:0:0:0:
152,124,122551,1,8,0:0:0:0:
163,112,122894,1,0,0:0:0:0:
211,262,123065,2,0,L|200:181,1,70,8|0,0:0|0:0,0:0:0:0:
264,112,123408,5,0,0:0:0:0:
291,209,123579,1,2,0:2:0:0:
201,192,123751,1,0,0:0:0:0:
348,140,123922,1,2,0:2:0:0:
289,303,124094,2,0,L|303:374,2,70,2|8|2,0:0|0:0|0:0,0:0:0:0:
356,70,124608,6,0,L|346:148,1,70,2|0,0:2|0:0,0:0:0:0:
269,223,124951,2,0,P|227:210|184:218,1,70,8|0,0:0|0:0,0:0:0:0:
63,271,125294,2,0,P|97:272|130:260,1,70,2|0,0:0|0:0,0:0:0:0:
4,229,125637,1,2,0:0:0:0:
161,63,125808,2,0,L|151:155,1,70,8|0,0:0|0:0,0:0:0:0:
92,32,126151,1,0,0:0:0:0:
289,163,126322,5,2,0:2:0:0:
236,339,126494,1,0,0:0:0:0:
147,219,126665,2,0,L|72:208,1,70,2|0,0:2|0:0,0:0:0:0:
222,265,127008,1,2,0:2:0:0:
149,134,127179,1,2,0:2:0:0:
106,338,127351,5,4,0:1:0:0:
116,343,127694,2,0,L|200:348,1,70
344,319,128037,2,0,P|301:315|264:335,1,70,8|0,0:0|0:0,0:0:0:0:
422,357,128379,1,2,0:0:0:0:
416,174,128551,2,0,L|408:254,1,70,2|0,0:0|0:0,0:0:0:0:
361,112,128894,2,0,B|326:104|326:104|274:123,2,70,8|2|0,0:0|0:2|0:0,0:0:0:0:
232,183,129408,2,0,L|163:176,1,70,2|0,0:2|0:0,0:0:0:0:
80,129,129751,2,0,L|8:138,1,70,2|0,0:2|0:0,0:0:0:0:
140,259,130094,6,0,L|253:274,1,105,2|0,0:2|0:0,0:0:0:0:
272,293,130437,2,0,P|277:334|265:369,1,70,8|0,0:0|0:0,0:0:0:0:
248,186,130779,2,0,L|260:111,1,70,2|0,0:0|0:0,0:0:0:0:
332,239,131122,1,0,0:0:0:0:
178,113,131294,2,0,L|189:38,1,70,2|0,0:0|0:0,0:0:0:0:
126,233,131637,6,0,L|108:145,2,70,2|8|2,0:0|0:0|0:0,0:0:0:0:
81,34,132151,2,0,L|68:107,1,70,2|0,0:2|0:0,0:0:0:0:
36,225,132494,2,0,L|56:319,1,70,2|0,0:2|0:0,0:0:0:0:
271,348,132837,6,0,P|227:329|148:352,1,105,2|0,0:2|0:0,0:0:0:0:
144,358,133179,2,0,L|153:282,1,70,8|0,0:0|0:0,0:0:0:0:
170,111,133522,2,0,P|134:102|86:117,1,70,2|0,0:0|0:0,0:0:0:0:
228,172,133865,1,2,0:0:0:0:
324,102,134037,2,0,P|289:91|245:104,1,70,8|0,0:0|0:0,0:0:0:0:
383,170,134379,1,2,0:0:0:0:
290,293,134551,6,0,L|301:215,1,70,0|0,0:1|0:0,0:0:0:0:
226,353,134894,1,2,0:2:0:0:
382,285,135065,1,0,0:1:0:0:
210,233,135237,1,2,0:2:0:0:
335,363,135408,1,0,0:0:0:0:
229,146,135579,6,0,P|216:100|238:32,1,105,8|0,0:0|0:0,0:0:0:0:
256,23,135922,1,2,0:0:0:0:
397,132,136094,1,0,0:0:0:0:
331,173,136265,2,0,P|319:146|337:81,1,70,2|0,0:0|0:0,0:0:0:0:
390,232,136608,1,0,0:0:0:0:
245,265,136779,2,0,L|321:242,1,70,2|0,0:0|0:0,0:0:0:0:
144,242,137122,5,0,0:0:0:0:
188,318,137294,1,2,0:2:0:0:
205,191,137465,1,0,0:0:0:0:
93,312,137637,1,2,0:2:0:0:
291,315,137808,1,2,0:2:0:0:
103,125,137979,1,2,0:2:0:0:
138,371,138151,5,4,0:0:0:0:
100,240,141065,6,4,B|146:272|195:264|195:264|253:318|341:277,1,251.999992309571,4|0,0:0|0:0,0:0:0:0:
423,215,141751,2,0,L|405:128,1,83.9999974365235,8|0,0:0|0:0,0:0:0:0:
484,289,142094,1,2,0:0:0:0:
308,155,142265,2,0,L|319:60,1,83.9999974365235,8|0,0:0|0:0,0:0:0:0:
126,151,142608,5,2,0:2:0:0:
179,81,142779,1,2,0:2:0:0:
210,177,142951,1,2,0:2:0:0:
92,67,143122,1,2,0:2:0:0:
266,101,143294,1,2,0:2:0:0:
151,238,143465,2,0,P|134:286|149:322,1,83.9999974365235,2|0,0:2|0:0,0:0:0:0:
453,316,143808,6,0,B|407:284|358:292|358:292|300:238|212:279,1,251.999992309571,4|0,0:0|0:0,0:0:0:0:
67,297,144494,2,0,P|120:320|169:299,1,83.9999974365235,8|0,0:0|0:0,0:0:0:0:
32,229,144837,1,2,0:0:0:0:
214,142,145008,2,0,P|172:139|137:160,1,83.9999974365235,8|0,0:0|0:0,0:0:0:0:
297,199,145351,5,0,0:0:0:0:
395,217,145522,1,2,0:2:0:0:
416,118,145694,1,0,0:0:0:0:
318,92,145865,1,2,0:2:0:0:
334,289,146037,1,0,0:0:0:0:
482,179,146208,1,2,0:2:0:0:
380,30,146379,1,0,0:0:0:0:
189,282,146551,6,0,B|188:245|216:217|216:217|184:159|216:122|216:122|242:87|225:49,1,251.999992309571,4|0,0:0|0:0,0:0:0:0:
65,65,147237,2,0,L|152:74,1,83.9999974365235,8|0,0:0|0:0,0:0:0:0:
306,95,147579,1,2,0:0:0:0:
33,200,147751,2,0,L|133:191,1,83.9999974365235,8|0,0:0|0:0,0:0:0:0:
241,229,148094,5,2,0:2:0:0:
162,300,148265,1,2,0:2:0:0:
181,165,148437,1,2,0:2:0:0:
253,324,148608,1,2,0:2:0:0:
81,265,148779,1,2,0:2:0:0:
329,133,148951,2,0,L|317:224,1,83.9999974365235,2|0,0:2|0:0,0:0:0:0:
436,67,149294,6,0,B|398:68|370:40|370:40|312:72|275:40|275:40|240:14|202:31,1,251.999992309571,4|0,0:0|0:0,0:0:0:0:
113,155,149979,2,0,P|138:117|132:66,1,83.9999974365235,8|0,0:0|0:0,0:0:0:0:
36,166,150322,1,2,0:0:0:0:
94,311,150494,2,0,L|81:223,1,83.9999974365235,8|0,0:0|0:0,0:0:0:0:
29,354,150837,1,0,0:0:0:0:
193,262,151008,1,2,0:2:0:0:
259,91,151179,6,0,P|268:114|271:135,1,41.9999987182618,2|0,0:2|0:0,0:0:0:0:
291,259,151351,2,0,P|287:237|296:211,1,41.9999987182618,2|0,3:2|0:0,0:0:0:0:
178,188,151522,2,0,P|200:188|226:181,1,41.9999987182618,2|0,0:2|0:0,0:0:0:0:
381,153,151694,2,0,P|356:153|331:159,1,41.9999987182618,2|0,3:2|0:0,0:0:0:0:
434,209,151865,1,0,0:2:0:0:
388,67,152037,5,4,0:1:0:0:
360,257,152208,1,2,0:0:0:0:
202,89,152379,2,0,B|240:82|240:82|298:96,1,90.9999958343508,8|0,0:0|0:0,0:0:0:0:
71,185,152722,1,2,0:0:0:0:
139,33,152894,1,2,0:0:0:0:
200,225,153065,2,0,B|215:265|215:265|198:322,1,90.9999958343508,8|0,0:0|0:0,0:0:0:0:
142,149,153408,1,2,0:0:0:0:
302,187,153579,5,0,0:0:0:0:
103,266,153751,1,2,0:2:0:0:
225,140,153922,1,0,0:0:0:0:
275,291,154094,1,2,0:2:0:0:
64,189,154265,1,0,0:0:0:0:
306,29,154437,2,0,P|319:70|294:128,1,90.9999958343508,2|0,0:2|0:0,0:0:0:0:
188,262,154779,5,2,0:0:0:0:
188,262,154951,1,2,0:0:0:0:
188,54,155122,2,0,L|205:155,1,90.9999958343508,8|0,0:0|0:0,0:0:0:0:
264,318,155465,1,2,0:0:0:0:
264,318,155637,1,2,0:0:0:0:
463,229,155808,2,0,P|416:214|348:234,1,90.9999958343508,8|0,0:0|0:0,0:0:0:0:
188,262,156151,5,2,0:2:0:0:
101,201,156322,1,2,0:2:0:0:
259,38,156494,1,2,0:2:0:0:
208,175,156665,1,0,0:0:0:0:
158,49,156837,1,2,0:2:0:0:
312,126,157008,1,0,0:0:0:0:
81,120,157179,1,2,0:2:0:0:
348,43,157351,1,0,0:0:0:0:
252,288,157522,6,0,L|352:297,1,90.9999958343508,2|2,0:0|0:0,0:0:0:0:
84,348,157865,2,0,B|69:304|69:304|94:242,1,90.9999958343508,8|0,0:0|0:0,0:0:0:0:
150,69,158208,1,2,0:0:0:0:
51,160,158379,1,2,0:0:0:0:
314,73,158551,2,0,P|272:63|223:80,1,90.9999958343508,8|0,0:0|0:0,0:0:0:0:
381,133,158894,1,2,0:2:0:0:
279,285,159065,5,2,0:2:0:0:
308,160,159237,1,2,0:2:0:0:
388,328,159408,1,0,0:0:0:0:
195,224,159579,1,2,0:2:0:0:
440,224,159751,1,0,0:0:0:0:
175,218,159922,1,2,0:2:0:0:
287,365,160094,1,2,0:2:0:0:
379,109,160265,5,8,0:0:0:0:
350,78,160351,1,0,0:0:0:0:
310,67,160437,1,8,0:0:0:0:
269,73,160522,1,0,0:0:0:0:
237,99,160608,5,8,0:0:0:0:
207,127,160694,1,0,0:0:0:0:
172,148,160779,1,8,0:0:0:0:
130,147,160865,1,0,0:0:0:0:
99,119,160951,6,0,L|80:40,3,45.4999979171754,2|0|2|0,0:0|0:0|0:0|0:0,0:0:0:0:
103,251,161294,2,0,L|122:172,3,45.4999979171754,2|0|2|0,0:0|0:0|0:0|0:0,0:0:0:0:
33,338,161637,2,0,B|85:326|85:326|156:349|156:349|243:330,1,181.999991668702,4|0,0:2|0:0,0:0:0:0:
383,305,162151,6,0,P|392:279|394:255,1,45.4999979171754,2|0,0:0|0:0,0:0:0:0:
330,155,162322,2,0,P|329:186|339:209,1,45.4999979171754,2|0,0:0|0:0,0:0:0:0:
435,96,162494,2,0,P|406:89|373:91,1,45.4999979171754,2|0,0:0|0:0,0:0:0:0:
245,87,162665,2,0,P|275:88|305:78,1,45.4999979171754,8|0,0:0|0:0,0:0:0:0:
150,34,162837,2,0,P|151:62|166:88,1,45.4999979171754,4|0,0:0|0:0,0:0:0:0:
128,261,163008,6,0,P|71:261|108:179,1,178.500003404617,4|0,0:0|0:0,0:0:0:0:
174,168,163351,1,2,0:0:0:0:
285,356,163522,2,0,B|291:324|291:324|268:270|268:270|281:215,1,146.999995513916,4|0,0:0|0:0,0:0:0:0:
260,147,163865,1,2,0:0:0:0:
497,337,164037,2,0,P|448:348|400:325,1,97.9999970092774,4|0,0:0|0:0,0:0:0:0:
208,231,164379,1,0,0:0:0:0:
304,201,164551,5,0,0:0:0:0:
122,350,164722,1,8,0:0:0:0:
208,231,164894,1,2,0:0:0:0:
282,322,165065,1,2,0:0:0:0:
140,165,165237,1,2,0:0:0:0:
382,273,165408,1,8,0:0:0:0:
142,274,165579,1,2,0:0:0:0:
353,159,165751,6,0,P|274:171|200:124,1,157.500006008148,4|0,0:0|0:0,0:0:0:0:
149,85,166094,1,2,0:0:0:0:
428,72,166265,2,0,B|434:101|462:133|462:133|439:171|455:214,1,146.999995513916,4|0,0:0|0:0,0:0:0:0:
471,274,166608,1,2,0:0:0:0:
272,352,166779,1,2,0:0:0:0:
181,202,166951,2,0,P|231:193|291:237,1,97.9999970092774,4|0,0:0|0:0,0:0:0:0:
120,279,167294,5,2,0:0:0:0:
209,84,167465,1,8,0:0:0:0:
217,270,167637,1,2,0:0:0:0:
118,157,167808,1,2,0:0:0:0:
303,112,167979,1,2,0:0:0:0:
120,279,168151,1,8,0:0:0:0:
207,159,168322,1,2,0:0:0:0:
407,227,168494,2,0,P|480:200|470:109,1,146.999995513916,2|0,0:2|0:0,0:0:0:0:
471,68,168837,5,0,0:0:0:0:
244,198,169008,2,0,B|281:180|281:180|345:201,1,97.9999970092774,4|0,0:0|0:0,0:0:0:0:
465,276,169351,1,2,0:0:0:0:
179,345,169522,1,2,0:0:0:0:
108,103,169694,2,0,B|90:140|90:140|111:204,1,97.9999970092774,4|0,0:0|0:0,0:0:0:0:
180,54,170037,5,2,0:0:0:0:
59,304,170208,1,8,0:0:0:0:
201,164,170379,1,2,0:0:0:0:
98,216,170551,1,2,0:0:0:0:
179,345,170722,1,2,0:0:0:0:
108,103,170894,1,8,0:0:0:0:
183,242,171065,1,2,0:0:0:0:
405,122,171237,2,0,B|354:121|340:83|340:83|306:58|255:77,1,157.500006008148,4|0,0:2|0:0,0:0:0:0:
201,107,171579,6,0,P|144:116|96:94,1,97.9999970092774,2|0,0:0|0:0,0:0:0:0:
435,58,171922,2,0,P|477:112|468:159,1,97.9999970092774,2|0,0:0|0:0,0:0:0:0:
227,230,172265,1,8,0:0:0:0:
290,351,172437,2,0,L|308:248,1,97.9999970092774
199,121,172779,1,2,0:0:0:0:
49,329,172951,5,8,0:0:0:0:
227,230,173122,1,2,0:0:0:0:
114,186,173294,1,2,0:0:0:0:
259,352,173465,2,0,L|240:287,1,48.9999985046387,2|0,0:0|0:0,0:0:0:0:
321,189,173637,2,0,L|304:248,1,48.9999985046387,8|0,0:0|0:0,0:0:0:0:
409,295,173808,2,0,L|350:286,1,48.9999985046387,2|2,0:0|0:0,0:0:0:0:
227,230,173979,6,0,L|262:84,1,146.999995513916,2|0,0:0|0:0,0:0:0:0:
327,39,174322,2,0,B|445:56|445:56|398:81,1,157.500006008148,4|0,0:0|0:0,0:0:0:0:
343,117,174665,1,2,0:2:0:0:
149,171,174837,2,0,B|31:154|31:154|78:129,1,157.500006008148,4|0,0:0|0:0,0:0:0:0:
125,92,175179,1,2,0:2:0:0:
222,269,175351,1,4,0:0:0:0:
113,307,175522,5,2,0:0:0:0:
291,144,175694,1,8,0:0:0:0:
271,337,175865,1,2,0:0:0:0:
219,195,176037,1,2,0:0:0:0:
373,239,176208,1,2,0:0:0:0:
184,348,176379,1,8,0:0:0:0:
297,218,176551,1,2,0:0:0:0:
88,71,176722,6,2,P|166:112|232:86,1,146.999995513916,2|2,0:2|0:2,0:2:0:0:
293,63,177065,2,0,B|305:98|305:98|246:161|311:237,1,168,4|0,0:0|0:0,0:0:0:0:
325,287,177408,1,2,0:2:0:0:
462,136,177579,2,0,B|431:156|431:156|396:141|352:168,2,112,4|0|0,0:0|0:0|0:0,0:0:0:0:
236,185,178094,1,2,0:2:0:0:
181,80,178265,5,2,0:0:0:0:
277,264,178437,2,0,P|312:227|305:152,1,97.9999970092774,8|0,0:0|0:0,0:0:0:0:
204,333,178779,1,2,0:0:0:0:
389,246,178951,1,2,0:0:0:0:
159,159,179122,2,0,P|109:153|51:182,1,97.9999970092774,8|0,0:0|0:0,0:0:0:0:
204,333,179465,6,0,P|276:340|359:337,1,146.999995513916,2|0,0:0|0:0,0:0:0:0:
424,309,179808,2,0,B|418:269|418:269|440:174|440:174|422:196|398:205,1,178.500003404617,4|0,0:0|0:0,0:0:0:0:
344,231,180151,1,2,0:0:0:0:
174,147,180322,2,0,B|133:142|133:142|47:96|47:96|64:119|66:145,1,178.500003404617,4|0,0:0|0:0,0:0:0:0:
80,207,180665,1,2,0:0:0:0:
213,337,180837,1,4,0:0:0:0:
237,210,181008,5,2,0:0:0:0:
79,309,181179,1,8,0:0:0:0:
299,308,181351,1,2,0:0:0:0:
170,143,181522,1,2,0:0:0:0:
186,271,181694,1,2,0:0:0:0:
311,110,181865,1,8,0:0:0:0:
98,196,182037,1,2,0:0:0:0:
350,228,182208,6,0,P|415:207|365:135,1,168,4|0,0:2|0:0,0:0:0:0:
311,110,182551,1,8,0:0:0:0:
150,147,182722,1,0,0:0:0:0:
270,199,182894,1,8,0:0:0:0:
218,30,183065,1,0,0:0:0:0:
196,265,183237,1,8,0:0:0:0:
235,110,183408,1,0,0:0:0:0:
44,263,183579,5,4,0:2:0:0:
87,112,183751,6,0,L|94:213,1,77.0000023498536,2|0,0:2|0:0,0:0:0:0:
157,332,184094,2,0,P|124:334|91:319,1,45.4999979171754,2|0,0:0|0:0,0:0:0:0:
196,219,184265,2,0,L|196:273,1,45.4999979171754,2|0,0:0|0:0,0:0:0:0:
243,154,184437,2,0,L|233:102,1,45.4999979171754,2|0,0:0|0:0,0:0:0:0:
343,226,184608,2,0,L|283:213,1,45.4999979171754,2|0,0:0|0:0,0:0:0:0:
421,186,184779,1,2,0:0:0:0:
427,367,184951,6,0,L|408:271,2,97.9999970092774,0|0|8,0:0|0:0|0:2,0:0:0:0:
482,240,185465,1,2,0:2:0:0:
339,55,185637,2,0,P|366:95|358:156,1,97.9999970092774,2|0,0:0|0:0,0:0:0:0:
282,347,185979,1,8,0:2:0:0:
236,217,186151,6,0,B|203:204|203:204|141:213,2,97.9999970092774,0|8|8,0:0|0:0|0:0,0:0:0:0:
26,355,186665,2,0,P|36:301|42:235,1,97.9999970092774,8|0,0:2|0:0,0:0:0:0:
51,58,187008,1,2,0:2:0:0:
51,58,187179,1,2,0:2:0:0:
121,318,187351,2,0,P|140:241|146:162,1,146.999995513916,8|0,0:2|0:0,0:0:0:0:
108,120,187694,6,0,P|157:137|213:117,1,97.9999970092774,2|0,0:2|0:0,0:0:0:0:
400,33,188037,1,8,0:2:0:0:
334,174,188208,1,2,0:2:0:0:
406,115,188379,1,2,0:2:0:0:
303,71,188551,1,2,0:2:0:0:
401,313,188722,1,8,0:2:0:0:
211,256,188894,6,0,L|322:262,2,97.9999970092774,0|8|8,0:0|0:0|0:0,0:0:0:0:
476,353,189408,2,0,P|478:293|441:239,1,97.9999970092774,8|0,0:2|0:0,0:0:0:0:
323,118,189751,1,2,0:2:0:0:
446,63,189922,1,2,0:2:0:0:
308,261,190094,2,0,L|211:256,1,97.9999970092774,8|0,0:2|0:0,0:0:0:0:
42,295,190437,6,0,P|99:304|150:283,1,97.9999970092774,2|2,0:0|0:0,0:0:0:0:
323,118,190779,1,8,0:2:0:0:
193,83,190951,1,2,0:2:0:0:
232,197,191122,1,2,0:2:0:0:
271,32,191294,1,2,0:2:0:0:
55,162,191465,2,0,B|107:141|107:141|167:153,1,97.9999970092774,8|0,0:2|0:0,0:0:0:0:
359,242,191808,5,2,0:0:0:0:
275,346,191979,2,0,L|283:240,2,97.9999970092774,0|8|0,0:0|0:2|0:0,0:0:0:0:
330,150,192494,1,2,0:2:0:0:
190,240,192665,1,2,0:2:0:0:
447,336,192837,2,0,L|434:231,1,97.9999970092774,8|0,0:2|0:0,0:0:0:0:
338,51,193179,6,0,P|259:80|188:63,1,146.999995513916,2|0,0:2|0:0,0:0:0:0:
141,33,193522,2,0,L|156:138,1,97.9999970092774,8|0,0:2|0:0,0:0:0:0:
130,313,193865,1,2,0:2:0:0:
248,181,194037,1,2,0:2:0:0:
43,62,194208,2,0,L|58:167,1,97.9999970092774,8|0,0:2|0:0,0:0:0:0:
212,288,194551,6,0,P|264:297|316:276,2,97.9999970092774,8|2|8,0:0|0:0|0:2,0:0:0:0:
360,179,195065,1,2,0:2:0:0:
328,360,195237,1,2,0:2:0:0:
288,110,195408,1,2,0:2:0:0:
430,268,195579,1,2,0:3:0:0:
452,293,195665,1,2,0:3:0:0:
454,327,195751,1,2,0:3:0:0:
157,272,195922,5,0,0:0:0:0:
59,90,196094,1,0,0:0:0:0:
59,90,196179,1,0,0:0:0:0:
59,90,196265,2,0,P|103:63|178:72,1,105.000004005432,8|0,0:0|0:0,0:0:0:0:
189,87,196522,2,0,L|266:80,1,52.5000020027161
394,48,196779,1,0,0:0:0:0:
394,48,196865,1,0,0:0:0:0:
394,48,196951,2,0,P|371:102|383:161,1,105.000004005432,8|0,0:0|0:0,0:0:0:0:
391,186,197208,2,0,L|388:243,1,52.5000020027161
167,355,197465,1,0,0:0:0:0:
167,355,197551,1,0,0:0:0:0:
167,355,197637,2,0,L|169:302,1,52.5000020027161,8|0,0:0|0:0,0:0:0:0:
125,255,197808,5,0,0:0:0:0:
125,255,197894,1,0,0:0:0:0:
125,255,197979,2,0,L|120:160,1,52.5000020027161,2|0,0:0|0:0,0:0:0:0:
181,154,198151,5,0,0:0:0:0:
181,154,198237,1,0,0:0:0:0:
181,154,198322,1,8,0:0:0:0:
84,71,198494,1,0,0:0:0:0:
84,71,198579,1,0,0:0:0:0:
84,71,198665,6,0,P|146:82|201:62,1,105.000004005432,2|0,0:0|0:0,0:0:0:0:
217,51,198922,1,0,0:0:0:0:
252,42,199008,2,0,L|328:47,1,52.5000020027161,8|0,0:0|0:0,0:0:0:0:
367,90,199179,2,0,L|439:82,1,52.5000020027161
480,30,199351,1,2,0:0:0:0:
285,139,199522,5,0,0:0:0:0:
276,174,199608,1,0,0:0:0:0:
282,210,199694,1,8,0:0:0:0:
443,287,199865,2,0,L|430:211,2,52.5000020027161,0|0|2,0:0|0:0|0:0,0:0:0:0:
199,135,200208,5,0,0:0:0:0:
190,170,200294,1,0,0:0:0:0:
185,206,200379,2,0,L|65:227,1,105.000004005432,8|0,0:0|0:0,0:0:0:0:
17,192,200637,1,0,0:0:0:0:
55,130,200722,2,0,P|85:172|67:244,1,105.000004005432,2|0,0:0|0:0,0:0:0:0:
41,282,200979,1,0,0:0:0:0:
101,329,201065,2,0,L|215:325,1,105.000004005432,8|0,0:0|0:0,0:0:0:0:
274,325,201322,1,0,0:0:0:0:
341,335,201408,5,2,0:0:0:0:
440,113,201579,1,0,0:0:0:0:
440,113,201665,1,0,0:0:0:0:
440,113,201751,2,0,L|430:228,1,105.000004005432,8|0,0:0|0:0,0:0:0:0:
384,37,202094,1,0,0:0:0:0:
212,117,202265,1,0,0:0:0:0:
212,117,202351,1,0,0:0:0:0:
212,117,202437,2,0,B|280:130|280:130|316:110,1,105.000004005432,8|0,0:0|0:0,0:0:0:0:
133,56,202779,5,0,0:0:0:0:
168,285,202951,2,0,L|176:219,1,52.5000020027161
100,319,203122,1,8,0:0:0:0:
300,251,203294,2,0,L|288:172,2,52.5000020027161
396,349,203637,1,0,0:0:0:0:
438,50,203808,2,0,B|444:97|415:129|415:129|438:165|424:215,1,157.500006008148,8|0,0:0|0:0,0:0:0:0:
393,262,204151,5,2,0:0:0:0:
350,298,206894,6,0,P|301:317|228:302,1,105,4|0,0:0|0:0,0:0:0:0:
192,263,207237,6,0,B|164:56|164:56|228:141,1,297.500005674362,4|0,0:0|0:0,0:0:0:0:
271,179,207751,2,0,B|341:232|341:232|134:204,1,297.500005674362,4|0,0:0|0:0,0:0:0:0:
67,178,208265,1,4,0:0:0:0:
180,42,208437,1,0,0:0:0:0:
170,82,208522,1,0,0:0:0:0:
157,121,208608,6,0,L|49:99,1,59.5000011348725,8|0,0:0|0:0,0:0:0:0:
241,108,208779,2,0,L|319:96,1,59.5000011348725,2|0,0:0|0:0,0:0:0:0:
224,238,208951,2,0,L|213:165,1,59.5000011348725,8|0,0:0|0:0,0:0:0:0:
340,174,209122,2,0,L|328:246,1,59.5000011348725,2|0,0:0|0:0,0:0:0:0:
252,328,209294,2,0,B|215:334|215:334|166:312|166:312|127:318,1,119.000002269745,8|0,0:0|0:0,0:0:0:0:
406,341,209637,6,0,P|449:283|439:214,1,136.499993751526,4|0,0:0|0:0,0:0:0:0:
400,171,209979,6,0,B|280:187|280:187|306:175|325:147,1,168,4|0,0:0|0:0,0:0:0:0:
364,101,210322,1,2,0:0:0:0:
159,35,210494,2,0,B|197:75|199:120|199:120|170:155|182:200,1,168,4|0,0:0|0:0,0:0:0:0:
191,256,210837,1,2,0:0:0:0:
340,344,211008,1,4,0:0:0:0:
305,172,211179,6,0,P|306:205|315:236,1,56
346,94,211351,2,0,P|348:66|328:25,1,56,8|0,0:0|0:0,0:0:0:0:
224,135,211522,2,0,P|243:111|272:91,1,56
91,111,211694,2,0,P|115:122|155:128,1,56,8|0,0:0|0:0,0:0:0:0:
56,226,211865,2,0,L|39:151,1,56
132,264,212037,2,0,P|90:306|17:299,1,112,8|0,0:0|0:0,0:0:0:0:
190,203,212379,6,0,B|271:186|236:224|337:201,1,136.499993751526,4|0,0:0|0:0,0:0:0:0:
383,161,212722,2,0,B|373:114|398:41|398:41|321:67,1,168,4|0,0:0|0:0,0:0:0:0:
294,95,213065,1,2,0:0:0:0:
95,126,213237,2,0,B|105:173|80:246|80:246|157:220,1,168,4|0,0:0|0:0,0:0:0:0:
192,210,213579,1,2,0:0:0:0:
110,341,213751,1,0,0:0:0:0:
325,255,213922,6,0,P|312:226|305:189,1,56
352,76,214094,2,0,L|345:131,1,56,8|0,0:2|0:0,0:0:0:0:
420,117,214265,1,0,0:0:0:0:
237,29,214437,1,8,0:2:0:0:
255,148,214608,1,2,0:0:0:0:
454,37,214779,1,8,0:2:0:0:
352,76,214951,1,2,0:0:0:0:
346,329,215122,6,0,P|273:323|217:311,1,112,2|0,0:2|0:0,0:0:0:0:
54,247,215465,1,8,0:0:0:0:
54,247,215637,1,0,0:0:0:0:
92,363,215808,1,0,0:0:0:0:
92,363,215979,1,0,0:0:0:0:
126,83,216151,2,0,B|101:137|101:137|118:196,1,112,8|0,0:2|0:0,0:0:0:0:
180,358,216494,1,0,0:0:0:0:
139,274,216665,5,2,0:2:0:0:
334,138,216837,1,8,0:2:0:0:
221,266,217008,1,2,0:2:0:0:
229,58,217179,1,2,0:2:0:0:
318,314,217351,1,2,0:2:0:0:
245,37,217522,1,8,0:2:0:0:
200,200,217694,1,2,0:0:0:0:
412,279,217865,6,0,L|386:177,1,90.9999958343508,4|0,0:0|0:0,0:0:0:0:
334,138,218208,2,0,B|276:107|233:134|233:134|199:118|161:138,1,168,4|0,0:0|0:0,0:0:0:0:
111,167,218551,1,2,0:0:0:0:
173,326,218722,2,0,P|215:268|133:277,1,168,4|0,0:0|0:0,0:0:0:0:
94,307,219065,1,2,0:0:0:0:
278,332,219237,6,0,P|290:274|263:212,2,112,4|0|0,0:0|0:0|0:0,0:0:0:0:
206,153,219751,1,2,0:0:0:0:
351,198,219922,1,8,0:2:0:0:
193,249,220094,1,2,0:2:0:0:
276,35,220265,1,2,0:2:0:0:
284,160,220437,1,2,0:2:0:0:
61,46,220608,6,0,B|60:81|46:111|46:111|56:144|102:183,1,136.499993751526,4|0,0:0|0:0,0:0:0:0:
141,210,220951,2,0,P|178:283|100:259,1,168,4|0,0:0|0:0,0:0:0:0:
54,247,221294,1,2,0:0:0:0:
244,186,221465,2,0,P|339:198|390:140,1,168,4|0,0:0|0:0,0:0:0:0:
415,87,221808,1,2,0:0:0:0:
211,34,221979,1,4,0:0:0:0:
159,211,222151,5,0,0:0:0:0:
251,131,222322,1,8,0:0:0:0:
109,58,222494,2,0,B|96:96|96:96|108:142|108:142|90:183,2,112,2|0|2,0:0|0:0|0:0,0:0:0:0:
25,306,223008,1,8,0:0:0:0:
159,211,223179,1,2,0:0:0:0:
225,354,223351,6,0,P|206:288|247:222,1,136.499993751526,4|0,0:0|0:0,0:0:0:0:
273,171,223694,2,0,B|246:142|245:88|245:88|193:99|150:76,1,178.500003404617,4|0,0:0|0:0,0:0:0:0:
83,70,224037,1,2,0:0:0:0:
332,32,224208,2,0,B|336:75|321:112|321:112|371:98|434:123,1,178.500003404617,4|0,0:0|0:0,0:0:0:0:
488,141,224551,1,2,0:0:0:0:
353,278,224722,1,4,0:0:0:0:
366,185,224894,5,0,0:0:0:0:
460,358,225065,1,8,0:0:0:0:
291,219,225237,1,2,0:0:0:0:
443,236,225408,1,2,0:0:0:0:
276,300,225579,1,2,0:0:0:0:
305,85,225751,1,8,0:0:0:0:
358,264,225922,1,2,0:0:0:0:
198,150,226094,5,2,0:0:0:0:
240,22,226265,1,2,0:0:0:0:
466,155,226437,2,0,B|387:167|387:167|345:148,1,119.000002269745,8|0,0:0|0:0,0:0:0:0:
169,72,226779,1,2,0:0:0:0:
315,48,226951,1,2,0:0:0:0:
267,276,227122,2,0,B|241:229|241:229|253:146,1,119.000002269745,8|0,0:0|0:0,0:0:0:0:
350,309,227465,5,8,0:0:0:0:
325,343,227551,1,0,0:0:0:0:
285,357,227637,1,0,0:0:0:0:
244,350,227722,1,0,0:0:0:0:
210,325,227808,5,8,0:0:0:0:
171,308,227894,1,0,0:0:0:0:
129,308,227979,1,8,0:0:0:0:
89,322,228065,1,0,0:0:0:0:
62,353,228151,5,8,0:0:0:0:
253,243,228322,1,8,0:0:0:0:
104,36,228494,1,8,0:0:0:0:
30,203,228665,1,2,0:0:0:0:
30,203,228751,1,2,0:0:0:0:
30,203,228837,6,0,L|89:207,1,52.5,4|0,0:0|0:0,0:0:0:0:
146,173,229179,2,0,L|137:128,2,35,8|0|0,0:0|0:0|0:0,0:0:0:0:
230,93,229694,2,0,L|221:48,2,35,8|0|8,0:0|0:0|0:0,0:0:0:0:
280,186,230208,2,0,L|326:183,1,35,8|0,0:0|0:0,0:0:0:0:
345,175,230465,1,0,0:0:0:0:
370,151,230551,6,0,L|360:100,1,35,4|4,0:0|0:0,0:0:0:0:
457,200,230722,6,0,L|405:209,1,41.9999987182618,2|0,0:0|0:0,0:0:0:0:
312,257,230894,6,0,P|341:268|377:265,1,48.9999985046387,4|0,0:0|0:0,0:0:0:0:
255,341,231065,6,0,P|251:304|241:274,1,56,4|0,0:0|0:0,0:0:0:0:
191,192,231237,6,0,L|169:334,1,125.999996154785,8|0,0:2|0:0,0:0:0:0:
77,85,231579,6,0,P|132:71|200:138,1,125.999996154785,4|0,0:2|0:0,0:0:0:0:
261,148,231922,2,0,L|348:135,2,83.9999974365235,8|0|0,0:2|0:0|0:2,0:0:0:0:
431,57,232437,1,2,0:0:0:0:
402,288,232608,2,0,P|380:252|382:201,1,83.9999974365235,8|0,0:2|0:0,0:0:0:0:
446,357,232951,5,2,0:0:0:0:
470,227,233122,1,2,0:0:0:0:
242,327,233294,2,0,P|290:316|335:326,1,83.9999974365235,8|0,0:2|0:0,0:0:0:0:
166,351,233637,1,2,0:0:0:0:
54,266,233808,1,2,0:0:0:0:
189,133,233979,2,0,L|179:229,1,83.9999974365235,8|0,0:2|0:0,0:0:0:0:
55,47,234322,6,0,L|214:61,1,125.999996154785,4|0,0:0|0:0,0:0:0:0:
254,77,234665,2,0,L|344:61,2,83.9999974365235,8|0|0,0:2|0:0|0:0,0:0:0:0:
100,117,235179,1,2,0:0:0:0:
167,312,235351,2,0,B|184:278|184:278|172:220,1,83.9999974365235,8|0,0:2|0:0,0:0:0:0:
26,340,235694,6,0,B|59:357|59:357|117:345,1,83.9999974365235,2|0,0:0|0:0,0:0:0:0:
349,294,236037,1,8,0:2:0:0:
265,208,236208,1,2,0:0:0:0:
318,370,236379,1,2,0:0:0:0:
420,245,236551,1,2,0:0:0:0:
167,312,236722,2,0,P|213:323|267:318,1,83.9999974365235,8|0,0:2|0:0,0:0:0:0:
110,123,237065,6,0,P|134:167|127:257,1,125.999996154785,4|0,0:0|0:0,0:0:0:0:
90,313,237408,1,8,0:2:0:0:
217,184,237579,1,2,0:0:0:0:
39,99,237751,2,0,L|52:199,1,83.9999974365235,2|2,0:0|0:0,0:0:0:0:
274,131,238094,2,0,P|236:109|170:122,1,83.9999974365235,8|0,0:2|0:0,0:0:0:0:
326,187,238437,6,0,L|417:182,1,83.9999974365235,2|0,0:0|0:0,0:0:0:0:
167,291,238779,1,8,0:2:0:0:
308,350,238951,2,0,B|321:320|321:320|296:254,2,83.9999974365235,0|2|0,0:0|0:0|0:0,0:0:0:0:
336,28,239465,2,0,B|320:72|320:72|349:158,1,125.999996154785,8|0,0:2|0:0,0:0:0:0:
400,208,239808,6,0,P|360:179|275:229,1,125.999996154785,4|0,0:0|0:0,0:0:0:0:
239,244,240151,2,0,L|144:237,1,83.9999974365235,8|0,0:2|0:0,0:0:0:0:
54,201,240494,1,2,0:0:0:0:
182,140,240665,1,2,0:0:0:0:
96,356,240837,2,0,P|102:309|85:262,1,83.9999974365235,8|0,0:2|0:0,0:0:0:0:
57,119,241179,6,0,P|46:159|53:200,1,83.9999974365235,2|0,0:0|0:0,0:0:0:0:
254,22,241522,1,8,0:2:0:0:
132,64,241694,1,2,0:0:0:0:
190,229,241865,1,2,0:0:0:0:
226,102,242037,1,2,0:0:0:0:
24,35,242208,2,0,P|15:85|37:135,1,83.9999974365235,8|0,0:2|0:0,0:0:0:0:
70,341,242551,6,0,L|203:348,1,125.999996154785,4|0,0:0|0:0,0:0:0:0:
269,360,242894,2,0,L|363:348,1,83.9999974365235,8|0,0:2|0:0,0:0:0:0:
174,278,243237,1,2,0:0:0:0:
343,247,243408,1,2,0:0:0:0:
225,48,243579,2,0,P|214:104|235:145,1,83.9999974365235,8|0,0:2|0:0,0:0:0:0:
271,266,243922,5,2,0:0:0:0:
328,137,244094,1,2,0:0:0:0:
60,198,244265,2,0,P|106:207|153:191,1,83.9999974365235,8|0,0:2|0:0,0:0:0:0:
88,39,244608,2,0,B|76:80|76:80|95:130,1,83.9999974365235,2|0,0:0|0:0,0:0:0:0:
154,348,244951,1,8,0:2:0:0:
61,291,245122,1,2,0:0:0:0:
232,304,245294,6,0,P|271:283|371:308,1,125.999996154785,4|0,0:0|0:0,0:0:0:0:
416,338,245637,1,8,0:2:0:0:
297,364,245808,1,2,0:0:0:0:
359,179,245979,1,2,0:0:0:0:
349,292,246151,1,2,0:0:0:0:
263,57,246322,2,0,L|276:153,1,83.9999974365235,8|0,0:2|0:0,0:0:0:0:
256,298,246665,5,2,0:0:0:0:
170,201,246837,1,2,0:0:0:0:
51,358,247008,2,0,L|64:245,1,83.9999974365235,8|0,0:2|0:0,0:0:0:0:
134,130,247351,1,2,0:0:0:0:
26,200,247522,1,2,0:0:0:0:
308,115,247694,1,8,0:2:0:0:
81,64,247865,1,2,0:0:0:0:
397,86,248037,5,8,0:2:0:0:
366,57,248122,1,0,0:0:0:0:
326,43,248208,1,0,0:2:0:0:
283,44,248294,1,0,0:0:0:0:
245,62,248379,5,8,0:2:0:0:
223,97,248465,1,0,0:0:0:0:
215,138,248551,1,0,0:2:0:0:
224,179,248637,1,0,0:0:0:0:
244,215,248722,5,8,0:2:0:0:
248,256,248808,1,0,0:0:0:0:
240,297,248894,1,0,0:2:0:0:
218,332,248979,1,0,0:0:0:0:
180,350,249065,5,8,0:2:0:0:
137,351,249151,1,0,0:0:0:0:
97,337,249237,1,0,0:2:0:0:
66,308,249322,1,0,0:0:0:0:
60,266,249408,5,4,0:2:0:0:
144,101,249579,1,2,0:0:0:0:
144,101,249665,1,2,0:0:0:0:
144,101,249751,6,0,L|134:165,1,35,4|0,0:0|0:0,0:0:0:0:
230,53,249922,6,0,P|202:45|160:54,1,41.9999987182618,2|0,0:0|0:0,0:0:0:0:
265,121,250094,6,0,L|277:178,1,48.9999985046387,4|0,0:0|0:0,0:0:0:0:
173,236,250265,6,0,P|206:221|231:224,1,56,4|0,0:0|0:0,0:0:0:0:
342,307,250437,6,0,L|208:288,1,125.999996154785,8|0,0:2|0:0,0:0:0:0:
412,356,250779,5,4,0:2:0:0:
384,163,250951,1,0,0:0:0:0:
384,163,251037,1,0,0:0:0:0:
384,163,251122,2,0,L|397:252,1,56,8|0,0:0|0:0,0:0:0:0:
448,115,251294,1,0,0:0:0:0:
448,115,251379,1,0,0:0:0:0:
448,115,251465,2,0,P|388:85|329:106,1,112,2|0,0:0|0:0,0:0:0:0:
315,117,251722,1,0,0:0:0:0:
286,143,251808,2,0,L|160:137,1,112,8|0,0:0|0:0,0:0:0:0:
138,122,252065,1,0,0:0:0:0:
109,94,252151,5,2,0:0:0:0:
216,231,252322,1,0,0:0:0:0:
216,231,252408,1,0,0:0:0:0:
216,231,252494,1,8,0:0:0:0:
197,43,252665,1,0,0:0:0:0:
197,43,252751,1,0,0:0:0:0:
197,43,252837,1,2,0:0:0:0:
60,181,253008,2,0,P|73:218|67:249,1,56
9,298,253179,2,0,L|138:301,1,112,8|0,0:0|0:0,0:0:0:0:
185,310,253437,1,0,0:0:0:0:
248,327,253522,5,2,0:0:0:0:
381,250,253694,2,0,L|391:179,1,56
403,324,253865,2,0,P|336:313|312:261,1,112,8|0,0:0|0:0,0:0:0:0:
275,218,254122,1,0,0:0:0:0:
318,162,254208,2,0,L|334:37,1,112,2|0,0:0|0:0,0:0:0:0:
394,17,254465,1,0,0:0:0:0:
435,75,254551,2,0,L|447:196,1,112,8|0,0:0|0:0,0:0:0:0:
451,253,254808,1,0,0:0:0:0:
430,317,254894,5,2,0:0:0:0:
240,184,255065,1,0,0:0:0:0:
223,219,255151,1,0,0:0:0:0:
221,258,255237,2,0,L|106:263,1,112,8|0,0:0|0:0,0:0:0:0:
45,297,255494,1,0,0:0:0:0:
110,332,255579,2,0,L|193:339,1,56,2|0,0:0|0:0,0:0:0:0:
241,331,255751,2,0,L|302:326,1,56
378,360,255922,2,0,P|362:297|381:246,1,112,8|0,0:0|0:0,0:0:0:0:
418,201,256179,1,0,0:0:0:0:
393,138,256265,5,2,0:0:0:0:
176,68,256437,1,0,0:0:0:0:
176,68,256522,1,0,0:0:0:0:
176,68,256608,1,8,0:0:0:0:
126,266,256779,5,0,0:0:0:0:
126,266,256865,1,0,0:0:0:0:
126,266,256951,1,2,0:0:0:0:
243,186,257122,5,0,0:0:0:0:
243,186,257208,1,0,0:0:0:0:
243,186,257294,1,8,0:0:0:0:
33,154,257465,5,0,0:0:0:0:
33,154,257551,1,0,0:0:0:0:
33,154,257637,6,0,L|44:268,1,112,2|0,0:0|0:0,0:0:0:0:
35,303,257894,1,0,0:0:0:0:
24,340,257979,2,0,P|79:329|147:353,1,112,8|0,0:0|0:0,0:0:0:0:
168,358,258237,1,0,0:0:0:0:
206,356,258322,2,0,L|218:290,1,56,2|0,0:0|0:0,0:0:0:0:
274,250,258494,2,0,L|263:185,1,56
355,108,258665,2,0,L|341:230,1,112,8|0,0:0|0:0,0:0:0:0:
344,258,258922,1,0,0:0:0:0:
356,295,259008,5,2,0:0:0:0:
407,40,259179,1,0,0:0:0:0:
369,28,259265,1,0,0:0:0:0:
330,34,259351,1,8,0:0:0:0:
164,92,259522,6,0,P|134:82|81:86,2,56,0|0|2,0:0|0:0|0:0,0:0:0:0:
264,271,259865,1,0,0:0:0:0:
264,271,259951,1,0,0:0:0:0:
264,271,260037,2,0,L|251:175,1,56,8|0,0:0|0:0,0:0:0:0:
313,165,260208,6,0,L|321:102,2,56,0|0|2,0:0|0:0|0:0,0:0:0:0:
311,352,260551,1,0,0:0:0:0:
311,352,260637,1,0,0:0:0:0:
311,352,260722,2,0,P|236:357|188:323,1,112,8|0,0:0|0:0,0:0:0:0:
176,314,260979,1,0,0:0:0:0:
137,307,261065,2,0,L|79:317,1,56,2|0,0:0|0:0,0:0:0:0:
59,247,261237,1,0,0:0:0:0:
59,247,261322,1,0,0:0:0:0:
59,247,261408,2,0,L|182:229,1,112,8|0,0:0|0:0,0:0:0:0:
234,207,261665,1,0,0:0:0:0:
289,158,261751,5,2,0:0:0:0:
88,77,261922,1,0,0:0:0:0:
88,77,262008,1,0,0:0:0:0:
88,77,262094,2,0,B|123:87|123:87|209:79,1,112,8|0,0:0|0:0,0:0:0:0:
261,57,262351,1,0,0:0:0:0:
327,70,262437,2,0,L|390:72,1,56,2|0,0:0|0:0,0:0:0:0:
445,124,262608,1,0,0:0:0:0:
445,124,262694,1,0,0:0:0:0:
445,124,262779,2,0,P|417:178|436:245,1,112,8|0,0:0|0:0,0:0:0:0:
459,290,263037,1,0,0:0:0:0:
420,344,263122,6,0,L|336:340,1,56,2|0,0:0|0:0,0:0:0:0:
302,314,263294,1,0,0:0:0:0:
302,314,263379,1,0,0:0:0:0:
302,314,263465,2,0,L|306:252,1,56,8|0,0:0|0:0,0:0:0:0:
267,198,263637,2,0,L|261:133,1,56
311,87,263808,1,2,0:0:0:0:
52,90,263979,1,0,0:0:0:0:
52,90,264065,1,0,0:0:0:0:
52,90,264151,2,0,L|181:102,1,112,8|0,0:0|0:0,0:0:0:0:
215,143,264408,1,0,0:0:0:0:
165,188,264494,6,0,L|81:198,1,56,2|0,0:0|0:0,0:0:0:0:
60,252,264665,1,0,0:0:0:0:
60,252,264751,1,0,0:0:0:0:
60,252,264837,2,0,P|55:293|66:325,1,56,8|0,0:0|0:0,0:0:0:0:
180,280,265008,1,0,0:0:0:0:
180,280,265094,1,0,0:0:0:0:
180,280,265179,2,0,L|114:285,1,56,2|0,0:0|0:0,0:0:0:0:
245,233,265351,2,0,L|307:232,1,56
355,170,265522,2,0,P|342:230|357:287,1,112,8|0,0:0|0:0,0:0:0:0:
392,340,265779,1,0,0:0:0:0:
424,274,265865,6,0,L|431:202,1,56,2|0,0:0|0:0,0:0:0:0:
464,158,266037,1,0,0:0:0:0:
464,158,266122,1,0,0:0:0:0:
464,158,266208,2,0,L|457:78,1,56,8|0,0:0|0:0,0:0:0:0:
395,42,266379,2,0,L|387:116,1,56
355,170,266551,2,0,L|234:168,1,112,2|0,0:0|0:0,0:0:0:0:
177,154,266808,1,0,0:0:0:0:
120,117,266894,1,8,0:0:0:0:
271,53,267065,1,0,0:0:0:0:
271,53,267151,1,0,0:0:0:0:
271,53,267237,6,0,L|151:52,1,112,2|0,0:0|0:0,0:0:0:0:
86,48,267494,1,0,0:0:0:0:
47,109,267579,2,0,L|36:185,1,56,8|0,0:0|0:0,0:0:0:0:
57,245,267751,1,0,0:0:0:0:
57,245,267837,1,0,0:0:0:0:
57,245,267922,2,0,L|70:320,1,56,2|0,0:0|0:0,0:0:0:0:
134,364,268094,2,0,L|145:298,2,56,0|0|8,0:0|0:0|0:0,0:0:0:0:
264,183,268437,1,0,0:0:0:0:
256,144,268522,1,0,0:0:0:0:
247,106,268608,5,2,0:0:0:0:
153,239,268779,1,0,0:0:0:0:
190,250,268865,1,0,0:0:0:0:
226,264,268951,5,8,0:0:0:0:
411,134,269122,1,0,0:0:0:0:
375,148,269208,1,0,0:0:0:0:
338,159,269294,5,2,0:0:0:0:
328,350,269465,1,0,0:0:0:0:
337,312,269551,1,0,0:0:0:0:
345,273,269637,5,8,0:0:0:0:
257,63,269808,2,0,L|269:120,1,56
231,183,269979,5,4,0:2:0:0:
41,339,270151,2,0,P|34:302|60:244,1,83.9999974365235,8|0,0:0|0:0,0:0:0:0:
145,109,270494,1,2,0:0:0:0:
207,294,270665,2,0,B|166:313|166:313|121:306,2,83.9999974365235,8|0|0,0:0|0:0|0:0,0:0:0:0:
318,230,271179,1,2,0:0:0:0:
421,339,271351,6,0,L|411:245,1,83.9999974365235,8|0,0:0|0:0,0:0:0:0:
446,82,271694,1,0,0:0:0:0:
321,123,271865,1,8,0:0:0:0:
418,184,272037,1,0,0:0:0:0:
257,65,272208,2,0,P|211:58|158:90,2,83.9999974365235,0|8|0,0:0|0:0|0:0,0:0:0:0:
138,288,272722,6,0,P|158:226|132:129,1,146.999995513916,4|0,0:1|0:0,0:0:0:0:
85,104,273065,2,0,P|69:164|104:214,2,97.9999970092774,10|0|0,0:2|0:0|0:2,0:0:0:0:
193,33,273579,1,2,0:0:0:0:
260,163,273751,2,0,L|245:264,1,97.9999970092774,8|0,0:2|0:0,0:0:0:0:
411,351,274094,6,0,P|428:302|408:246,1,97.9999970092774,2|0,0:0|0:0,0:0:0:0:
324,100,274437,1,8,0:2:0:0:
183,166,274608,1,2,0:0:0:0:
242,94,274779,1,2,0:0:0:0:
286,197,274951,1,2,0:0:0:0:
131,77,275122,2,0,L|28:60,1,97.9999970092774,8|0,0:2|0:0,0:0:0:0:
59,249,275465,6,0,L|209:239,1,146.999995513916,4|0,0:0|0:0,0:0:0:0:
286,197,275808,2,0,P|284:257|321:311,1,97.9999970092774,8|0,0:2|0:0,0:0:0:0:
337,139,276151,1,2,0:0:0:0:
216,60,276322,1,2,0:0:0:0:
200,337,276494,2,0,L|205:240,1,97.9999970092774,8|0,0:2|0:0,0:0:0:0:
333,44,276837,6,0,P|345:90|336:138,1,97.9999970092774,4|0,0:0|0:0,0:0:0:0:
200,337,277179,1,8,0:2:0:0:
119,187,277351,1,2,0:0:0:0:
89,309,277522,1,2,0:0:0:0:
234,220,277694,1,2,0:0:0:0:
71,35,277865,2,0,B|53:71|53:71|66:127,1,97.9999970092774,8|0,0:2|0:0,0:0:0:0:
166,266,278208,5,2,0:0:0:0:
257,151,278379,1,2,0:0:0:0:
36,245,278551,1,8,0:2:0:0:
142,340,278722,1,0,0:0:0:0:
257,151,278894,2,0,L|365:164,1,97.9999970092774,2|0,0:0|0:0,0:0:0:0:
436,26,279237,2,0,L|331:39,1,97.9999970092774,8|0,0:2|0:0,0:0:0:0:
115,110,279579,6,0,P|144:189|127:260,1,146.999995513916,4|0,0:0|0:0,0:0:0:0:
97,307,279922,2,0,L|202:292,1,97.9999970092774,8|0,0:2|0:0,0:0:0:0:
377,318,280265,1,0,0:0:0:0:
245,200,280437,1,0,0:0:0:0:
187,369,280608,2,0,L|292:354,1,97.9999970092774,8|0,0:2|0:0,0:0:0:0:
425,254,280951,6,0,P|434:202|413:150,1,97.9999970092774,2|0,0:0|0:0,0:0:0:0:
173,49,281294,2,0,L|320:53,1,146.999995513916,8|0,0:2|0:0,0:0:0:0:
392,31,281637,2,0,P|366:72|372:140,1,97.9999970092774,2|2,0:0|0:0,0:0:0:0:
397,343,281979,2,0,P|423:302|417:234,1,97.9999970092774,8|0,0:2|0:0,0:0:0:0:
293,154,282322,6,0,B|236:143|236:143|134:165,1,146.999995513916,4|0,0:0|0:0,0:0:0:0:
76,190,282665,1,8,0:2:0:0:
149,322,282837,2,0,P|160:268|131:222,2,97.9999970092774,2|0|2,0:0|0:0|0:0,0:0:0:0:
76,74,283351,2,0,L|176:55,1,97.9999970092774,8|0,0:2|0:0,0:0:0:0:
296,151,283694,6,0,L|196:139,1,97.9999970092774,2|0,0:0|0:0,0:0:0:0:
413,45,284037,2,0,P|450:118|427:214,1,146.999995513916,8|0,0:2|0:0,0:0:0:0:
401,238,284379,1,2,0:0:0:0:
361,132,284551,1,2,0:0:0:0:
478,302,284722,2,0,L|363:315,1,97.9999970092774,8|0,0:2|0:0,0:0:0:0:
211,277,285065,6,0,P|262:276|299:309,1,97.9999970092774,2|0,0:0|0:0,0:0:0:0:
72,342,285408,1,8,0:2:0:0:
161,207,285579,2,0,L|171:102,2,97.9999970092774,2|0|2,0:0|0:0|0:0,0:0:0:0:
375,69,286094,2,0,P|297:89|219:61,1,146.999995513916,8|0,0:2|0:0,0:0:0:0:
161,38,286437,6,0,L|40:47,1,97.9999970092774
288,152,286779,2,0,L|387:157,2,97.9999970092774,8|0|0,0:2|0:0|0:0,0:0:0:0:
431,239,287294,1,2,0:0:0:0:
201,57,287465,2,0,P|190:122|243:203,1,146.999995513916,8|0,0:2|0:0,0:0:0:0:
280,244,287808,6,0,L|265:354,1,97.9999970092774,2|2,0:0|0:0,0:0:0:0:
336,54,288151,2,0,L|351:172,2,97.9999970092774,8|0|0,0:2|0:0|0:0,0:0:0:0:
401,280,288665,1,2,0:0:0:0:
261,87,288837,2,0,P|205:77|152:97,1,97.9999970092774,8|0,0:2|0:0,0:0:0:0:
119,241,289179,6,0,P|131:194|103:123,1,97.9999970092774,2|0,0:0|0:0,0:0:0:0:
35,344,289522,1,8,0:2:0:0:
199,280,289694,1,2,0:2:0:0:
41,196,289865,1,2,0:2:0:0:
128,350,290037,1,2,0:2:0:0:
232,91,290208,2,0,L|243:206,1,97.9999970092774,8|0,0:2|0:0,0:0:0:0:
408,227,290551,6,0,P|352:218|304:238,1,97.9999970092774,4|0,0:0|0:0,0:0:0:0:
78,255,290894,2,0,L|257:279,1,146.999995513916,8|0,0:2|0:0,0:0:0:0:
292,296,291237,1,2,0:0:0:0:
364,143,291408,1,2,0:0:0:0:
78,127,291579,2,0,L|243:109,1,146.999995513916,8|0,0:2|0:0,0:0:0:0:
298,68,291922,6,0,P|290:117|285:169,1,97.9999970092774,2|0,0:0|0:0,0:0:0:0:
460,344,292265,2,0,P|462:288|453:229,1,97.9999970092774,8|0,0:2|0:0,0:0:0:0:
377,62,292608,1,2,0:0:0:0:
472,121,292779,1,2,0:0:0:0:
362,356,292951,1,8,0:2:0:0:
292,196,293122,6,0,L|306:299,1,97.9999970092774,2|0,0:0|0:0,0:0:0:0:
351,133,293465,2,0,P|293:116|236:136,1,97.9999970092774,2|0,0:0|0:0,0:0:0:0:
225,137,293722,1,0,0:0:0:0:
191,144,293808,6,0,P|162:133|143:134,1,48.9999985046387,4|0,0:0|0:0,0:0:0:0:
142,250,293979,2,0,L|156:185,1,48.9999985046387,2|0,0:0|0:0,0:0:0:0:
197,18,294151,2,0,L|207:71,1,48.9999985046387,2|0,0:0|0:0,0:0:0:0:
69,157,294322,2,0,P|47:108|67:55,1,97.9999970092774,2|0,0:0|0:0,0:0:0:0:
201,227,294665,6,0,P|125:240|72:213,1,112,4|0,0:2|0:0,0:0:0:0:
258,37,295008,2,0,L|273:208,1,168,8|0,0:2|0:0,0:0:0:0:
257,277,295351,1,2,0:0:0:0:
352,186,295522,1,2,0:0:0:0:
133,61,295694,2,0,L|146:186,1,112,8|0,0:2|0:0,0:0:0:0:
147,321,296037,6,0,P|81:329|31:300,1,112,2|0,0:0|0:0,0:0:0:0:
274,224,296379,1,8,0:2:0:0:
231,354,296551,1,2,0:0:0:0:
179,168,296722,1,2,0:0:0:0:
336,307,296894,1,2,0:0:0:0:
138,101,297065,2,0,P|211:96|253:133,1,112,8|0,0:2|0:0,0:0:0:0:
358,236,297408,6,0,B|483:237|483:237|437:205,1,168,4|0,0:0|0:0,0:0:0:0:
395,158,297751,2,0,P|381:110|404:43,1,112,8|0,0:2|0:0,0:0:0:0:
295,185,298094,2,0,P|274:133|295:65,1,112,2|2,0:0|0:0,0:0:0:0:
365,322,298437,1,8,0:2:0:0:
171,295,298608,2,0,L|285:285,1,112,2|0,0:0|0:0,0:0:0:0:
106,356,298951,5,2,0:0:0:0:
54,106,299122,1,8,0:2:0:0:
154,203,299294,1,2,0:0:0:0:
44,276,299465,1,2,0:0:0:0:
146,53,299637,1,2,0:0:0:0:
436,106,299808,2,0,B|394:94|394:94|312:115,1,112,8|0,0:2|0:0,0:0:0:0:
265,270,300151,6,0,B|321:286|321:286|432:257,1,168,4|0,0:0|0:0,0:0:0:0:
477,202,300494,2,0,P|473:150|434:105,1,112,8|0,0:2|0:0,0:0:0:0:
238,170,300837,1,2,0:0:0:0:
343,114,301008,1,2,0:0:0:0:
122,43,301179,2,0,L|143:163,1,112,8|0,0:2|0:0,0:0:0:0:
165,342,301522,1,2,0:0:0:0:
85,260,301694,5,2,0:0:0:0:
335,294,301865,1,8,0:2:0:0:
184,244,302037,1,2,0:0:0:0:
229,148,302208,1,2,0:0:0:0:
277,358,302379,1,2,0:0:0:0:
274,89,302551,2,0,P|206:79|160:124,1,112,8|0,0:2|0:0,0:0:0:0:
362,204,302894,6,0,L|345:67,1,112,2|0,0:0|0:0,0:0:0:0:
219,315,303237,2,0,P|292:285|326:303,1,112,8|0,0:2|0:0,0:0:0:0:
143,351,303579,2,0,L|128:237,1,112,2|0,0:0|0:0,0:0:0:0:
109,34,303922,1,8,0:2:0:0:
61,159,304094,1,2,0:0:0:0:
240,96,304265,1,2,0:0:0:0:
219,315,304437,6,0,L|229:186,2,112,2|8|0,0:0|0:2|0:0,0:0:0:0:
303,145,304951,2,0,P|315:90|286:21,1,112,2|0,0:0|0:0,0:0:0:0:
63,80,305294,2,0,P|79:132|120:170,1,112,8|0,0:2|0:0,0:0:0:0:
301,263,305637,5,2,0:0:0:0:
190,331,305808,1,2,0:0:0:0:
202,89,305979,2,0,P|221:149|201:205,1,112,8|0,0:0|0:0,0:0:0:0:
137,52,306322,1,2,0:0:0:0:
269,51,306494,1,2,0:0:0:0:
36,141,306665,2,0,L|153:149,1,112,8|0,0:0|0:0,0:0:0:0:
345,204,307008,6,0,L|211:227,1,112,2|2,0:0|0:0,0:0:0:0:
446,68,307351,1,8,0:0:0:0:
356,122,307522,1,2,0:0:0:0:
443,302,307694,1,2,0:0:0:0:
440,163,307865,1,2,0:0:0:0:
198,303,308037,2,0,P|270:314|328:285,1,112,8|0,0:0|0:0,0:0:0:0:
155,242,308379,5,2,0:0:0:0:
101,94,308551,1,2,0:0:0:0:
17,326,308722,2,0,P|84:330|141:297,1,112,8|0,0:0|0:0,0:0:0:0:
206,162,309065,1,2,0:0:0:0:
132,60,309237,1,2,0:0:0:0:
220,301,309408,2,0,L|348:289,1,112,8|0,0:0|0:0,0:0:0:0:
467,204,309751,1,2,0:0:0:0:
357,122,309922,5,2,0:0:0:0:
434,355,310094,1,8,0:0:0:0:
381,237,310265,1,2,0:0:0:0:
133,277,310437,2,0,L|249:288,2,112,2|2|8,0:0|0:0|0:0,0:0:0:0:
288,358,310951,1,0,0:0:0:0:
263,120,311122,5,2,0:0:0:0:
325,239,311294,1,2,0:0:0:0:
365,17,311465,2,0,B|392:56|392:56|383:146,1,112,8|0,0:0|0:0,0:0:0:0:
393,283,311808,1,2,0:0:0:0:
476,205,311979,1,2,0:0:0:0:
263,120,312151,2,0,P|201:118|154:158,1,112,8|0,0:0|0:0,0:0:0:0:
97,263,312494,5,2,0:0:0:0:
242,232,312665,1,2,0:0:0:0:
72,29,312837,2,0,L|97:172,1,112,8|0,0:0|0:0,0:0:0:0:
171,345,313179,1,2,0:0:0:0:
242,232,313351,1,2,0:0:0:0:
393,313,313522,2,0,B|341:321|341:321|265:307,1,112,8|0,0:0|0:0,0:0:0:0:
413,58,313865,5,0,0:0:0:0:
440,92,313951,1,0,0:0:0:0:
453,134,314037,1,0,0:0:0:0:
441,176,314122,1,0,0:0:0:0:
412,209,314208,2,0,L|430:277,3,62.9999980773926,8|0|0|0,0:0|0:0|0:0|0:0,0:0:0:0:
330,133,314551,5,0,0:0:0:0:
302,98,314637,1,0,0:0:0:0:
261,80,314722,1,0,0:0:0:0:
217,84,314808,1,0,0:0:0:0:
179,106,314894,2,0,L|191:30,3,62.9999980773926,8|0|0|0,0:0|0:0|0:0|0:0,0:0:0:0:
120,184,315237,5,8,0:0:0:0:
127,227,315322,1,0,0:0:0:0:
153,262,315408,1,0,0:0:0:0:
185,290,315494,1,0,0:0:0:0:
227,298,315579,5,8,0:0:0:0:
269,285,315665,1,0,0:0:0:0:
313,283,315751,1,0,0:0:0:0:
356,292,315837,1,0,0:0:0:0:
388,321,315922,6,0,L|383:244,1,62.9999980773926,8|0,0:0|0:0,0:0:0:0:
418,196,316094,2,0,L|484:178,1,62.9999980773926,2|0,0:0|0:0,0:0:0:0:
360,149,316265,2,0,L|251:143,1,62.9999980773926,8|0,0:0|0:0,0:0:0:0:
234,120,316437,1,8,0:0:0:0:
205,86,316522,1,8,0:0:0:0:
207,41,316608,5,4,0:2:0:0:
256,192,316694,12,0,323294,2:0:0:0:
213,193,341294,6,0,B|231:184|273:183|281:260|234:283|181:273|170:233|155:171|177:184|238:122|216:97|199:54|149:33|96:34|72:44|24:81|36:132|46:159|56:188|101:212|147:192,1,542.849991716767,2|0,0:2|0:0,0:0:0:0:
120,132,344208,2,0,B|126:160|117:217|121:258|147:282|174:314|209:325|230:338|278:301|297:288|313:281|336:231|340:220|382:200|432:216|453:255|456:293,1,504.000012304688,2|0,0:2|0:0,0:0:0:0:
387,296,346865,2,0,B|330:231|281:218|265:279|228:244|202:256|193:220|204:199|242:201|265:230,1,262.5,0|0,1:0|0:0,0:0:0:0:
312,176,348237,2,0,B|258:126|204:114|159:158|156:175|154:200|120:202|98:181|79:173|82:152|76:120|89:82|133:100|171:85|208:75|240:93|240:93|241:62|214:42|191:25|173:24|143:22|127:24|103:33|43:39|-4:92|5:184|64:225,1,822.5,2|0,0:2|0:0,0:0:0:0:
116,247,352351,2,0,B|127:270|146:271|170:282|197:285|248:266|248:266|229:294|201:323|176:312|166:310|127:305|96:284|54:291|32:298|23:314|46:339|79:344|131:373|137:336|160:335|181:332|220:360|220:360|266:377|310:364|312:353|301:302|317:287|338:268|349:258|349:258|349:278|338:303|339:317|336:346|380:373|395:375|418:369|438:371|455:352|470:341|475:315,1,945,2|0,0:2|0:0,0:0:0:0:
410,298,357151,2,0,B|416:290|418:256|422:253|416:227|411:178|366:195|347:187|332:202|307:132|316:119|316:119|316:134|315:181|351:215|413:201|433:200|463:178|458:124|464:82|430:68|405:44|361:60|361:60|365:66|378:69|381:82|400:88|402:125|381:127,1,641.549990210724,2|0,1:2|0:0,0:0:0:0:
256,192,361608,12,0,363237,0:0:0:0:
