osu file format v14

[General]
AudioFilename: audio.mp3
AudioLeadIn: 0
PreviewTime: 163008
Countdown: 0
SampleSet: Soft
StackLeniency: 0.7
Mode: 2
LetterboxInBreaks: 0
WidescreenStoryboard: 1

[Editor]
Bookmarks: 42494,341465,344208,346951,348322,352437,357151,360494,361694,363237
DistanceSpacing: 0.9
BeatDivisor: 4
GridSize: 16
TimelineZoom: 2.4

[Metadata]
Title:Spectrum
TitleUnicode:Spectrum
Artist:Muzzy
ArtistUnicode:Muzzy
Creator:Greaper
Version:Refraction
Source:
Tags:CWC 2021 group stage gs tiebreaker tb Electronic Instrumental edm dnb drum and bass wubs techstep monstercat EP Extended Play dance melodic d&b
BeatmapID:2966667
BeatmapSetID:1442175

[Difficulty]
HPDrainRate:5
CircleSize:4.4
OverallDifficulty:9.3
ApproachRate:9.3
SliderMultiplier:1.9
SliderTickRate:2

[Events]
//Background and Video events
0,0,"a.jpg",0,0
//Break Periods
2,323437,330797
//Storyboard Layer 0 (Background)
//Storyboard Layer 1 (Fail)
//Storyboard Layer 2 (Pass)
//Storyboard Layer 3 (Foreground)
//Storyboard Layer 4 (Overlay)
//Storyboard Sound Samples

[TimingPoints]
1180,342.857142857143,4,2,11,10,1,0
6837,342.857142857143,4,2,11,10,1,0
40437,-100,4,2,11,20,0,0
41122,-100,4,2,11,30,0,0
41808,-100,4,2,11,40,0,0
42322,-100,4,2,11,5,0,0
42494,-200,4,2,11,50,0,0
45065,-200,4,2,11,5,0,0
45151,-200,4,2,11,50,0,0
47894,-200,4,2,11,5,0,0
47979,-200,4,2,11,50,0,0
49265,-200,4,2,11,5,0,0
49351,-200,4,2,11,50,0,0
50637,-200,4,2,11,5,0,0
50722,-166.666666666667,4,2,11,50,0,0
53379,-166.666666666667,4,2,11,5,0,0
53465,-166.666666666667,4,2,11,50,0,0
54751,-166.666666666667,4,2,11,5,0,0
54837,-166.666666666667,4,2,11,50,0,0
56122,-166.666666666667,4,2,11,5,0,0
56208,-142.857142857143,4,2,11,50,0,0
61608,-142.857142857143,4,2,11,5,0,0
61694,-142.857142857143,4,2,11,50,0,0
64351,-142.857142857143,4,2,11,5,0,0
64437,-142.857142857143,4,2,11,50,0,0
67008,342.857142857143,4,2,11,50,1,0
67008,-111.111111111111,4,2,11,50,0,0
75233,342.857142857143,4,2,11,50,1,0
78693,342.857142857143,4,2,11,50,1,0
83495,342.857142857143,4,2,11,50,1,0
85815,359.281437125748,4,2,11,50,1,0
87252,-100,4,2,11,40,0,0
87970,-100,4,2,11,30,0,0
88329,-100,4,2,11,15,0,0
88689,-100,4,2,11,5,0,0
91563,-100,4,2,11,50,0,0
93719,-100,4,2,11,5,0,0
94078,-100,4,2,15,50,0,0
94258,-100,4,2,14,50,0,0
94437,342.857142857143,4,2,11,50,1,0
105408,-100,4,2,11,55,0,0
116379,-100,4,2,11,60,0,0
138322,-100,4,2,11,30,0,0
139008,-100,4,2,11,40,0,0
139694,-100,4,2,11,50,0,0
140379,-100,4,2,11,60,0,0
140894,-100,4,2,11,5,0,0
141065,-90.9090909090909,4,2,11,65,0,0
150494,-83.3333333333333,4,2,11,65,0,0
150837,-90.9090909090909,4,2,11,65,0,0
152037,-90.9090909090909,4,2,12,75,0,0
163008,-40,4,2,13,90,0,1
163351,-76.9230769230769,4,2,13,90,0,1
175351,-41.6666666666667,4,2,13,90,0,1
175694,-76.9230769230769,4,2,13,90,0,1
176722,-66.6666666666667,4,2,13,90,0,1
177065,-76.9230769230769,4,2,13,90,0,1
177579,-66.6666666666667,4,2,13,90,0,1
178094,-40,4,2,13,90,0,1
178437,-76.9230769230769,4,2,13,90,0,1
180322,-66.6666666666667,4,2,13,90,0,1
180837,-40,4,2,13,90,0,1
181008,-76.9230769230769,4,2,13,90,0,1
183579,-90.9090909090909,4,2,12,50,0,0
184094,-90.9090909090909,4,2,14,50,0,0
184437,-90.9090909090909,4,2,15,50,0,0
184779,-90.9090909090909,4,2,16,50,0,0
184951,-90.9090909090909,4,2,12,60,0,0
194551,-76.9230769230769,4,2,12,60,0,0
195065,-90.9090909090909,4,2,12,60,0,0
195408,-90.9090909090909,4,2,14,60,0,0
195579,-90.9090909090909,4,2,12,60,0,0
195751,-90.9090909090909,4,2,14,60,0,0
195922,-90.9090909090909,4,2,12,70,0,0
208522,-90.9090909090909,4,2,14,70,0,0
208951,-90.9090909090909,4,2,15,70,0,0
209294,-90.9090909090909,4,2,12,70,0,0
209637,-76.9230769230769,4,2,12,80,0,1
215122,-40,4,2,12,80,0,1
215465,-76.9230769230769,4,2,12,80,0,1
218208,-66.6666666666667,4,2,12,80,0,1
218722,-58.8235294117647,4,2,12,80,0,1
218894,-76.9230769230769,4,2,12,80,0,1
219237,-40,4,2,12,80,0,1
219579,-76.9230769230769,4,2,12,80,0,1
220951,-55.5555555555556,4,2,12,80,0,1
221465,-40,4,2,12,80,0,1
221808,-76.9230769230769,4,2,12,80,0,1
221979,-33.3333333333333,4,2,12,80,0,1
222151,-76.9230769230769,4,2,12,80,0,1
223694,-66.6666666666667,4,2,12,85,0,1
224208,-40,4,2,12,85,0,1
224722,-33.3333333333333,4,2,12,85,0,1
225065,-76.9230769230769,4,2,12,85,0,1
226437,-40,4,2,12,90,0,1
226951,-37.037037037037,4,2,12,90,0,1
227465,-76.9230769230769,4,2,12,90,0,1
228837,-100,4,2,12,50,0,0
230465,-100,4,2,14,50,0,0
230894,-100,4,2,15,50,0,0
231237,-100,4,2,12,50,0,0
231579,-100,4,2,12,60,0,0
249665,-100,4,2,14,50,0,0
250094,-100,4,2,15,50,0,0
250437,-100,4,2,16,50,0,0
250779,-76.9230769230769,4,2,12,80,0,1
262437,-40,4,2,12,80,0,1
262779,-76.9230769230769,4,2,12,80,0,1
263808,-40,4,2,12,80,0,1
264151,-76.9230769230769,4,2,12,80,0,1
265179,-40,4,2,12,80,0,1
265522,-76.9230769230769,4,2,12,80,0,1
266550,-40,4,2,12,80,0,1
266893,-76.9230769230769,4,2,12,80,0,1
267922,-40,4,2,12,80,0,1
268265,-76.9230769230769,4,2,12,80,0,1
269293,-40,4,2,12,80,0,1
269636,-76.9230769230769,4,2,12,80,0,1
269979,-100,4,2,11,50,0,0
272722,-100,4,2,12,60,0,0
293722,-100,4,2,14,60,0,0
294151,-100,4,2,15,60,0,0
294494,-100,4,2,16,60,0,0
294665,-90.9090909090909,4,2,12,70,0,0
304951,-76.9230769230769,4,2,12,70,0,0
305294,-90.9090909090909,4,2,12,70,0,0
313865,-83.3333333333333,4,2,12,80,0,0
316608,-100,4,2,12,90,0,0
317294,-100,4,2,12,80,0,0
318665,-100,4,2,12,70,0,0
320037,-100,4,2,12,60,0,0
321065,-100,4,2,12,50,0,0
322094,-100,4,2,12,40,0,0
322779,-100,4,2,12,30,0,0
323237,-100,4,2,12,60,0,0
331351,-100,4,2,12,10,0,0
334437,-100,4,2,12,20,0,0
335122,-100,4,2,12,30,0,0
336494,-100,4,2,12,40,0,0
338551,-100,4,2,12,50,0,0
339922,-100,4,2,12,40,0,0
341122,-100,4,2,12,5,0,0
341465,-200,4,2,12,50,0,0
344122,-200,4,2,12,5,0,0
344208,-200,4,2,12,50,0,0
346865,-200,4,2,12,5,0,0
346951,-200,4,2,12,50,0,0
348237,-200,4,2,12,5,0,0
348322,-200,4,2,12,50,0,0
352351,-200,4,2,12,5,0,0
352437,-200,4,2,12,50,0,0
357065,-200,4,2,12,5,0,0
357151,-200,4,2,12,50,0,0
360494,-200,4,2,12,20,0,0
361694,-200,4,2,12,35,0,0
362551,-200,4,2,12,60,0,0
363237,-200,4,2,12,5,0,0

[Colours]
Combo1 : 249,164,6
Combo2 : 249,213,6
Combo3 : 155,118,100

[HitObjects]
256,192,39751,12,0,42322,0:0:0:0:
352,339,42494,6,0,P|402:290|332:347,1,712.5,2|0,0:0|0:0,0:0:0:0:
328,347,45151,6,0,P|171:323|423:110,1,760,2|0,0:0|0:0,0:0:0:0:
416,99,47979,6,0,L|61:54,1,356.25,2|0,0:0|0:0,0:0:0:0:
63,54,49351,2,0,L|433:28,1,356.25,2|0,0:0|0:0,0:0:0:0:
389,29,50722,6,0,P|152:147|481:155,1,883.499973037721,2|0,0:0|0:0,0:0:0:0:
481,157,53465,6,0,L|42:120,1,427.499986953736,2|0,0:0|0:0,0:0:0:0:
55,121,54837,2,0,P|121:126|11:303,1,427.499986953736,2|0,0:0|0:0,0:0:0:0:
15,306,56208,6,0,B|128:16|128:16|193:329|193:329|356:14|356:14|516:135|347:315|347:315|315:16|315:16|241:336|241:336|208:214,1,2094.74993607331,2|0,0:0|0:0,0:0:0:0:
207,213,61694,6,0,P|452:146|102:77,1,1030.74996854401,2|0,0:0|0:0,0:0:0:0:
101,73,64437,5,2,0:0:0:0:
256,192,64608,12,0,67050,0:0:0:0:
162,220,67693,6,0,L|350:207,1,170.999994781494,2|2,0:0|0:0,0:0:0:0:
82,303,68379,6,0,L|78:113,1,170.999994781494,2|0,0:0|0:0,0:0:0:0:
249,141,69065,2,0,L|60:123,1,170.999994781494,2|0,0:0|0:0,0:0:0:0:
326,222,69750,6,0,P|415:188|306:43,1,341.999989562989,2|2,0:0|0:0,0:0:0:0:
63,53,70779,6,0,P|247:177|51:297,1,512.999984344483,2|0,0:0|0:0,0:0:0:0:
73,306,72493,6,0,L|72:129,1,170.999994781494
235,131,73179,1,2,0:0:0:0:
67,95,73522,1,2,0:0:0:0:
321,80,73865,6,0,L|337:251,1,170.999994781494,2|0,0:0|0:0,0:0:0:0:
176,254,74550,1,2,0:0:0:0:
340,284,74893,1,2,0:0:0:0:
59,292,75233,6,0,L|433:142,1,380,2|2,0:0|0:0,0:0:0:0:
219,114,76261,1,2,0:0:0:0:
408,264,76604,6,0,P|435:216|230:52,1,380,2|0,0:0|0:0,0:0:0:0:
243,10,77975,2,0,L|441:6,1,190
108,60,78693,6,0,L|100:261,1,190,2|2,0:0|0:0,0:0:0:0:
391,107,79378,2,0,L|171:123,1,190,2|2,0:0|0:0,0:0:0:0:
489,118,80064,6,0,L|496:317,1,190,2|2,0:0|0:0,0:0:0:0:
205,303,80750,2,0,P|333:252|137:25,1,570,2|2,0:0|0:0,0:0:0:0:
431,33,82121,5,2,0:0:0:0:
226,33,82464,2,0,L|444:41,1,190,2|0,0:0|0:0,0:0:0:0:
126,157,83150,5,2,0:0:0:0:
256,192,83495,12,0,88689,0:0:0:0:
256,192,92282,12,0,93719,0:0:0:0:
293,229,94078,6,0,L|298:172,1,47.5,8|8,0:3|0:3,0:0:0:0:
205,185,94258,2,0,L|199:124,1,47.5,8|8,0:3|0:3,0:0:0:0:
385,150,94437,6,0,P|441:103|359:37,1,190,8|0,0:3|0:0,0:0:0:0:
279,18,94951,1,0,0:0:0:0:
408,211,95122,2,0,L|420:323,1,95,8|0,0:3|0:0,0:0:0:0:
320,315,95465,1,8,0:3:0:0:
461,309,95637,1,8,0:3:0:0:
315,250,95808,6,0,L|199:243,1,95
362,199,96151,2,0,L|366:90,1,95,2|0,0:0|0:0,0:0:0:0:
265,184,96494,2,0,L|260:77,1,95,2|0,0:0|0:0,0:0:0:0:
117,97,96837,2,0,L|115:197,1,95,2|0,0:0|0:0,0:0:0:0:
352,208,97179,6,0,P|414:262|345:325,1,190,8|0,0:3|0:0,0:0:0:0:
258,328,97694,1,0,0:0:0:0:
161,324,97865,2,0,L|359:326,1,190,8|0,0:3|0:0,0:0:0:0:
207,237,98379,5,8,0:3:0:0:
111,222,98551,2,0,L|106:113,1,95
252,117,98894,2,0,L|257:9,1,95,2|0,0:0|0:0,0:0:0:0:
156,32,99237,2,0,L|151:156,1,95,2|0,0:0|0:0,0:0:0:0:
294,137,99579,1,2,0:0:0:0:
151,166,99751,1,0,0:0:0:0:
396,162,99922,6,0,P|445:198|384:288,1,190,8|0,0:3|0:0,0:0:0:0:
183,262,100608,2,0,L|374:272,1,190,8|0,0:3|0:0,0:0:0:0:
230,211,101122,6,0,L|220:18,1,190,8|0,0:3|0:0,0:0:0:0:
356,24,101637,2,0,L|363:130,1,95,2|0,0:0|0:0,0:0:0:0:
220,128,101979,2,0,L|217:229,1,95,2|0,0:0|0:0,0:0:0:0:
316,202,102322,2,0,L|327:317,1,95,2|0,0:0|0:0,0:0:0:0:
96,279,102665,6,0,P|117:181|202:156,1,190,8|0,0:3|0:0,0:0:0:0:
291,157,103179,1,0,0:0:0:0:
156,116,103351,2,0,P|97:56|166:7,1,190,8|0,0:3|0:0,0:0:0:0:
310,26,103865,6,0,L|93:22,1,190,8|0,0:3|0:0,0:0:0:0:
266,72,104379,2,0,L|270:189,1,95,2|0,0:0|0:0,0:0:0:0:
120,151,104722,2,0,L|116:266,1,95,2|0,0:0|0:0,0:0:0:0:
167,249,104979,1,0,0:0:0:0:
265,253,105065,2,0,L|272:361,1,95,8|0,0:0|0:0,0:0:0:0:
27,330,105408,6,0,L|225:348,1,190,8|0,0:0|0:0,0:0:0:0:
314,352,105922,1,0,0:0:0:0:
73,190,106094,2,0,L|69:82,1,95,8|0,0:0|0:0,0:0:0:0:
168,88,106437,1,0,0:0:0:0:
416,74,106608,6,0,P|465:147|404:209,1,190,8|0,0:0|0:0,0:0:0:0:
260,214,107122,2,0,L|256:95,1,95,2|0,0:0|0:0,0:0:0:0:
355,123,107465,2,0,L|355:18,1,95,2|0,0:0|0:0,0:0:0:0:
210,27,107808,1,2,0:0:0:0:
357,24,107979,1,0,0:0:0:0:
112,26,108151,6,0,P|110:87|209:157,1,190,8|0,0:0|0:0,0:0:0:0:
308,158,108665,1,0,0:0:0:0:
76,192,108837,2,0,L|75:323,1,95,8|0,0:0|0:0,0:0:0:0:
174,294,109179,1,0,0:0:0:0:
413,288,109351,6,0,L|411:191,1,95,8|0,0:0|0:0,0:0:0:0:
316,180,109694,1,0,0:0:0:0:
169,169,109865,2,0,L|161:68,1,95,2|0,0:0|0:0,0:0:0:0:
306,70,110208,2,0,L|311:-26,1,95,2|0,0:0|0:0,0:0:0:0:
167,12,110551,1,10,0:3:0:0:
309,135,110722,1,8,0:3:0:0:
62,160,110894,6,0,L|255:188,1,190,8|0,0:0|0:0,0:0:0:0:
348,202,111408,1,0,0:0:0:0:
119,204,111579,2,0,L|109:332,1,95,8|0,0:0|0:0,0:0:0:0:
16,304,111922,1,0,0:0:0:0:
273,309,112094,6,0,L|484:333,1,190,8|0,0:0|0:0,0:0:0:0:
317,244,112608,2,0,L|310:135,1,95,2|0,0:0|0:0,0:0:0:0:
169,194,112951,2,0,L|268:178,1,95,2|0,0:0|0:0,0:0:0:0:
119,117,113294,2,0,L|15:106,1,95,2|0,0:0|0:0,0:0:0:0:
308,74,113637,6,0,L|500:91,1,190,12|0,0:0|0:0,0:0:0:0:
492,171,114151,1,0,0:0:0:0:
255,187,114322,2,0,L|252:291,1,95,8|0,0:0|0:0,0:0:0:0:
352,294,114665,1,0,0:0:0:0:
106,282,114837,6,0,L|310:318,1,190,8|0,0:0|0:0,0:0:0:0:
48,204,115351,2,0,L|39:92,1,95,8|0,0:0|0:0,0:0:0:0:
283,132,115694,2,0,L|289:29,1,95,8|0,0:0|0:0,0:0:0:0:
145,35,116037,1,8,0:3:0:0:
290,19,116208,1,8,0:3:0:0:
16,48,116379,6,0,L|205:64,1,190,12|0,0:0|0:0,0:0:0:0:
394,119,117065,2,0,L|201:110,1,190,2|2,0:0|0:0,0:0:0:0:
487,139,117751,6,0,P|483:238|385:287,1,190,2|2,0:0|0:0,0:0:0:0:
317,281,118265,1,0,0:0:0:0:
175,252,118437,2,0,L|169:145,1,95,2|0,0:0|0:0,0:0:0:0:
294,173,118779,2,0,L|300:54,1,95,2|0,0:0|0:0,0:0:0:0:
32,128,119122,6,0,L|219:59,4,190,2|0|0|0|0,0:0|0:0|0:0|0:0|0:0,0:0:0:0:
35,204,120665,5,0,0:0:0:0:
179,197,120837,2,0,L|185:95,1,95,2|0,0:0|0:0,0:0:0:0:
328,127,121179,2,0,L|334:31,1,95,2|0,0:0|0:0,0:0:0:0:
475,123,121522,2,0,L|481:27,1,95,2|0,0:0|0:0,0:0:0:0:
241,201,121865,6,0,L|42:182,1,190,4|0,0:0|0:0,0:0:0:0:
326,183,122551,2,0,P|367:137|294:26,1,190,2|0,0:0|0:0,0:0:0:0:
178,66,123065,6,0,L|174:170,1,95,2|0,0:0|0:0,0:0:0:0:
271,172,123408,1,0,0:0:0:0:
128,188,123579,2,0,L|121:287,1,95,2|0,0:0|0:0,0:0:0:0:
264,210,123922,2,0,L|257:309,1,95,2|0,0:0|0:0,0:0:0:0:
391,304,124265,1,2,0:0:0:0:
255,328,124437,1,0,0:0:0:0:
496,272,124608,6,0,P|470:171|389:153,1,190,8|0,0:0|0:0,0:0:0:0:
203,134,125294,2,0,L|408:133,1,190,2|0,0:0|0:0,0:0:0:0:
155,252,125808,6,0,L|46:237,2,95,8|0|0,0:0|0:0|0:0,0:0:0:0:
298,224,126322,1,8,0:3:0:0:
155,190,126494,1,8,0:3:0:0:
394,61,126665,2,0,L|192:82,1,190,8|0,0:0|0:0,0:0:0:0:
346,113,127179,1,0,0:0:0:0:
108,135,127351,6,0,L|93:340,1,190,8|0,0:0|0:0,0:0:0:0:
191,332,127865,1,0,0:0:0:0:
421,276,128037,2,0,L|426:162,1,95,8|0,0:0|0:0,0:0:0:0:
330,173,128379,1,0,0:0:0:0:
86,162,128551,5,8,0:0:0:0:
184,151,128722,2,0,L|188:46,1,95
44,108,129065,2,0,L|39:7,1,95
278,30,129408,2,0,P|304:84|196:169,1,190,8|8,0:0|0:3,0:0:0:0:
133,182,129922,1,0,0:0:0:0:
378,191,130094,6,0,L|170:197,1,190,8|0,0:0|0:0,0:0:0:0:
184,259,130608,1,0,0:0:0:0:
323,300,130779,2,0,L|94:322,1,190,8|0,0:3|0:0,0:0:0:0:
376,242,131294,6,0,L|471:244,2,95,8|0|0,0:0|0:0|0:0,0:0:0:0:
137,208,131808,2,0,L|128:100,1,95,8|0,0:0|0:0,0:0:0:0:
360,134,132151,2,0,L|363:29,1,95,8|0,0:0|0:0,0:0:0:0:
225,83,132494,2,0,L|218:182,1,95,8|0,0:3|0:0,0:0:0:0:
462,186,132837,6,0,P|461:252|350:309,1,190,8|0,0:0|0:0,0:0:0:0:
267,314,133351,1,0,0:0:0:0:
496,112,133522,2,0,L|292:103,1,190,8|0,0:0|0:0,0:0:0:0:
41,35,134037,6,0,L|35:140,1,95,8|0,0:0|0:0,0:0:0:0:
289,142,134551,2,0,L|296:246,1,95,2|0,0:0|0:0,0:0:0:0:
156,195,134894,2,0,L|164:297,1,95,2|0,0:0|0:0,0:0:0:0:
21,208,135237,2,0,L|18:315,1,95,2|0,0:0|0:0,0:0:0:0:
263,277,135579,6,0,L|462:285,1,190,8|0,0:0|0:0,0:0:0:0:
305,212,136094,2,0,L|300:104,1,95,8|0,0:3|0:0,0:0:0:0:
492,116,136608,2,0,L|493:11,1,95,8|0,0:3|0:0,0:0:0:0:
253,38,136951,6,0,L|148:31,2,95,8|0|0,0:0|0:0|0:0,0:0:0:0:
390,63,137465,1,2,0:0:0:0:
247,88,137637,2,0,L|240:186,1,95,2|0,0:0|0:0,0:0:0:0:
102,117,137979,2,0,L|100:223,1,95,2|0,0:0|0:0,0:0:0:0:
256,192,138322,12,0,140894,0:0:0:0:
85,181,141065,6,0,L|315:164,1,209.000006378174,8|0,0:3|0:0,0:0:0:0:
16,128,141751,2,0,L|23:21,1,104.500003189087,8|0,0:0|0:0,0:0:0:0:
131,17,142094,1,0,0:0:0:0:
387,34,142265,6,0,L|393:157,1,104.500003189087,8|0,0:0|0:0,0:0:0:0:
245,145,142608,1,2,0:0:0:0:
393,180,142779,2,0,L|497:193,1,104.500003189087,2|0,0:0|0:0,0:0:0:0:
339,233,143122,2,0,L|443:246,1,104.500003189087,2|0,0:0|0:0,0:0:0:0:
287,289,143465,2,0,L|391:302,1,104.500003189087,2|0,0:0|0:0,0:0:0:0:
119,300,143808,6,0,L|345:327,1,209.000006378174,8|0,0:3|0:0,0:0:0:0:
43,232,144494,2,0,L|161:224,2,104.500003189087,8|0|0,0:0|0:0|0:0,0:0:0:0:
316,211,145008,6,0,L|324:96,1,104.500003189087,8|0,0:0|0:0,0:0:0:0:
168,95,145351,1,2,0:0:0:0:
326,64,145522,2,0,L|211:62,1,104.500003189087,2|0,0:0|0:0,0:0:0:0:
381,24,145865,2,0,L|271:25,1,104.500003189087,2|0,0:0|0:0,0:0:0:0:
115,44,146208,2,0,L|113:156,1,104.500003189087,2|0,0:0|0:0,0:0:0:0:
389,169,146551,6,0,L|161:184,1,209.000006378174,8|0,0:3|0:0,0:0:0:0:
479,116,147237,2,0,L|479:7,1,104.500003189087,8|0,0:0|0:0,0:0:0:0:
379,17,147579,1,0,0:0:0:0:
110,61,147751,6,0,L|233:65,1,104.500003189087,8|0,0:0|0:0,0:0:0:0:
372,88,148094,1,2,0:0:0:0:
211,118,148265,2,0,L|326:124,1,104.500003189087,2|0,0:0|0:0,0:0:0:0:
160,191,148608,2,0,L|275:197,1,104.500003189087,2|0,0:0|0:0,0:0:0:0:
99,260,148951,2,0,L|214:266,1,104.500003189087,2|0,0:0|0:0,0:0:0:0:
496,288,149294,6,0,L|285:305,2,209.000006378174,8|0|8,0:0|0:0|0:0,0:0:0:0:
213,267,150322,1,8,0:3:0:0:
478,208,150494,6,0,L|241:206,1,227.999993041992,8|0,0:0|0:0,0:0:0:0:
397,147,151008,1,2,0:0:0:0:
105,139,151179,1,10,0:0:0:0:
238,114,151351,2,0,L|130:110,1,104.500003189087,10|0,0:0|0:0,0:0:0:0:
392,57,151694,2,0,L|506:51,1,104.500003189087,10|0,0:0|0:0,0:0:0:0:
193,73,152037,6,0,L|185:188,1,104.500003189087,8|0,0:3|0:0,0:0:0:0:
335,188,152379,2,0,L|447:199,2,104.500003189087,8|0|8,0:0|0:0|0:3,0:0:0:0:
171,205,152894,1,0,0:0:0:0:
431,248,153065,2,0,L|435:122,1,104.500003189087,8|0,0:0|0:0,0:0:0:0:
157,127,153408,5,8,0:3:0:0:
288,122,153579,1,0,0:0:0:0:
26,125,153751,2,0,L|23:3,1,104.500003189087,8|0,0:0|0:0,0:0:0:0:
172,31,154094,2,0,L|56:26,1,104.500003189087,8|0,0:3|0:0,0:0:0:0:
333,30,154437,2,0,L|447:38,1,104.500003189087,8|0,0:0|0:0,0:0:0:0:
123,92,154779,6,0,L|118:214,1,104.500003189087,8|0,0:3|0:0,0:0:0:0:
267,137,155122,2,0,L|270:263,1,104.500003189087,8|0,0:0|0:0,0:0:0:0:
122,212,155465,2,0,L|14:223,1,104.500003189087,8|0,0:3|0:0,0:0:0:0:
283,285,155808,2,0,L|159:298,1,104.500003189087,8|0,0:0|0:0,0:0:0:0:
444,172,156151,5,8,0:3:0:0:
316,173,156322,1,0,0:0:0:0:
46,161,156494,2,0,L|43:50,1,104.500003189087,8|0,0:0|0:0,0:0:0:0:
193,52,156837,2,0,L|303:47,1,104.500003189087,8|0,0:3|0:0,0:0:0:0:
42,14,157179,2,0,L|167:8,1,104.500003189087,8|0,0:0|0:0,0:0:0:0:
441,78,157522,6,0,L|211:101,1,209.000006378174,8|8,0:3|0:0,0:0:0:0:
226,182,158037,1,0,0:0:0:0:
376,145,158208,2,0,L|378:255,1,104.500003189087,8|0,0:3|0:0,0:0:0:0:
94,233,158551,2,0,L|94:103,1,104.500003189087,8|0,0:0|0:0,0:0:0:0:
359,42,158894,5,8,0:3:0:0:
232,50,159065,1,0,0:0:0:0:
496,48,159237,2,0,L|491:170,1,104.500003189087,8|0,0:0|0:0,0:0:0:0:
345,152,159579,2,0,L|484:155,1,104.500003189087,8|0,0:3|0:0,0:0:0:0:
188,147,159922,2,0,L|311:157,1,104.500003189087,8|0,0:0|0:0,0:0:0:0:
16,80,160265,6,0,L|18:140,1,52.2500015945435,8|8,0:3|0:3,0:0:0:0:
85,154,160437,2,0,L|150:167,1,52.2500015945435,8|8,0:3|0:3,0:0:0:0:
296,205,160608,2,0,L|300:147,1,52.2500015945435,8|8,0:0|0:3,0:0:0:0:
226,129,160779,2,0,L|221:69,1,52.2500015945435,8|8,0:3|0:3,0:0:0:0:
409,54,160951,2,0,L|469:50,1,52.2500015945435,8|8,0:3|0:3,0:0:0:0:
391,27,161122,2,0,L|334:30,1,52.2500015945435,8|8,0:3|0:3,0:0:0:0:
176,37,161294,2,0,L|115:36,1,52.2500015945435,8|8,0:0|0:3,0:0:0:0:
312,83,161465,2,0,L|375:82,1,52.2500015945435,8|8,0:3|0:3,0:0:0:0:
124,105,161637,6,0,P|60:164|136:254,1,209.000006378174,8|0,0:3|0:0,0:0:0:0:
377,210,162151,1,8,0:0:0:0:
239,223,162322,1,8,0:0:0:0:
496,192,162494,1,8,0:3:0:0:
359,174,162665,1,8,0:3:0:0:
496,192,162837,1,8,0:3:0:0:
202,147,163008,6,0,B|443:111|443:111|451:353,1,475,12|8,0:3|0:0,0:0:0:0:
180,342,163522,1,0,0:0:0:0:
211,340,163564,1,0,0:0:0:0:
242,338,163607,1,0,0:0:0:0:
273,336,163650,1,0,0:0:0:0:
304,334,163693,1,8,0:3:0:0:
166,300,163865,1,0,0:0:0:0:
332,282,164037,1,8,0:0:0:0:
22,169,164208,5,0,0:0:0:0:
53,165,164250,1,0,0:0:0:0:
84,162,164293,1,0,0:0:0:0:
115,159,164336,1,0,0:0:0:0:
145,155,164379,1,8,0:3:0:0:
308,147,164551,1,0,0:0:0:0:
16,144,164722,2,0,L|21:8,1,123.499994346619,8|0,0:0|0:0,0:0:0:0:
206,25,165065,2,0,L|69:27,1,123.499994346619,8|0,0:3|0:0,0:0:0:0:
372,62,165408,2,0,L|497:55,1,123.499994346619,8|0,0:0|0:0,0:0:0:0:
181,160,165751,6,0,L|435:142,1,246.999988693238,8|8,0:3|0:0,0:0:0:0:
140,192,166265,1,0,0:0:0:0:
139,222,166307,1,0,0:0:0:0:
138,253,166350,1,0,0:0:0:0:
136,284,166393,1,0,0:0:0:0:
135,315,166436,1,8,0:3:0:0:
303,318,166608,1,0,0:0:0:0:
130,343,166779,1,8,0:0:0:0:
456,331,166951,5,0,0:0:0:0:
458,293,166993,1,0,0:0:0:0:
460,261,167036,1,0,0:0:0:0:
462,222,167079,1,0,0:0:0:0:
464,176,167122,1,8,0:3:0:0:
292,197,167294,1,0,0:0:0:0:
30,190,167465,2,0,L|27:56,1,123.499994346619,8|0,0:0|0:0,0:0:0:0:
188,58,167808,2,0,L|315:48,1,123.499994346619,8|0,0:3|0:0,0:0:0:0:
28,37,168151,2,0,L|173:26,1,123.499994346619,8|0,0:0|0:0,0:0:0:0:
467,91,168494,6,0,L|211:112,1,246.999988693238,8|8,0:3|0:0,0:0:0:0:
489,144,169008,1,0,0:0:0:0:
459,145,169050,1,0,0:0:0:0:
428,147,169093,1,0,0:0:0:0:
397,149,169136,1,0,0:0:0:0:
366,150,169179,1,8,0:3:0:0:
496,192,169351,1,0,0:0:0:0:
334,200,169522,1,8,0:0:0:0:
28,199,169694,5,0,0:0:0:0:
59,196,169736,1,0,0:0:0:0:
90,194,169779,1,0,0:0:0:0:
121,192,169822,1,0,0:0:0:0:
152,189,169865,1,8,0:3:0:0:
307,153,170037,1,0,0:0:0:0:
34,129,170208,2,0,L|29:2,1,123.499994346619,8|0,0:0|0:0,0:0:0:0:
182,18,170551,2,0,L|185:150,1,123.499994346619,8|0,0:3|0:0,0:0:0:0:
486,132,170894,2,0,L|355:141,1,123.499994346619,8|0,0:0|0:0,0:0:0:0:
46,167,171237,6,0,L|187:177,1,123.499994346619,8|0,0:3|0:0,0:0:0:0:
347,215,171579,2,0,L|216:224,1,123.499994346619,8|0,0:0|0:0,0:0:0:0:
388,270,171922,2,0,L|249:278,1,123.499994346619,8|0,0:3|0:0,0:0:0:0:
429,319,172265,1,8,0:0:0:0:
139,317,172437,6,0,L|139:184,1,123.499994346619,0|8,0:0|0:3,0:0:0:0:
297,185,172779,1,0,0:0:0:0:
16,176,172951,2,0,L|158:167,1,123.499994346619,8|0,0:0|0:0,0:0:0:0:
289,135,173294,1,8,0:3:0:0:
119,100,173465,1,8,0:0:0:0:
399,68,173637,2,0,L|409:208,1,123.499994346619,8|8,0:0|0:3,0:0:0:0:
73,196,173979,5,8,0:3:0:0:
496,208,174322,2,0,L|359:216,2,123.499994346619,8|0|8,0:0|0:0|0:3,0:0:0:0:
243,192,174837,2,0,L|240:66,1,123.499994346619,0|8,0:0|0:0,0:0:0:0:
366,67,175179,1,0,0:0:0:0:
122,63,175351,6,0,L|368:64,1,227.999993041992,8|0,0:3|0:0,0:0:0:0:
79,132,175694,2,0,L|73:273,1,123.499994346619,8|0,0:0|0:0,0:0:0:0:
358,262,176037,2,0,L|364:136,1,123.499994346619,8|0,0:3|0:0,0:0:0:0:
216,133,176379,1,8,0:0:0:0:
372,113,176551,1,0,0:0:0:0:
63,97,176722,6,0,L|227:93,1,142.500005435944,8|0,0:3|0:0,0:0:0:0:
496,48,177065,2,0,L|242:68,1,246.999988693238,8|8,0:0|0:3,0:0:0:0:
496,96,177579,2,0,L|336:113,2,142.500005435944,0|8|0,0:0|0:0|0:0,0:0:0:0:
172,125,178094,6,0,L|409:122,1,237.5,8|0,0:3|0:0,0:0:0:0:
155,273,178437,2,0,L|29:285,1,123.499994346619,8|0,0:0|0:0,0:0:0:0:
195,286,178779,1,8,0:3:0:0:
37,302,178951,1,0,0:0:0:0:
318,210,179122,2,0,L|461:202,1,123.499994346619,8|0,0:0|0:0,0:0:0:0:
154,193,179465,6,0,L|293:181,1,123.499994346619,8|0,0:3|0:0,0:0:0:0:
16,160,179808,2,0,L|280:143,1,246.999988693238,8|8,0:0|0:3,0:0:0:0:
16,112,180322,2,0,L|166:102,2,142.500005435944,0|8|0,0:0|0:0|0:0,0:0:0:0:
337,61,180837,6,0,L|89:71,1,237.5,8|0,0:3|0:0,0:0:0:0:
368,119,181179,2,0,L|494:126,1,123.499994346619,8|0,0:0|0:0,0:0:0:0:
207,161,181522,2,0,L|201:296,1,123.499994346619,8|0,0:3|0:0,0:0:0:0:
376,287,181865,2,0,L|378:156,1,123.499994346619,8|0,0:0|0:0,0:0:0:0:
124,138,182208,6,0,L|250:126,1,123.499994346619,8|0,0:3|0:0,0:0:0:0:
427,113,182551,1,8,0:0:0:0:
271,118,182722,1,0,0:0:0:0:
431,147,182894,2,0,L|444:286,1,123.499994346619,8|0,0:3|0:0,0:0:0:0:
143,275,183237,1,8,0:0:0:0:
291,289,183408,1,0,0:0:0:0:
52,271,183579,5,8,0:3:0:0:
365,220,184094,1,8,0:3:0:0:
107,214,184265,2,0,L|97:93,1,104.500003189087,8|8,0:3|0:3,0:0:0:0:
329,67,184608,1,8,0:3:0:0:
206,52,184779,1,8,0:3:0:0:
444,63,184951,6,0,L|451:172,1,104.500003189087,8|0,0:3|0:0,0:0:0:0:
309,172,185294,2,0,L|200:182,1,104.500003189087,8|0,0:0|0:0,0:0:0:0:
458,199,185637,2,0,L|465:306,1,104.500003189087,8|0,0:3|0:0,0:0:0:0:
318,297,185979,2,0,L|434:309,1,104.500003189087,8|0,0:0|0:0,0:0:0:0:
168,271,186322,6,0,L|162:159,1,104.500003189087,8|0,0:3|0:0,0:0:0:0:
307,161,186665,1,8,0:0:0:0:
162,136,186837,1,0,0:0:0:0:
399,124,187008,2,0,L|404:11,1,104.500003189087,8|0,0:3|0:0,0:0:0:0:
159,19,187351,2,0,L|52:16,1,104.500003189087,8|0,0:0|0:0,0:0:0:0:
325,109,187694,6,0,L|101:106,1,209.000006378174,8|8,0:3|0:0,0:0:0:0:
124,186,188208,1,0,0:0:0:0:
274,163,188379,2,0,L|276:280,1,104.500003189087,8|0,0:3|0:0,0:0:0:0:
16,224,188722,2,0,L|132:233,1,104.500003189087,8|0,0:0|0:0,0:0:0:0:
383,245,189065,5,8,0:3:0:0:
247,235,189237,1,0,0:0:0:0:
383,245,189408,1,8,0:0:0:0:
125,173,189579,1,0,0:0:0:0:
276,163,189751,2,0,L|287:38,1,104.500003189087,8|0,0:3|0:0,0:0:0:0:
22,65,190094,2,0,L|136:58,1,104.500003189087,8|0,0:0|0:0,0:0:0:0:
391,62,190437,6,0,L|396:190,1,104.500003189087,8|0,0:3|0:0,0:0:0:0:
135,160,190779,2,0,L|131:267,1,104.500003189087,8|0,0:0|0:0,0:0:0:0:
284,269,191122,2,0,L|172:273,1,104.500003189087,8|0,0:3|0:0,0:0:0:0:
445,283,191465,2,0,L|328:288,1,104.500003189087,8|0,0:0|0:0,0:0:0:0:
67,203,191808,5,8,0:3:0:0:
202,196,191979,1,0,0:0:0:0:
67,203,192151,1,8,0:0:0:0:
325,175,192322,1,0,0:0:0:0:
185,150,192494,2,0,L|178:34,1,104.500003189087,8|0,0:3|0:0,0:0:0:0:
444,46,192837,2,0,L|448:167,1,104.500003189087,8|0,0:0|0:0,0:0:0:0:
135,209,193179,6,0,L|261:217,1,104.500003189087,8|0,0:3|0:0,0:0:0:0:
86,192,193522,2,0,L|80:73,1,104.500003189087,8|0,0:0|0:0,0:0:0:0:
350,88,193865,2,0,L|355:200,1,104.500003189087,8|0,0:3|0:0,0:0:0:0:
201,200,194208,1,8,0:0:0:0:
358,232,194379,1,0,0:0:0:0:
91,243,194551,6,0,L|222:247,2,123.499994346619,8|0|8,0:3|0:0|0:0,0:0:0:0:
346,121,195065,2,0,L|238:116,1,104.500003189087,0|8,0:0|0:3,0:0:0:0:
87,94,195408,1,8,0:3:0:0:
356,87,195579,2,0,L|287:84,1,52.2500015945435,8|8,0:0|0:3,0:0:0:0:
143,75,195751,1,8,0:3:0:0:
406,146,195922,5,0,0:0:0:0:
273,157,196094,2,0,L|266:216,1,52.2500015945435
341,213,196265,2,0,L|345:320,1,104.500003189087,8|0,0:0|0:0,0:0:0:0:
79,301,196608,1,8,0:3:0:0:
191,256,196779,2,0,L|193:192,1,52.2500015945435
28,244,196951,2,0,L|22:126,1,104.500003189087,8|0,0:0|0:0,0:0:0:0:
75,128,197208,1,0,0:0:0:0:
292,184,197294,6,0,L|419:180,1,104.500003189087,8|0,0:3|0:0,0:0:0:0:
402,122,197551,1,0,0:0:0:0:
252,146,197637,2,0,L|248:31,1,104.500003189087,8|0,0:0|0:0,0:0:0:0:
302,36,197894,1,0,0:0:0:0:
146,38,197979,2,0,L|40:34,1,104.500003189087,8|0,0:3|0:0,0:0:0:0:
307,105,198322,2,0,L|418:110,1,104.500003189087,8|0,0:0|0:0,0:0:0:0:
358,165,198579,1,0,0:0:0:0:
171,177,198665,6,0,L|165:297,1,104.500003189087,8|0,0:3|0:0,0:0:0:0:
429,182,199008,1,8,0:0:0:0:
302,186,199179,2,0,L|242:195,1,52.2500015945435
312,238,199351,2,0,L|419:256,1,104.500003189087,8|0,0:3|0:0,0:0:0:0:
144,338,199694,1,8,0:0:0:0:
252,321,199865,2,0,L|256:261,1,52.2500015945435
94,256,200037,6,0,L|89:131,1,104.500003189087,8|0,0:3|0:0,0:0:0:0:
143,144,200294,1,0,0:0:0:0:
301,141,200379,1,8,0:0:0:0:
190,114,200551,2,0,L|187:53,1,52.2500015945435
276,53,200722,2,0,L|380:48,1,104.500003189087,8|0,0:3|0:0,0:0:0:0:
431,45,200979,1,0,0:0:0:0:
245,192,201065,2,0,L|238:257,1,52.2500015945435,8|0,0:0|0:0,0:0:0:0:
317,268,201237,2,0,L|392:283,1,52.2500015945435
189,287,201408,5,8,0:3:0:0:
296,271,201579,2,0,L|303:212,1,52.2500015945435
116,172,201751,2,0,L|59:167,1,52.2500015945435,8|0,0:0|0:0,0:0:0:0:
142,127,201922,2,0,L|198:132,1,52.2500015945435
382,119,202094,2,0,L|251:107,1,104.500003189087,8|0,0:3|0:0,0:0:0:0:
223,104,202351,1,0,0:0:0:0:
409,161,202437,1,8,0:0:0:0:
287,178,202608,2,0,L|279:245,1,52.2500015945435
496,256,202779,5,8,0:3:0:0:
378,246,202951,2,0,L|322:248,1,52.2500015945435
168,277,203122,2,0,L|163:169,1,104.500003189087,8|0,0:0|0:0,0:0:0:0:
219,162,203379,1,0,0:0:0:0:
409,138,203465,2,0,L|297:129,1,104.500003189087,8|0,0:3|0:0,0:0:0:0:
254,123,203722,1,0,0:0:0:0:
415,25,203808,2,0,L|475:22,1,52.2500015945435,8|0,0:0|0:0,0:0:0:0:
268,12,203979,2,0,L|264:74,1,52.2500015945435
473,9,204151,5,8,0:3:0:0:
266,33,204494,2,0,L|261:154,1,104.500003189087,0|8,0:0|0:3,0:0:0:0:
469,39,205008,2,0,L|477:256,1,209.000006378174
208,284,205522,6,0,P|146:253|210:157,1,209.000006378174,8|8,0:3|0:3,0:0:0:0:
365,145,206037,2,0,L|140:133,1,209.000006378174,0|8,0:0|0:3,0:0:0:0:
316,80,206551,2,0,L|323:-29,1,104.500003189087
32,16,206894,5,8,0:3:0:0:
433,122,207237,2,0,L|219:105,1,209.000006378174,2|0,0:0|0:0,0:0:0:0:
361,179,207751,2,0,L|147:162,1,209.000006378174,2|0,0:0|0:0,0:0:0:0:
414,220,208265,5,2,0:0:0:0:
246,217,208437,2,0,L|241:159,1,52.2500015945435,2|8,0:0|0:3,0:0:0:0:
390,140,208608,2,0,L|501:129,1,104.500003189087,8|8,0:3|0:3,0:0:0:0:
339,96,208951,1,8,0:3:0:0:
495,79,209122,1,8,0:3:0:0:
216,71,209294,2,0,L|95:64,1,104.500003189087,8|0,0:0|0:0,0:0:0:0:
426,184,209637,6,0,L|283:175,1,123.499994346619
22,144,209979,2,0,L|157:150,2,123.499994346619,10|0|8,0:0|0:0|0:3,0:0:0:0:
312,118,210494,1,2,0:0:0:0:
185,113,210665,2,0,L|175:242,1,123.499994346619,8|0,0:0|0:0,0:0:0:0:
491,83,211008,5,10,0:3:0:0:
336,83,211179,1,2,0:0:0:0:
38,71,211351,2,0,L|29:204,1,123.499994346619,10|0,0:0|0:0,0:0:0:0:
193,190,211694,2,0,L|65:195,1,123.499994346619,10|0,0:3|0:0,0:0:0:0:
363,229,212037,2,0,L|495:220,1,123.499994346619,10|0,0:0|0:0,0:0:0:0:
176,239,212379,6,0,L|171:113,1,123.499994346619,8|0,0:3|0:0,0:0:0:0:
467,116,212722,2,0,L|326:104,1,123.499994346619,10|0,0:0|0:0,0:0:0:0:
480,64,213065,1,8,0:3:0:0:
192,45,213237,1,2,0:0:0:0:
333,52,213408,2,0,L|459:57,1,123.499994346619,8|0,0:0|0:0,0:0:0:0:
148,169,213751,5,10,0:3:0:0:
301,179,213922,1,2,0:0:0:0:
27,174,214094,2,0,L|24:40,1,123.499994346619,10|0,0:0|0:0,0:0:0:0:
186,44,214437,2,0,L|325:38,1,123.499994346619,10|0,0:3|0:0,0:0:0:0:
27,99,214779,2,0,L|162:91,1,123.499994346619,10|0,0:0|0:0,0:0:0:0:
438,110,215122,6,0,B|201:128|201:128|187:372,1,475,10|10,0:3|0:0,0:0:0:0:
320,363,215637,1,0,0:0:0:0:
48,283,215808,2,0,L|43:159,1,123.499994346619,10|0,0:3|0:0,0:0:0:0:
202,142,216151,1,10,0:0:0:0:
38,120,216322,1,2,0:0:0:0:
358,107,216494,5,8,0:3:0:0:
197,96,216665,1,2,0:0:0:0:
492,103,216837,2,0,L|345:95,1,123.499994346619,10|0,0:0|0:0,0:0:0:0:
496,48,217179,1,10,0:3:0:0:
363,36,217351,1,0,0:0:0:0:
84,44,217522,2,0,L|75:190,1,123.499994346619,10|0,0:0|0:0,0:0:0:0:
328,192,217865,6,0,L|337:337,1,123.499994346619,10|0,0:3|0:0,0:0:0:0:
48,304,218208,2,0,L|193:302,1,142.500005435944,10|0,0:0|0:0,0:0:0:0:
195,236,218551,1,8,0:3:0:0:
48,256,218722,2,0,L|220:258,1,161.500003080368,2|8,0:0|0:0,0:0:0:0:
336,258,219065,1,0,0:0:0:0:
48,208,219237,6,0,B|287:206,1,237.5,10|2,0:3|0:0,0:0:0:0:
16,160,219579,2,0,L|21:24,1,123.499994346619,10|0,0:0|0:0,0:0:0:0:
171,36,219922,2,0,L|36:29,1,123.499994346619,10|0,0:3|0:0,0:0:0:0:
345,94,220265,2,0,L|345:227,1,123.499994346619,10|0,0:0|0:0,0:0:0:0:
13,268,220608,6,0,L|147:274,1,123.499994346619,10|0,0:3|0:0,0:0:0:0:
430,273,220951,2,0,L|250:270,1,170.999994781494,10|0,0:0|0:0,0:0:0:0:
256,207,221294,1,8,0:3:0:0:
487,175,221465,2,0,L|235:165,1,237.5,2|8,0:0|0:0,0:0:0:0:
125,160,221808,1,0,0:0:0:0:
406,89,221979,6,0,B|122:87,1,285.000010871888,10|2,0:3|0:0,0:0:0:0:
387,144,222322,2,0,L|393:280,1,123.499994346619,10|0,0:0|0:0,0:0:0:0:
228,264,222665,2,0,L|84:270,1,123.499994346619,10|0,0:3|0:0,0:0:0:0:
367,304,223008,2,0,L|496:311,1,123.499994346619,10|0,0:0|0:0,0:0:0:0:
176,196,223351,6,0,L|300:201,1,123.499994346619,10|0,0:3|0:0,0:0:0:0:
21,125,223694,2,0,L|180:128,2,142.500005435944,10|0|8,0:0|0:0|0:3,0:0:0:0:
299,68,224208,2,0,B|60:60,1,237.5,2|8,0:0|0:0,0:0:0:0:
58,5,224551,1,0,0:0:0:0:
391,146,224722,6,0,L|96:156,1,285.000010871888,10|2,0:3|0:0,0:0:0:0:
367,192,225065,2,0,L|374:330,1,123.499994346619,10|0,0:0|0:0,0:0:0:0:
215,213,225408,2,0,L|356:228,1,123.499994346619,10|0,0:3|0:0,0:0:0:0:
39,199,225751,2,0,L|30:341,1,123.499994346619,10|0,0:0|0:0,0:0:0:0:
341,270,226094,6,0,L|199:280,1,123.499994346619,10|0,0:3|0:0,0:0:0:0:
456,219,226437,2,0,L|207:231,1,237.5,10|0,0:0|0:0,0:0:0:0:
333,164,226779,1,8,0:3:0:0:
77,155,226951,2,0,L|343:137,1,256.50000097847,2|8,0:0|0:0,0:0:0:0:
336,81,227294,1,0,0:0:0:0:
37,46,227465,6,0,L|31:125,1,61.7499971733095,8|0,0:3|0:0,0:0:0:0:
112,128,227637,2,0,L|182:135,1,61.7499971733095,8|8,0:3|0:3,0:0:0:0:
393,164,227808,2,0,L|397:237,1,61.7499971733095,8|8,0:0|0:3,0:0:0:0:
303,201,227979,2,0,L|300:270,1,61.7499971733095,8|8,0:3|0:3,0:0:0:0:
490,257,228151,2,0,L|407:251,1,61.7499971733095,8|0,0:3|0:0,0:0:0:0:
239,288,228322,2,0,L|168:277,1,61.7499971733095,8|8,0:0|0:3,0:0:0:0:
401,298,228494,2,0,L|333:291,1,61.7499971733095,8|8,0:0|0:3,0:0:0:0:
262,326,228665,2,0,L|256:252,1,61.7499971733095,8|8,0:3|0:3,0:0:0:0:
428,321,228837,5,2,0:0:0:0:
208,249,230465,1,8,0:3:0:0:
161,249,230508,1,8,0:3:0:0:
114,247,230551,2,0,L|110:115,1,95,8|8,0:3|0:3,0:0:0:0:
244,136,230894,1,8,0:3:0:0:
110,111,231065,1,8,0:3:0:0:
358,109,231237,2,0,P|402:144|335:201,1,142.5,8|0,0:0|0:0,0:0:0:0:
197,209,231579,6,0,L|87:214,1,95,8|0,0:3|0:0,0:0:0:0:
340,235,231922,2,0,L|341:123,1,95,8|0,0:0|0:0,0:0:0:0:
198,157,232265,2,0,L|192:53,1,95,8|0,0:3|0:0,0:0:0:0:
428,57,232608,2,0,L|328:55,1,95,8|0,0:0|0:0,0:0:0:0:
96,63,232951,6,0,L|89:180,1,95,8|0,0:3|0:0,0:0:0:0:
328,178,233294,1,8,0:0:0:0:
198,190,233465,1,0,0:0:0:0:
328,178,233637,2,0,L|331:287,1,95,8|0,0:3|0:0,0:0:0:0:
99,205,233979,2,0,L|206:210,1,95,8|0,0:0|0:0,0:0:0:0:
441,209,234322,6,0,L|445:99,1,95,8|0,0:3|0:0,0:0:0:0:
208,108,234665,1,8,0:0:0:0:
343,106,234837,1,0,0:0:0:0:
208,108,235008,2,0,L|103:112,1,95,8|0,0:3|0:0,0:0:0:0:
358,165,235351,2,0,L|362:273,1,95,8|0,0:0|0:0,0:0:0:0:
106,184,235694,6,0,L|104:290,1,95,8|0,0:3|0:0,0:0:0:0:
346,290,236037,2,0,L|450:295,1,95,8|0,0:0|0:0,0:0:0:0:
304,241,236379,1,8,0:3:0:0:
445,234,236551,1,0,0:0:0:0:
205,187,236722,2,0,L|48:183,1,142.5,8|0,0:0|0:0,0:0:0:0:
231,139,237065,6,0,L|341:140,1,95,8|0,0:3|0:0,0:0:0:0:
91,207,237408,2,0,L|87:315,1,95,8|0,0:0|0:0,0:0:0:0:
221,303,237751,1,8,0:3:0:0:
90,335,237922,1,0,0:0:0:0:
330,291,238094,2,0,L|332:192,1,95,8|0,0:0|0:0,0:0:0:0:
96,178,238437,6,0,L|297:177,1,190,8|8,0:3|0:0,0:0:0:0:
150,109,238951,1,0,0:0:0:0:
291,105,239122,2,0,L|300:-5,1,95,8|0,0:3|0:0,0:0:0:0:
56,39,239465,2,0,L|51:144,1,95,8|0,0:0|0:0,0:0:0:0:
312,167,239808,6,0,L|196:163,1,95,8|0,0:3|0:0,0:0:0:0:
454,171,240151,2,0,L|459:277,1,95,8|0,0:0|0:0,0:0:0:0:
330,276,240494,1,8,0:3:0:0:
460,294,240665,1,0,0:0:0:0:
226,213,240837,2,0,L|124:209,1,95,8|0,0:0|0:0,0:0:0:0:
368,185,241179,6,0,L|372:75,1,95,8|0,0:3|0:0,0:0:0:0:
132,84,241522,1,8,0:0:0:0:
257,95,241694,1,0,0:0:0:0:
127,118,241865,2,0,L|123:223,1,95,8|0,0:3|0:0,0:0:0:0:
354,218,242208,2,0,L|243:223,1,95,8|0,0:0|0:0,0:0:0:0:
496,208,242551,6,0,L|493:102,1,95,8|0,0:3|0:0,0:0:0:0:
254,110,242894,2,0,L|131:100,1,95,8|0,0:0|0:0,0:0:0:0:
293,127,243237,2,0,L|161:127,1,95,8|0,0:3|0:0,0:0:0:0:
434,135,243579,2,0,L|438:237,1,95,8|0,0:0|0:0,0:0:0:0:
185,243,243922,6,0,L|77:232,1,95,8|0,0:3|0:0,0:0:0:0:
329,222,244265,1,8,0:0:0:0:
208,207,244437,2,0,L|202:103,1,95,0|8,0:0|0:3,0:0:0:0:
330,101,244779,1,0,0:0:0:0:
91,93,244951,2,0,L|83:217,1,95,8|0,0:0|0:0,0:0:0:0:
345,219,245294,6,0,L|450:228,1,95,8|0,0:3|0:0,0:0:0:0:
199,241,245637,2,0,L|95:232,1,95,8|0,0:0|0:0,0:0:0:0:
244,202,245979,1,8,0:3:0:0:
100,170,246151,1,0,0:0:0:0:
341,167,246322,2,0,L|350:67,1,95,8|0,0:0|0:0,0:0:0:0:
111,85,246665,6,0,L|1:77,1,95,8|0,0:3|0:0,0:0:0:0:
256,96,247008,1,8,0:0:0:0:
120,112,247179,1,0,0:0:0:0:
362,109,247351,2,0,L|463:115,1,95,8|8,0:3|0:3,0:0:0:0:
225,160,247694,1,8,0:0:0:0:
351,171,247865,1,8,0:3:0:0:
84,201,248037,6,0,L|18:185,1,47.5,8|8,0:3|0:3,0:0:0:0:
95,132,248208,2,0,L|150:122,1,47.5,8|8,0:3|0:3,0:0:0:0:
287,66,248379,2,0,L|292:128,1,47.5,8|8,0:0|0:3,0:0:0:0:
210,129,248551,2,0,L|211:190,1,47.5,8|8,0:3|0:3,0:0:0:0:
401,166,248722,2,0,L|454:172,1,47.5,8|8,0:3|0:3,0:0:0:0:
366,210,248894,2,0,L|317:210,1,47.5,8|8,0:3|0:3,0:0:0:0:
489,220,249065,2,0,L|490:277,1,47.5,8|8,0:0|0:3,0:0:0:0:
343,276,249237,2,0,L|267:278,1,47.5,8|8,0:3|0:3,0:0:0:0:
489,321,249408,6,0,L|489:214,1,95,8|2,0:3|0:0,0:0:0:0:
441,217,249665,1,8,0:3:0:0:
272,191,249751,2,0,L|171:184,1,95,10|8,0:3|0:3,0:0:0:0:
411,140,250094,2,0,L|417:29,1,95,10|8,0:3|0:3,0:0:0:0:
285,32,250437,1,10,0:3:0:0:
418,21,250608,1,8,0:3:0:0:
104,37,250779,6,0,L|100:167,1,123.499994346619,8|0,0:3|0:0,0:0:0:0:
161,166,251037,1,0,0:0:0:0:
373,174,251122,2,0,L|233:181,1,123.499994346619,8|0,0:0|0:0,0:0:0:0:
189,196,251379,1,0,0:0:0:0:
379,240,251465,1,8,0:3:0:0:
259,236,251637,2,0,L|254:301,1,61.7499971733095
449,307,251808,2,0,L|318:310,1,123.499994346619,8|0,0:0|0:0,0:0:0:0:
260,309,252065,1,0,0:0:0:0:
480,240,252151,6,0,L|483:104,1,123.499994346619,8|0,0:3|0:0,0:0:0:0:
420,106,252408,1,0,0:0:0:0:
231,101,252494,2,0,L|91:95,1,123.499994346619,8|0,0:0|0:0,0:0:0:0:
169,57,252751,1,0,0:0:0:0:
353,65,252837,2,0,L|358:208,1,123.499994346619,8|0,0:3|0:0,0:0:0:0:
293,195,253094,1,0,0:0:0:0:
477,197,253179,1,8,0:0:0:0:
341,244,253351,2,0,L|256:243,1,61.7499971733095
46,238,253522,6,0,L|198:246,1,123.499994346619,8|0,0:3|0:0,0:0:0:0:
230,251,253779,1,0,0:0:0:0:
449,195,253865,2,0,L|457:55,1,123.499994346619,8|0,0:0|0:0,0:0:0:0:
394,66,254122,1,0,0:0:0:0:
202,49,254208,2,0,L|338:46,1,123.499994346619,8|0,0:3|0:0,0:0:0:0:
389,31,254465,1,0,0:0:0:0:
200,95,254551,2,0,L|190:220,1,123.499994346619,8|0,0:0|0:0,0:0:0:0:
256,232,254808,1,0,0:0:0:0:
41,213,254894,5,8,0:3:0:0:
181,234,255065,2,0,L|185:304,1,61.7499971733095
16,320,255237,2,0,L|155:332,1,123.499994346619,8|0,0:0|0:0,0:0:0:0:
201,343,255494,1,0,0:0:0:0:
386,293,255579,2,0,L|388:163,1,123.499994346619,8|0,0:3|0:0,0:0:0:0:
324,158,255837,1,0,0:0:0:0:
109,127,255922,2,0,L|249:120,1,123.499994346619,8|0,0:0|0:0,0:0:0:0:
295,116,256179,1,0,0:0:0:0:
75,61,256265,6,0,L|71:194,1,123.499994346619,8|0,0:3|0:0,0:0:0:0:
135,193,256522,1,0,0:0:0:0:
331,202,256608,2,0,L|190:208,1,123.499994346619,8|0,0:0|0:0,0:0:0:0:
143,212,256865,1,0,0:0:0:0:
356,230,256951,1,8,0:3:0:0:
480,238,257122,2,0,L|485:316,1,61.7499971733095
264,298,257294,2,0,L|261:162,1,123.499994346619,8|0,0:0|0:0,0:0:0:0:
327,167,257551,1,0,0:0:0:0:
116,140,257637,5,8,0:3:0:0:
279,114,257808,2,0,L|345:113,1,61.7499971733095
154,79,257979,2,0,L|10:68,1,123.499994346619,8|0,0:0|0:0,0:0:0:0:
25,20,258237,1,0,0:0:0:0:
213,115,258322,2,0,L|216:245,1,123.499994346619,8|0,0:3|0:0,0:0:0:0:
152,244,258579,1,0,0:0:0:0:
362,241,258665,2,0,L|487:251,1,123.499994346619,8|0,0:0|0:0,0:0:0:0:
423,299,258922,1,0,0:0:0:0:
235,174,259008,5,8,0:3:0:0:
402,166,259179,2,0,L|331:162,1,61.7499971733095
149,134,259351,2,0,L|283:142,1,123.499994346619,8|0,0:0|0:0,0:0:0:0:
335,134,259608,1,0,0:0:0:0:
113,138,259694,2,0,L|112:269,1,123.499994346619,8|0,0:3|0:0,0:0:0:0:
110,310,259951,1,0,0:0:0:0:
296,230,260037,2,0,L|431:235,1,123.499994346619,8|0,0:0|0:0,0:0:0:0:
480,236,260294,1,0,0:0:0:0:
262,312,260379,6,0,L|255:183,1,123.499994346619,8|0,0:3|0:0,0:0:0:0:
318,179,260637,1,0,0:0:0:0:
102,116,260722,2,0,L|232:106,1,123.499994346619,8|0,0:0|0:0,0:0:0:0:
290,96,260979,1,0,0:0:0:0:
68,47,261065,1,8,0:3:0:0:
216,122,261237,2,0,L|220:196,1,61.7499971733095
26,158,261408,2,0,L|23:291,1,123.499994346619,8|0,0:0|0:0,0:0:0:0:
83,288,261665,1,0,0:0:0:0:
333,294,261751,6,0,L|475:302,1,123.499994346619,8|0,0:3|0:0,0:0:0:0:
460,241,262008,1,0,0:0:0:0:
243,231,262094,2,0,L|249:102,1,123.499994346619,8|0,0:0|0:0,0:0:0:0:
312,104,262351,1,0,0:0:0:0:
146,58,262437,2,0,L|400:65,2,237.5,10|0|8,0:3|0:0|0:0,0:0:0:0:
16,96,262951,2,0,L|21:183,1,61.7499971733095
240,167,263122,6,0,L|380:182,1,123.499994346619,10|0,0:3|0:0,0:0:0:0:
362,236,263379,1,0,0:0:0:0:
172,166,263465,2,0,L|169:309,1,123.499994346619,8|0,0:0|0:0,0:0:0:0:
236,296,263722,1,0,0:0:0:0:
381,318,263808,2,0,L|133:326,2,237.5,10|0|8,0:3|0:0|0:0,0:0:0:0:
302,206,264322,2,0,L|223:191,1,61.7499971733095
50,156,264494,6,0,L|221:163,1,123.499994346619,8|0,0:3|0:0,0:0:0:0:
240,162,264751,1,0,0:0:0:0:
53,192,264837,2,0,L|45:336,1,123.499994346619,8|0,0:0|0:0,0:0:0:0:
109,325,265094,1,0,0:0:0:0:
287,115,265179,2,0,L|40:104,2,237.5,10|0|8,0:3|0:0|0:0,0:0:0:0:
409,137,265694,2,0,L|413:214,1,61.7499971733095
195,211,265865,6,0,L|61:198,1,123.499994346619,10|0,0:3|0:0,0:0:0:0:
136,157,266122,1,0,0:0:0:0:
327,170,266208,2,0,L|326:297,1,123.499994346619,8|0,0:0|0:0,0:0:0:0:
265,296,266465,1,0,0:0:0:0:
420,324,266551,2,0,L|156:329,2,237.5,10|0|8,0:3|0:0|0:0,0:0:0:0:
431,196,267065,2,0,L|366:183,1,61.7499971733095
151,159,267237,6,0,L|137:10,1,123.499994346619,8|0,0:3|0:0,0:0:0:0:
201,25,267494,1,0,0:0:0:0:
394,48,267579,2,0,L|248:51,1,123.499994346619,8|0,0:0|0:0,0:0:0:0:
206,62,267837,1,0,0:0:0:0:
364,110,267922,2,0,L|114:124,2,237.5,10|0|8,0:3|0:0|0:0,0:0:0:0:
199,163,268437,2,0,L|125:166,1,61.7499971733095
327,221,268608,6,0,L|450:229,1,123.499994346619,10|0,0:3|0:0,0:0:0:0:
449,287,268865,1,0,0:0:0:0:
256,280,268951,2,0,L|250:147,1,123.499994346619,8|0,0:0|0:0,0:0:0:0:
315,151,269208,1,0,0:0:0:0:
134,126,269294,2,0,L|381:117,1,237.5,10|0,0:3|0:0,0:0:0:0:
126,74,269637,2,0,L|123:212,1,123.499994346619,8|0,0:0|0:0,0:0:0:0:
184,194,269894,1,0,0:0:0:0:
371,292,269979,6,0,L|366:177,1,95,8|0,0:3|0:0,0:0:0:0:
231,102,270322,1,2,0:0:0:0:
364,101,270494,1,10,0:3:0:0:
223,196,270665,2,0,L|320:200,1,95,2|0,0:0|0:0,0:0:0:0:
185,234,271008,2,0,L|83:223,1,95,2|0,0:0|0:0,0:0:0:0:
340,260,271351,6,0,L|449:268,1,95,10|0,0:3|0:0,0:0:0:0:
298,186,271694,2,0,L|294:83,1,95,10|0,0:0|0:0,0:0:0:0:
389,84,272037,1,10,0:3:0:0:
249,64,272208,2,0,L|148:59,2,95,8|0|0,0:0|0:0|0:0,0:0:0:0:
16,16,272722,6,0,L|226:24,1,190,10|8,0:3|0:0,0:0:0:0:
212,97,273237,1,0,0:0:0:0:
78,92,273408,2,0,L|73:209,1,95,2|8,0:0|0:3,0:0:0:0:
308,189,273751,2,0,L|411:191,1,95,10|0,0:0|0:0,0:0:0:0:
162,249,274094,6,0,P|113:205|188:121,1,190,10|8,0:3|0:0,0:0:0:0:
268,114,274608,1,0,0:0:0:0:
123,98,274779,2,0,L|233:86,1,95,2|8,0:0|0:3,0:0:0:0:
73,48,275122,2,0,L|183:36,1,95,8|0,0:0|0:0,0:0:0:0:
409,41,275465,6,0,L|202:58,1,190,10|8,0:3|0:0,0:0:0:0:
216,126,275979,1,0,0:0:0:0:
451,109,276151,2,0,L|458:234,1,95,2|8,0:0|0:3,0:0:0:0:
221,210,276494,2,0,L|112:204,1,95,10|0,0:0|0:0,0:0:0:0:
393,254,276837,6,0,L|383:134,1,95,8|0,0:3|0:0,0:0:0:0:
243,137,277179,2,0,L|348:142,1,95,10|0,0:0|0:0,0:0:0:0:
200,81,277522,2,0,L|305:86,1,95,2|8,0:0|0:3,0:0:0:0:
153,39,277865,2,0,L|258:44,1,95,10|0,0:0|0:0,0:0:0:0:
493,343,278208,6,0,L|292:350,1,190,10|8,0:3|0:0,0:0:0:0:
206,358,278722,1,0,0:0:0:0:
351,267,278894,2,0,L|455:258,1,95,2|8,0:0|0:3,0:0:0:0:
203,188,279237,2,0,L|309:184,1,95,10|0,0:0|0:0,0:0:0:0:
39,100,279579,6,0,L|33:203,1,95,10|0,0:3|0:0,0:0:0:0:
169,192,279922,2,0,L|176:298,1,95,8|0,0:0|0:0,0:0:0:0:
316,283,280265,2,0,L|418:290,1,95,2|8,0:0|0:3,0:0:0:0:
270,215,280608,2,0,L|153:211,1,95,10|0,0:0|0:0,0:0:0:0:
429,165,280951,6,0,L|431:57,1,95,10|0,0:3|0:0,0:0:0:0:
287,66,281294,2,0,L|387:62,1,95,8|0,0:0|0:0,0:0:0:0:
249,113,281637,2,0,L|139:115,1,95,2|8,0:0|0:3,0:0:0:0:
402,159,281979,2,0,L|290:162,1,95,10|0,0:0|0:0,0:0:0:0:
52,155,282322,6,0,L|252:165,1,190,8|10,0:3|0:0,0:0:0:0:
114,217,282837,1,0,0:0:0:0:
253,257,283008,2,0,L|148:265,1,95,2|8,0:0|0:3,0:0:0:0:
304,315,283351,2,0,L|199:323,1,95,10|0,0:0|0:0,0:0:0:0:
460,307,283694,6,0,L|461:188,1,95,10|0,0:3|0:0,0:0:0:0:
336,172,284037,2,0,L|447:164,1,95,8|0,0:0|0:0,0:0:0:0:
195,121,284379,2,0,L|84:134,1,95,2|8,0:0|0:3,0:0:0:0:
239,170,284722,2,0,L|130:184,1,95,10|0,0:0|0:0,0:0:0:0:
388,72,285065,6,0,L|496:64,1,95,10|0,0:3|0:0,0:0:0:0:
349,110,285408,2,0,L|445:113,1,95,10|0,0:0|0:0,0:0:0:0:
210,143,285751,1,2,0:0:0:0:
336,157,285922,1,8,0:3:0:0:
96,134,286094,2,0,L|92:243,1,95,10|0,0:0|0:0,0:0:0:0:
333,235,286437,6,0,P|382:212|323:113,1,190,10|8,0:3|0:0,0:0:0:0:
241,103,286951,1,0,0:0:0:0:
384,84,287122,2,0,L|390:188,1,95,0|8,0:0|0:3,0:0:0:0:
250,182,287465,2,0,L|141:184,1,95,10|0,0:0|0:0,0:0:0:0:
389,238,287808,6,0,L|501:237,1,95,10|0,0:3|0:0,0:0:0:0:
246,263,288151,2,0,L|243:157,1,95,10|0,0:0|0:0,0:0:0:0:
336,160,288494,1,2,0:0:0:0:
188,134,288665,1,8,0:3:0:0:
428,111,288837,2,0,L|431:0,1,95,10|0,0:0|0:0,0:0:0:0:
166,26,289179,6,0,L|53:24,1,95,10|0,0:3|0:0,0:0:0:0:
204,79,289522,2,0,L|207:176,1,95,8|0,0:0|0:0,0:0:0:0:
341,114,289865,2,0,L|344:211,1,95,0|8,0:0|0:3,0:0:0:0:
205,216,290208,1,8,0:0:0:0:
439,228,290379,6,0,L|345:232,2,95,0|8|0,0:0|0:3|0:0,0:0:0:0:
192,248,290894,2,0,L|186:142,1,95,10|0,0:0|0:0,0:0:0:0:
279,138,291237,1,2,0:0:0:0:
135,134,291408,1,8,0:3:0:0:
374,108,291579,2,0,L|475:113,1,95,10|0,0:0|0:0,0:0:0:0:
213,71,291922,6,0,L|97:65,1,95,10|0,0:3|0:0,0:0:0:0:
254,127,292265,2,0,L|151:119,1,95,8|0,0:0|0:0,0:0:0:0:
296,185,292608,1,0,0:0:0:0:
159,182,292779,1,8,0:3:0:0:
296,231,292951,2,0,L|397:237,1,95,8|0,0:0|0:0,0:0:0:0:
139,258,293294,6,0,P|94:225|85:98,1,190,8|2,0:3|0:0,0:0:0:0:
174,71,293722,1,8,0:3:0:0:
197,73,293765,1,8,0:3:0:0:
221,75,293808,2,0,L|227:198,1,95,8|10,0:3|0:3,0:0:0:0:
352,147,294151,2,0,L|355:252,1,95,8|10,0:3|0:3,0:0:0:0:
214,259,294494,1,8,0:3:0:0:
474,269,294665,6,0,L|362:280,1,104.500003189087,10|0,0:3|0:0,0:0:0:0:
496,208,295008,2,0,L|498:98,1,104.500003189087,10|0,0:0|0:0,0:0:0:0:
242,101,295351,2,0,L|111:105,1,104.500003189087,2|8,0:0|0:3,0:0:0:0:
386,137,295694,2,0,L|400:254,1,104.500003189087,8|0,0:0|0:0,0:0:0:0:
120,157,296037,6,0,L|112:281,1,104.500003189087,8|0,0:3|0:0,0:0:0:0:
249,266,296379,2,0,L|130:273,1,104.500003189087,10|0,0:0|0:0,0:0:0:0:
387,197,296722,1,2,0:0:0:0:
247,201,296894,1,8,0:3:0:0:
489,194,297065,2,0,L|493:65,1,104.500003189087,10|0,0:0|0:0,0:0:0:0:
216,81,297408,6,0,L|446:73,1,209.000006378174,10|10,0:3|0:0,0:0:0:0:
426,147,297922,1,0,0:0:0:0:
285,133,298094,2,0,L|278:245,1,104.500003189087,2|8,0:0|0:3,0:0:0:0:
439,243,298437,1,8,0:0:0:0:
174,265,298608,6,0,L|58:274,1,104.500003189087,2|8,0:0|0:3,0:0:0:0:
222,223,298951,1,0,0:0:0:0:
67,196,299122,2,0,L|192:189,1,104.500003189087,10|0,0:0|0:0,0:0:0:0:
27,135,299465,2,0,L|152:128,1,104.500003189087,2|8,0:0|0:3,0:0:0:0:
281,113,299808,2,0,L|291:1,1,104.500003189087,10|0,0:0|0:0,0:0:0:0:
20,19,300151,6,0,L|134:22,1,104.500003189087,10|0,0:3|0:0,0:0:0:0:
263,17,300494,2,0,L|141:22,1,104.500003189087,10|0,0:0|0:0,0:0:0:0:
303,44,300837,2,0,L|295:162,1,104.500003189087,2|8,0:0|0:3,0:0:0:0:
152,149,301179,1,8,0:0:0:0:
418,89,301351,6,0,L|423:204,1,104.500003189087,2|8,0:0|0:3,0:0:0:0:
283,203,301694,1,0,0:0:0:0:
434,235,301865,2,0,L|328:238,1,104.500003189087,10|0,0:0|0:0,0:0:0:0:
467,293,302208,2,0,L|361:296,1,104.500003189087,2|8,0:0|0:3,0:0:0:0:
496,336,302551,2,0,L|390:339,1,104.500003189087,10|0,0:0|0:0,0:0:0:0:
126,350,302894,6,0,L|346:352,1,209.000006378174,10|10,0:3|0:0,0:0:0:0:
222,290,303408,1,0,0:0:0:0:
371,259,303579,2,0,L|379:133,1,104.500003189087,2|8,0:0|0:3,0:0:0:0:
234,135,303922,1,10,0:0:0:0:
496,96,304094,6,0,L|386:93,2,104.500003189087,2|8|0,0:0|0:3|0:0,0:0:0:0:
352,158,304608,2,0,L|475:165,1,104.500003189087,10|0,0:0|0:0,0:0:0:0:
314,220,304951,2,0,L|313:349,1,123.499994346619,2|8,0:0|0:3,0:0:0:0:
461,352,305294,1,10,0:0:0:0:
53,309,305637,6,0,L|57:195,1,104.500003189087,10|0,0:3|0:0,0:0:0:0:
202,192,305979,2,0,L|335:185,1,104.500003189087,10|0,0:0|0:0,0:0:0:0:
51,142,306322,2,0,L|163:132,1,104.500003189087,2|8,0:0|0:3,0:0:0:0:
407,117,306665,2,0,L|411:238,1,104.500003189087,8|0,0:0|0:0,0:0:0:0:
140,215,307008,6,0,L|251:215,1,104.500003189087,8|0,0:3|0:0,0:0:0:0:
96,225,307351,2,0,L|90:343,1,104.500003189087,10|0,0:0|0:0,0:0:0:0:
351,260,307694,2,0,L|355:138,1,104.500003189087,2|8,0:0|0:3,0:0:0:0:
96,144,308037,2,0,L|218:132,1,104.500003189087,10|0,0:0|0:0,0:0:0:0:
467,100,308379,6,0,L|346:110,1,104.500003189087,10|0,0:3|0:0,0:0:0:0:
208,146,308722,2,0,L|205:273,1,104.500003189087,10|0,0:0|0:0,0:0:0:0:
336,177,309065,2,0,L|225:192,1,104.500003189087,2|8,0:0|0:3,0:0:0:0:
388,183,309408,1,8,0:0:0:0:
125,207,309579,6,0,L|132:86,1,104.500003189087,2|8,0:0|0:3,0:0:0:0:
275,86,309922,1,0,0:0:0:0:
120,61,310094,2,0,L|15:65,1,104.500003189087,10|0,0:0|0:0,0:0:0:0:
163,125,310437,2,0,L|58:129,1,104.500003189087,2|8,0:0|0:3,0:0:0:0:
213,195,310779,2,0,L|347:206,1,104.500003189087,10|0,0:0|0:0,0:0:0:0:
53,205,311122,6,0,L|46:324,1,104.500003189087,10|0,0:3|0:0,0:0:0:0:
193,303,311465,2,0,L|85:310,1,104.500003189087,10|0,0:0|0:0,0:0:0:0:
352,298,311808,2,0,L|355:182,1,104.500003189087,2|8,0:0|0:3,0:0:0:0:
213,190,312151,1,10,0:0:0:0:
472,150,312322,6,0,L|350:147,1,104.500003189087,2|8,0:0|0:3,0:0:0:0:
496,96,312665,1,0,0:0:0:0:
234,96,312837,2,0,L|229:212,1,104.500003189087,10|0,0:0|0:0,0:0:0:0:
370,206,313179,2,0,L|264:211,1,104.500003189087,2|8,0:0|0:3,0:0:0:0:
419,215,313522,2,0,L|425:323,1,104.500003189087,10|0,0:0|0:0,0:0:0:0:
134,318,313865,5,10,0:3:0:0:
85,296,313950,1,8,0:3:0:0:
81,241,314036,1,8,0:3:0:0:
127,213,314122,1,8,0:3:0:0:
304,182,314208,2,0,L|307:117,1,56.9999982604981,10|8,0:0|0:3,0:0:0:0:
221,123,314379,2,0,L|220:60,1,56.9999982604981,8|8,0:3|0:3,0:0:0:0:
421,51,314551,2,0,L|481:46,1,56.9999982604981,10|8,0:3|0:3,0:0:0:0:
395,32,314722,2,0,L|336:37,1,56.9999982604981,8|8,0:3|0:3,0:0:0:0:
136,46,314894,2,0,L|133:103,1,56.9999982604981,10|8,0:0|0:3,0:0:0:0:
364,231,315065,2,0,L|289:238,1,56.9999982604981,10|8,0:3|0:3,0:0:0:0:
74,242,315237,6,0,L|71:172,1,56.9999982604981,8|8,0:3|0:3,0:0:0:0:
156,171,315408,2,0,L|213:167,1,56.9999982604981,10|8,0:3|0:3,0:0:0:0:
16,112,315579,2,0,L|91:107,1,56.9999982604981,10|8,0:0|0:3,0:0:0:0:
246,95,315751,2,0,L|312:91,1,56.9999982604981,8|8,0:3|0:3,0:0:0:0:
101,34,315922,1,10,0:3:0:0:
378,145,316094,2,0,L|383:207,1,56.9999982604981,10|8,0:0|0:3,0:0:0:0:
183,219,316265,2,0,L|127:224,1,56.9999982604981,8|8,0:0|0:3,0:0:0:0:
214,263,316437,2,0,L|288:254,1,56.9999982604981,8|8,0:3|0:3,0:0:0:0:
79,266,316608,5,6,0:0:0:0:
256,192,316779,12,0,323237,0:0:0:0:
256,192,331351,12,0,341122,0:0:0:0:
352,339,341465,6,0,P|403:290|332:347,1,736.25,2|0,0:0|0:0,0:0:0:0:
352,344,344208,6,0,P|143:209|456:54,1,736.25,2|0,0:0|0:0,0:0:0:0:
442,39,346951,6,0,L|88:63,1,356.25,2|0,0:0|0:0,0:0:0:0:
86,101,348322,6,0,P|341:229|94:127,1,1116.25,2|0,0:0|0:0,0:0:0:0:
77,103,352437,6,0,B|80:364|80:364|74:14|74:14|96:306|96:306|116:31|116:31|121:147,1,1282.5,2|0,0:0|0:0,0:0:0:0:
120,134,357151,6,0,P|323:209|114:138,1,926.25,2|0,0:0|0:0,0:0:0:0:
256,192,361694,12,0,363237,0:0:0:0:
