osu file format v14

[General]
AudioFilename: audio.mp3
AudioLeadIn: 0
PreviewTime: 99763
Countdown: 0
SampleSet: None
StackLeniency: 0.4
Mode: 0
LetterboxInBreaks: 0
WidescreenStoryboard: 1

[Editor]
Bookmarks: 29134,29477,29820,30163,30506,38049,42155,44820,44842,44863,44884,44906,48294,53126,55877,59134,66808,70106,80523,86049,88665,94192,109323,110694
DistanceSpacing: 1.4
BeatDivisor: 4
GridSize: 16
TimelineZoom: 2

[Metadata]
Title:Play (feat. UK:ID)
TitleUnicode:Play (feat. UK:ID)
Artist:Muzzy
ArtistUnicode:Muzzy
Creator:Mitkoff
Version:Insane
Source:
Tags:DnB drum and bass electronica F Minor Factory EP monstercat UKF
BeatmapID:1555703
BeatmapSetID:737168

[Difficulty]
HPDrainRate:6
CircleSize:4
OverallDifficulty:7
ApproachRate:9
SliderMultiplier:1.7
SliderTickRate:1

[Events]
//Background and Video events
0,0,"BGe.jpg",0,0
//Break Periods
//Storyboard Layer 0 (Background)
//Storyboard Layer 1 (Fail)
//Storyboard Layer 2 (Pass)
//Storyboard Layer 3 (Foreground)
//Storyboard Sound Samples

[TimingPoints]
11992,342.857142857143,4,2,2,60,1,0
11992,-133.333333333333,4,2,2,60,0,0
32563,-133.333333333333,4,3,3,60,0,0
33592,-153.846153846154,4,3,3,60,0,0
33934,-133.333333333333,4,2,2,60,0,0
42163,-100,4,2,2,60,0,0
43534,-100,4,2,2,70,0,0
44905,-100,4,3,3,70,0,0
53134,-133.333333333333,4,3,3,70,0,0
55191,-133.333333333333,4,3,2,80,0,0
55877,-83.3333333333333,4,3,2,80,0,0
58449,-83.3333333333333,4,3,2,5,0,0
58620,-100,4,3,2,80,0,0
59134,-76.9230769230769,4,3,2,80,0,0
59477,-100,4,3,2,80,0,0
59820,-76.9230769230769,4,3,2,80,0,0
60163,-100,4,3,2,80,0,0
61192,-100,4,3,2,5,0,0
61363,-100,4,3,2,80,0,0
61705,-83.3333333333333,4,3,4,80,0,0
64105,-100,4,3,2,80,0,0
66848,-83.3333333333333,4,3,2,80,0,0
69420,-83.3333333333333,4,3,2,5,0,0
69591,-100,4,3,2,80,0,0
70106,-76.9230769230769,4,3,2,80,0,0
70449,-100,4,3,2,80,0,0
70792,-76.9230769230769,4,3,2,80,0,0
71134,-100,4,3,2,80,0,0
72163,-100,4,3,2,5,0,0
72334,-100,4,3,2,80,0,0
89992,-100,4,3,2,5,0,0
90163,-100,4,3,2,80,0,0
99763,-90.9090909090909,4,3,2,90,0,1
121706,-100,4,3,2,90,0,0
123077,-100,4,3,2,80,0,0
124449,-100,4,3,2,70,0,0
125820,-100,4,3,2,60,0,0
126506,-100,4,3,2,50,0,0

[Colours]
Combo1 : 111,56,17
Combo2 : 243,58,12
Combo3 : 233,214,44
Combo4 : 216,151,16

[HitObjects]
96,245,11992,6,0,P|94:308|132:357,1,127.500004863739,0|0,0:3|0:0,0:0:0:0:
213,324,12506,2,0,L|213:240,2,63.7500024318696
295,358,13020,2,0,P|331:316|330:244,1,127.500004863739
232,112,13706,2,0,L|232:188,1,63.7500024318696
308,126,14049,2,0,P|295:65|227:35,1,127.500004863739
153,54,14563,1,0,0:0:0:0:
64,43,14734,5,0,0:0:0:0:
64,43,15077,2,0,P|48:112|11:173,1,127.500004863739
104,320,15763,2,0,P|120:251|163:183,1,127.500004863739
302,118,16449,2,0,L|226:118,1,63.7500024318696,0|0,0:0|0:0,0:0:0:0:
292,46,16792,2,0,P|345:57|376:122,1,127.500004863739
356,199,17306,1,0,0:0:0:0:
382,284,17477,5,0,0:0:0:0:
382,284,17820,2,0,P|323:307|273:347,1,127.500004863739
102,292,18506,2,0,P|160:268|210:228,1,127.500004863739
340,105,19192,2,0,L|264:105,1,63.7500024318696
327,32,19535,2,0,P|384:44|413:107,1,127.500004863739
380,182,20049,1,0,0:0:0:0:
414,265,20220,5,0,0:0:0:0:
414,265,20563,2,0,P|352:288|304:352,1,127.500004863739
20,161,21592,2,0,P|72:152|150:109,1,127.500004863739
293,29,22277,2,0,P|330:24|357:31,2,63.7500024318696
324,113,22792,1,0,0:0:0:0:
406,146,22963,6,0,P|462:217|425:304,1,191.250007295609
374,230,23649,2,0,P|350:256|340:285,1,63.7500024318696
278,346,23992,2,0,P|242:352|214:347,1,63.7500024318696
243,263,24334,2,0,B|286:160|209:94|209:94|242:123|292:111,1,255.000009727478
438,33,25363,5,0,0:0:0:0:
358,74,25534,1,0,0:0:0:0:
431,123,25706,1,0,0:0:0:0:
281,24,26049,5,0,0:0:0:0:
201,65,26220,1,0,0:0:0:0:
274,114,26392,2,0,P|272:152|262:187,1,63.7500024318696
232,257,26734,2,0,P|209:294|188:308,1,63.7500024318696
147,231,27077,6,0,P|255:173|319:266,1,255.000009727478,0|0,0:0|0:0,3:0:0:0:
299,349,27934,1,0,0:0:0:0:
385,325,28106,1,0,0:0:0:0:
385,325,28449,5,0,0:0:0:0:
319,263,28620,1,0,0:0:0:0:
344,87,28963,2,0,B|337:46|344:25|344:25|294:78|228:59|228:59|223:128|168:167|168:167|224:200|224:278|224:278|224:220|242:195|291:171,1,573.750021886826
320,264,31192,6,0,B|328:327|328:327|392:287|378:218,1,191.250007295609
322,139,31877,2,0,P|262:122|202:140,1,127.500004863739
142,216,32392,1,0,0:0:0:0:
202,297,32563,5,0,0:0:0:0:
231,309,32648,1,0,0:0:0:0:
262,315,32734,1,0,0:0:0:0:
294,316,32820,1,0,0:0:0:0:
324,308,32906,2,0,L|359:289,3,31.8750012159348
422,357,33249,1,0,0:0:0:0:
440,331,33334,1,0,0:0:0:0:
448,300,33420,1,0,0:0:0:0:
445,267,33506,1,0,0:0:0:0:
433,235,33592,6,0,P|392:215|368:182,1,82.8749962062838,8|0,0:0|0:0,0:0:0:0:
352,138,33934,6,0,B|337:127|337:127|319:132|319:132|305:121|305:121|287:126|287:126|274:115|274:115|257:121|257:121|242:110|242:110|225:115|225:115,1,127.500004863739,4|0,0:0|0:0,0:0:0:0:
302,49,34448,1,0,0:0:0:0:
391,50,34620,2,0,P|438:97|446:156,2,127.500004863739
302,49,35477,5,0,0:0:0:0:
241,110,35649,2,0,P|234:141|237:172,1,63.7500024318696
290,240,35992,2,0,P|336:201|351:132,1,127.500004863739
124,147,36677,6,0,B|141:144|141:144|155:155|155:155|173:152|173:152|186:164|186:164|203:161|203:161|216:173|216:173|234:170|234:170|247:182|247:182,1,127.500004863739,4|0,0:0|0:0,0:0:0:0:
208,88,37191,1,0,0:0:0:0:
128,50,37363,2,0,P|64:71|31:121,2,127.500004863739
208,88,38220,5,0,0:0:0:0:
236,172,38392,2,0,P|227:203|211:230,1,63.7500024318696
136,265,38735,2,0,P|109:208|123:146,1,127.500004863739
347,193,39420,6,0,B|331:183|331:183|314:189|314:189|299:179|299:179|282:185|282:185|268:174|268:174|251:181|251:181|236:171|236:171|219:177|219:177,1,127.500004863739,4|0,0:0|0:0,0:0:0:0:
293,105,39934,1,0,0:0:0:0:
382,101,40106,2,0,P|432:145|442:204,2,127.500004863739
293,105,40963,5,0,0:0:0:0:
235,171,41135,2,0,P|230:203|234:234,1,63.7500024318696
291,298,41478,2,0,P|335:256|346:187,1,127.500004863739
77,91,42163,5,0,0:0:0:0:
197,95,42334,1,0,0:0:0:0:
139,33,42506,1,0,0:0:0:0:
134,153,42677,1,0,0:0:0:0:
239,207,42849,2,0,P|282:184|303:149,1,85
260,42,43191,2,0,P|220:63|195:99,1,85
155,239,43534,5,2,0:0:0:0:
177,269,43619,1,0,0:0:0:0:
208,291,43706,2,0,P|232:296|257:294,1,42.5
348,291,43877,1,2,0:0:0:0:
338,327,43962,1,0,0:0:0:0:
317,359,44049,2,0,P|296:372|272:379,1,42.5
182,379,44220,6,0,P|143:359|119:320,1,85
73,240,44477,1,0,0:0:0:0:
79,197,44563,2,0,P|108:165|155:151,1,85
244,152,44820,1,0,0:0:0:0:
288,136,44906,6,0,P|316:100|328:55,1,85,4|0,0:0|0:0,0:0:0:0:
197,42,45249,1,0,0:0:0:0:
146,151,45420,1,0,0:0:0:0:
185,263,45592,2,0,P|226:287|279:291,1,85
366,237,45934,1,0,0:0:0:0:
384,119,46106,2,0,P|348:79|317:63,1,85
203,48,46449,6,0,P|161:58|122:85,1,85
55,176,46792,1,0,0:0:0:0:
84,291,46963,2,0,B|129:280|153:243,1,85
185,167,47306,2,0,P|161:204|152:249,1,85
173,360,47649,5,0,0:0:0:0:
289,347,47820,2,0,P|328:326|361:286,1,85
368,190,48163,1,0,0:0:0:0:
283,255,48334,2,0,P|327:290|365:296,1,85
464,248,48677,1,0,0:0:0:0:
454,129,48849,2,0,P|409:92|372:84,1,85
274,131,49192,6,0,B|229:123|203:87,1,85
292,15,49534,1,0,0:0:0:0:
403,47,49706,2,0,B|392:92|353:114,1,85
274,131,50049,2,0,P|313:113|361:116,1,85
460,169,50392,5,0,0:0:0:0:
354,224,50563,2,0,P|311:225|273:207,1,85
198,114,50906,1,0,0:0:0:0:
299,51,51077,2,0,P|295:88|270:135,1,85
156,180,51420,1,0,0:0:0:0:
135,61,51593,2,0,P|176:83|202:124,1,85,0|0,3:0|3:0,3:0:0:0:
216,227,51935,6,0,P|194:267|144:296,1,85
56,276,52277,1,0,0:0:0:0:
141,210,52449,2,0,P|160:249|162:298,1,85
121,362,52792,2,0,P|137:320|176:280,1,85
286,250,53134,5,8,0:0:0:0:
302,221,53219,1,8,0:0:0:0:
309,191,53305,1,8,0:0:0:0:
309,159,53391,1,8,0:0:0:0:
303,126,53477,2,8,L|297:83,3,31.8750012159348
187,45,53820,2,8,L|174:92,3,31.8750012159348
212,194,54163,5,8,0:0:0:0:
232,219,54248,1,8,0:0:0:0:
257,238,54334,1,8,0:0:0:0:
286,250,54420,1,8,0:0:0:0:
315,254,54506,2,8,L|358:255,3,31.8750012159348
283,151,54849,5,8,0:0:0:0:
303,126,54934,1,8,0:0:0:0:
328,107,55020,1,8,0:0:0:0:
357,95,55106,1,8,0:0:0:0:
388,87,55192,2,0,L|440:87,3,31.8750012159348
312,32,55534,2,0,L|280:32,3,31.8750012159348
420,103,55877,6,0,B|420:231,1,101.999996887207,4|0,0:0|0:0,0:0:0:0:
376,347,56220,1,8,0:0:0:0:
449,324,56391,2,0,P|412:279|360:271,1,101.999996887207
231,343,56734,1,2,0:0:0:0:
375,343,56905,1,8,0:0:0:0:
237,268,57077,6,0,P|188:281|156:338,1,101.999996887207,0|2,0:0|0:0,0:0:0:0:
303,303,57420,2,0,P|308:248|274:206,1,101.999996887207,0|8,0:0|0:0,0:0:0:0:
139,229,57763,2,0,P|132:254|163:324,1,101.999996887207
303,303,58105,1,2,0:0:0:0:
170,164,58277,2,0,B|143:150|103:158|83:183|83:183|74:161|107:131,1,152.999995330811,8|0,0:0|0:0,0:0:0:0:
185,93,58620,6,0,P|240:142|208:226,1,170,2|8,0:0|0:0,0:0:0:0:
118,63,59134,2,0,B|135:33|166:24|166:24|243:26,1,110.499994941712
104,133,59477,2,0,P|69:115|49:70,1,85,0|8,0:0|0:0,0:0:0:0:
212,25,59820,2,0,B|258:23|258:23|289:32|306:62,1,110.499994941712
239,105,60163,2,0,P|264:74|308:62,1,85,0|8,0:0|0:0,0:0:0:0:
196,294,60506,2,0,P|141:245|173:161,1,170,2|2,0:0|0:0,0:0:0:0:
290,224,61020,2,0,B|245:238|245:238|186:209,1,85,8|0,0:0|0:0,0:0:0:0:
130,95,61363,6,0,B|117:79|117:79|92:60,1,42.5
130,95,61534,2,0,B|169:106|169:106|237:90,1,85,0|8,0:0|0:0,0:0:0:0:
390,56,61877,5,2,0:0:0:0:
418,93,61963,1,0,0:0:0:0:
434,137,62049,1,0,0:0:0:0:
431,183,62134,1,0,0:0:0:0:
418,228,62220,1,2,0:0:0:0:
385,262,62306,1,0,0:0:0:0:
347,289,62392,2,0,P|299:303|248:288,1,101.999996887207,8|2,0:0|0:0,0:0:0:0:
298,205,62734,6,0,P|287:252|246:290,1,101.999996887207,4|2,0:0|0:0,0:0:0:0:
107,288,63077,1,8,0:0:0:0:
68,262,63162,1,0,0:0:0:0:
42,223,63248,1,2,0:0:0:0:
26,180,63334,1,0,0:0:0:0:
23,135,63420,2,0,L|27:76,1,50.9999984436036
98,93,63592,2,0,L|117:46,1,50.9999984436036,2|0,0:0|0:0,0:0:0:0:
184,71,63763,2,0,L|225:40,1,50.9999984436036,8|0,0:0|0:0,0:0:0:0:
272,93,63934,2,0,L|327:81,1,50.9999984436036,2|0,0:0|0:0,0:0:0:0:
322,167,64105,6,0,P|363:155|395:118,1,85,6|0,3:0|3:0,3:0:0:0:
451,10,64448,1,8,0:0:0:0:
496,119,64620,2,0,B|496:143|496:143|487:163,1,42.5
440,240,64792,2,0,B|440:264|440:264|450:289,1,42.5
506,356,64963,1,0,0:0:0:0:
512,247,65135,1,8,0:0:0:0:
383,323,65306,5,0,0:0:0:0:
342,335,65391,1,0,0:0:0:0:
301,320,65477,1,2,0:0:0:0:
367,184,65649,5,0,0:0:0:0:
368,226,65734,1,0,0:0:0:0:
344,262,65820,1,2,0:0:0:0:
217,202,65992,5,0,3:0:0:0:
258,190,66077,1,0,3:0:0:0:
299,205,66163,1,2,3:0:0:0:
166,259,66334,1,2,0:0:0:0:
344,262,66505,1,8,0:0:0:0:
163,330,66677,1,0,0:0:0:0:
119,310,66763,1,0,0:0:0:0:
98,276,66849,6,0,P|106:220|149:190,1,101.999996887207,4|0,0:0|0:0,0:0:0:0:
256,261,67192,1,8,0:0:0:0:
371,194,67363,2,0,P|409:226|416:279,1,101.999996887207
255,347,67706,1,2,0:0:0:0:
344,262,67877,1,8,0:0:0:0:
492,292,68049,6,0,B|469:338|469:338|411:353,1,101.999996887207,0|2,0:0|0:0,0:0:0:0:
441,150,68392,2,0,B|487:172|487:172|502:234,1,101.999996887207,0|8,0:0|0:0,0:0:0:0:
420,350,68734,2,0,B|370:336|370:336|347:291,1,101.999996887207
441,150,69077,1,2,0:0:0:0:
347,291,69249,2,0,B|308:212|308:212|339:218|339:218|383:188,1,152.999995330811,8|0,0:0|0:0,0:0:0:0:
324,138,69592,6,0,P|281:64|202:73,1,170,2|8,0:0|0:0,0:0:0:0:
194,217,70106,2,0,P|231:189|248:124,1,110.499994941712
123,233,70449,2,0,P|147:274|201:287,1,85,0|8,0:0|0:0,0:0:0:0:
105,161,70792,2,0,P|63:187|50:250,1,110.499994941712
176,145,71135,2,0,P|151:103|97:90,1,85,0|8,0:0|0:0,0:0:0:0:
123,233,71477,2,0,B|131:277|178:288|178:288|205:334|169:373,1,170,2|2,0:0|0:0,0:0:0:0:
196,218,71991,2,0,P|185:180|213:130,1,85,8|0,0:0|0:0,0:0:0:0:
365,54,72334,6,0,L|317:66,1,42.5,4|0,0:0|0:0,0:0:0:0:
246,57,72506,2,0,L|174:77,1,42.5
129,58,72677,1,8,0:0:0:0:
50,148,72849,2,0,P|80:170|129:178,1,85
245,179,73192,5,2,0:0:0:0:
162,93,73363,1,8,0:0:0:0:
139,210,73535,2,0,P|176:214|223:197,1,85
323,140,73878,5,2,0:0:0:0:
209,105,74049,1,8,0:0:0:0:
248,218,74221,2,0,P|282:202|314:164,1,85
369,66,74564,5,2,0:0:0:0:
258,108,74734,1,8,0:0:0:0:
348,181,74906,1,0,0:0:0:0:
291,43,75077,6,0,P|240:38|196:69,1,85,4|0,0:0|0:0,0:0:0:0:
118,153,75420,1,8,0:0:0:0:
180,274,75592,2,0,P|219:287|263:276,1,85
343,171,75934,1,2,0:0:0:0:
412,300,76105,1,2,0:0:0:0:
450,169,76277,1,2,0:0:0:0:
450,169,76449,6,0,L|442:101,1,42.5,8|8,0:0|0:0,0:0:0:0:
435,41,76620,1,2,0:0:0:0:
348,214,76792,2,0,L|340:146,1,42.5,8|8,0:0|0:0,0:0:0:0:
333,86,76963,1,2,0:0:0:0:
246,259,77134,2,0,L|238:191,1,42.5,8|8,0:0|0:0,0:0:0:0:
231,131,77305,1,2,0:0:0:0:
183,292,77477,2,0,P|215:323|258:328,1,85,8|0,0:0|0:0,0:0:0:0:
433,292,77820,5,2,0:0:0:0:
364,64,78163,1,2,0:0:0:0:
295,292,78505,1,2,0:0:0:0:
226,64,78850,1,2,0:0:0:0:
157,292,79192,1,2,0:0:0:0:
88,64,79534,1,2,0:0:0:0:
27,190,79705,5,0,0:0:0:0:
29,215,79791,1,0,0:0:0:0:
34,239,79877,1,2,0:0:0:0:
45,262,79963,1,0,0:0:0:0:
59,283,80048,1,2,0:0:0:0:
76,301,80134,1,0,0:0:0:0:
94,319,80220,2,0,P|132:334|183:336,1,85,8|0,0:0|0:0,0:0:0:0:
248,221,80563,6,0,P|202:207|160:206,1,85,2|0,0:0|0:0,0:0:0:0:
278,314,80905,2,0,P|315:289|338:255,1,85,8|0,0:0|0:0,0:0:0:0:
367,179,81163,2,0,L|340:126,2,42.5
410,249,81420,1,2,0:0:0:0:
464,141,81591,2,0,P|450:102|416:68,1,85,8|0,0:0|0:0,0:0:0:0:
248,146,81934,6,0,P|255:193|273:231,1,85,2|0,0:0|0:0,0:0:0:0:
328,91,82277,2,0,P|292:62|253:51,1,85,8|0,0:0|0:0,0:0:0:0:
171,50,82534,1,0,0:0:0:0:
139,78,82620,2,0,P|120:90|93:93,1,42.5
19,93,82792,1,2,0:0:0:0:
135,163,82963,2,0,P|110:197|53:218,1,85,8|0,0:0|0:0,0:0:0:0:
45,358,83306,6,0,P|70:328|129:306,1,85
226,356,83649,2,0,P|270:365|309:357,1,85,8|0,0:0|0:0,0:0:0:0:
353,289,83906,2,0,L|415:299,2,42.5
272,276,84163,1,2,0:0:0:0:
393,215,84334,2,0,P|368:181|316:149,1,85,8|0,0:0|0:0,0:0:0:0:
302,24,84677,6,0,P|332:53|390:75,1,85,2|0,0:0|0:0,0:0:0:0:
489,73,85020,2,0,P|453:96|423:146,1,85,8|0,0:0|0:0,0:0:0:0:
475,201,85277,1,0,0:0:0:0:
458,240,85363,2,0,P|443:264|423:278,1,42.5
350,279,85534,1,2,0:0:0:0:
333,156,85706,2,0,P|289:169|259:198,1,85,8|0,0:0|0:0,0:0:0:0:
280,342,86049,6,0,P|264:298|230:265,1,85,2|0,0:0|0:0,0:0:0:0:
126,193,86391,1,8,0:0:0:0:
238,270,86563,1,0,0:0:0:0:
254,234,86649,1,0,0:0:0:0:
260,195,86734,2,0,P|252:146|220:98,1,85,0|2,0:0|0:0,0:0:0:0:
103,116,87077,1,8,0:0:0:0:
20,222,87248,1,0,0:0:0:0:
176,231,87420,6,0,P|182:182|165:148,1,85
144,77,87677,1,0,0:0:0:0:
180,54,87763,2,0,P|217:61|270:47,1,85,8|0,0:0|0:0,0:0:0:0:
336,72,88020,1,0,0:0:0:0:
323,112,88106,2,0,P|311:156|321:204,1,85,0|2,0:0|0:0,0:0:0:0:
380,315,88449,1,8,0:0:0:0:
260,295,88620,2,0,L|259:316,2,21.25
241,342,88791,6,0,B|227:336|227:336|208:342|208:342|192:334|192:334|175:343|175:343|153:335,1,85,2|0,0:0|0:0,0:0:0:0:
83,242,89134,2,0,L|83:142,1,85,8|0,0:0|0:0,0:0:0:0:
177,83,89391,1,0,0:0:0:0:
193,106,89477,2,0,L|194:193,1,85,0|2,0:0|0:0,0:0:0:0:
298,265,89820,2,0,B|342:282|379:261|379:261|367:284|369:309,1,127.5,8|0,0:0|0:0,0:0:0:0:
335,183,90163,6,0,L|333:93,1,85,2|0,0:0|0:0,0:0:0:0:
310,20,90420,1,0,0:0:0:0:
288,37,90505,2,0,P|241:46|188:29,1,85,8|0,0:0|0:0,0:0:0:0:
110,21,90763,1,0,0:0:0:0:
86,43,90848,2,0,P|81:97|95:156,1,85,0|2,0:0|0:0,0:0:0:0:
158,196,91191,2,0,P|163:243|151:290,1,85,8|0,0:0|0:0,0:0:0:0:
83,333,91448,5,0,0:0:0:0:
70,361,91534,2,0,L|154:363,1,85,0|0,0:0|0:0,0:0:0:0:
237,313,91792,1,0,0:0:0:0:
260,287,91877,2,0,P|276:243|268:197,1,85,8|0,0:0|0:0,0:0:0:0:
236,120,92134,1,0,0:0:0:0:
269,101,92220,2,0,L|362:101,1,85,0|2,0:0|0:0,0:0:0:0:
451,197,92563,2,0,P|404:211|343:189,1,85,8|0,0:0|0:0,0:0:0:0:
191,197,92905,6,0,B|224:224|285:202,1,85,2|0,0:0|0:0,0:0:0:0:
404,122,93248,1,8,0:0:0:0:
404,122,93334,1,0,0:0:0:0:
404,122,93420,1,0,0:0:0:0:
404,122,93505,1,0,0:0:0:0:
404,122,93591,2,0,P|440:87|446:29,2,85,0|0|8,0:0|0:0|0:0,0:0:0:0:
338,32,94105,1,0,0:0:0:0:
240,124,94277,6,0,P|195:135|141:117,1,85,2|0,0:0|0:0,0:0:0:0:
59,45,94620,1,8,0:0:0:0:
92,163,94791,2,0,P|56:165|46:119,2,85
200,40,95305,1,8,0:0:0:0:
240,124,95477,1,0,0:0:0:0:
378,39,95649,6,0,P|389:84|371:138,1,85,2|0,0:0|0:0,0:0:0:0:
299,220,95992,1,8,0:0:0:0:
417,187,96163,2,0,P|419:222|373:232,2,85
260,148,96677,1,8,0:0:0:0:
222,244,96849,1,0,0:0:0:0:
93,147,97020,6,0,P|82:192|100:246,1,85,2|0,0:0|0:0,0:0:0:0:
172,328,97363,1,8,0:0:0:0:
54,295,97534,2,0,P|51:331|97:341,2,85
176,192,98048,1,8,0:0:0:0:
289,282,98220,1,2,0:0:0:0:
398,188,98391,5,2,0:0:0:0:
424,173,98477,1,2,0:0:0:0:
453,178,98563,2,0,P|470:190|482:219,1,42.5,2|0,0:0|0:0,0:0:0:0:
371,118,98734,5,2,0:0:0:0:
356,92,98820,1,2,0:0:0:0:
361,63,98906,2,0,P|373:46|402:34,1,42.5,2|0,0:0|0:0,0:0:0:0:
300,141,99077,5,2,0:0:0:0:
270,132,99163,1,2,0:0:0:0:
256,105,99249,1,2,0:0:0:0:
246,221,99420,1,8,0:0:0:0:
246,221,99763,6,0,L|247:324,1,93.5000028533936,4|0,0:0|0:0,0:0:0:0:
128,223,100105,1,8,0:0:0:0:
165,306,100277,1,0,0:0:0:0:
187,167,100448,2,0,L|187:62,1,93.5000028533936,0|2,0:0|0:0,0:0:0:0:
312,171,100792,1,8,0:0:0:0:
270,89,100963,1,0,0:0:0:0:
270,283,101134,6,0,P|351:286|423:206,1,187.000005706787,4|8,0:0|0:0,0:0:0:0:
421,120,101648,1,0,0:0:0:0:
492,218,101820,2,0,P|476:270|451:303,1,93.5000028533936,0|2,0:0|0:0,0:0:0:0:
304,367,102163,2,0,P|252:355|210:332,1,93.5000028533936,8|0,0:0|0:0,0:0:0:0:
138,205,102505,5,4,0:0:0:0:
191,316,102677,1,0,0:0:0:0:
318,200,102848,2,0,P|330:154|316:101,1,93.5000028533936,8|0,0:0|0:0,0:0:0:0:
185,48,103191,2,0,P|173:95|195:156,1,93.5000028533936,0|2,0:0|0:0,0:0:0:0:
305,87,103534,1,8,0:0:0:0:
201,165,103705,1,0,0:0:0:0:
191,316,103877,6,0,P|275:354|364:308,1,187.000005706787,4|8,0:0|0:0,0:0:0:0:
401,237,104391,1,0,0:0:0:0:
272,177,104563,1,0,0:0:0:0:
483,127,104734,1,2,0:0:0:0:
273,133,104905,1,8,0:0:0:0:
403,200,105077,1,0,0:0:0:0:
431,45,105249,6,0,P|347:7|258:53,1,187.000005706787,4|8,0:0|0:0,0:0:0:0:
190,102,105763,1,0,0:0:0:0:
340,150,105935,1,0,0:0:0:0:
129,200,106106,1,2,0:0:0:0:
339,194,106277,1,8,0:0:0:0:
209,127,106449,1,0,0:0:0:0:
273,296,106620,6,0,P|320:310|373:287,1,93.5000028533936,4|0,0:0|0:0,0:0:0:0:
466,203,106963,1,8,0:0:0:0:
377,121,107134,1,0,0:0:0:0:
263,203,107306,2,0,P|212:215|164:193,1,93.5000028533936,0|2,0:0|0:0,0:0:0:0:
317,160,107648,2,0,P|332:209|309:254,1,93.5000028533936,8|0,0:0|0:0,0:0:0:0:
121,246,107992,6,0,P|105:200|125:153,1,93.5000028533936,4|0,0:0|0:0,0:0:0:0:
236,71,108335,1,8,0:0:0:0:
317,160,108506,1,0,0:0:0:0:
216,261,108678,2,0,P|204:312|226:360,1,93.5000028533936,0|2,0:0|0:0,0:0:0:0:
262,206,109020,2,0,P|212:190|167:210,1,93.5000028533936,8|0,0:0|0:0,0:0:0:0:
288,351,109363,5,4,0:0:0:0:
335,352,109448,1,0,0:0:0:0:
379,338,109534,1,0,0:0:0:0:
414,307,109620,1,0,0:0:0:0:
440,268,109706,2,0,L|447:214,3,46.7500014266968,8|0|0|0,0:0|0:0|0:0|0:0,0:0:0:0:
454,114,110049,5,4,0:0:0:0:
407,113,110134,1,0,0:0:0:0:
363,127,110220,1,0,0:0:0:0:
328,158,110306,1,0,0:0:0:0:
302,197,110392,2,0,L|295:251,3,46.7500014266968,8|0|0|0,0:0|0:0|0:0|0:0,0:0:0:0:
255,322,110734,6,0,B|207:347|156:320,1,93.5000028533936,4|0,0:0|0:0,0:0:0:0:
14,234,111077,1,8,0:0:0:0:
88,363,111249,1,0,0:0:0:0:
88,191,111420,1,0,0:0:0:0:
14,320,111591,1,2,0:0:0:0:
162,233,111763,2,0,P|171:177|152:138,1,93.5000028533936,8|0,0:0|0:0,0:0:0:0:
38,33,112106,6,0,P|76:73|121:83,1,93.5000028533936,4|0,0:0|0:0,0:0:0:0:
255,26,112449,1,8,0:0:0:0:
166,14,112620,1,0,0:0:0:0:
245,115,112792,1,0,0:0:0:0:
346,14,112963,1,2,0:0:0:0:
245,115,113134,2,0,P|251:166|283:203,1,93.5000028533936,8|0,0:0|0:0,0:0:0:0:
463,223,113477,6,0,P|493:186|504:131,1,93.5000028533936,4|0,0:0|0:0,0:0:0:0:
360,122,113820,1,8,0:0:0:0:
377,207,113991,1,0,0:0:0:0:
435,83,114163,1,0,0:0:0:0:
311,25,114334,1,0,0:0:0:0:
275,48,114420,1,0,0:0:0:0:
256,85,114505,2,0,P|251:140|274:188,1,93.5000028533936,8|0,0:0|0:0,0:0:0:0:
374,325,114848,6,0,P|357:281|313:251,1,93.5000028533936,4|0,0:0|0:0,0:0:0:0:
128,330,115191,1,8,0:0:0:0:
285,332,115363,1,0,0:0:0:0:
138,239,115534,1,0,0:0:0:0:
321,254,115705,1,2,0:0:0:0:
145,148,115877,1,8,0:0:0:0:
362,174,116048,1,0,0:0:0:0:
162,45,116220,6,0,P|59:85|39:154,1,187.000005706787,4|8,0:0|0:0,0:0:0:0:
41,272,116734,1,0,0:0:0:0:
139,200,116906,1,0,0:0:0:0:
38,151,117077,1,2,0:0:0:0:
141,291,117249,2,0,P|187:278|221:240,1,93.5000028533936,8|0,0:0|0:0,0:0:0:0:
197,59,117591,6,0,P|208:136|331:183,1,187.000005706787,4|8,0:0|0:0,0:0:0:0:
452,188,118105,1,0,0:0:0:0:
296,188,118277,1,0,0:0:0:0:
451,85,118448,1,2,0:0:0:0:
452,297,118620,1,10,0:0:0:0:
374,137,118791,1,0,0:0:0:0:
360,324,118963,6,0,B|259:399,1,93.5000028533936,4|0,0:0|0:0,0:0:0:0:
373,238,119305,2,0,B|454:185,1,93.5000028533936,8|0,0:0|0:0,0:0:0:0:
267,215,119648,1,0,0:0:0:0:
184,43,119820,1,2,0:0:0:0:
101,215,119991,1,2,0:0:0:0:
18,43,120163,1,2,0:0:0:0:
194,147,120334,5,8,0:0:0:0:
194,147,120420,1,0,0:0:0:0:
194,147,120505,1,2,0:0:0:0:
133,344,120677,5,8,0:0:0:0:
133,344,120763,1,0,0:0:0:0:
133,344,120848,1,2,0:0:0:0:
317,251,121020,5,8,0:0:0:0:
317,251,121106,1,0,0:0:0:0:
317,251,121191,1,2,0:0:0:0:
378,54,121363,5,8,0:0:0:0:
378,54,121449,1,0,0:0:0:0:
378,54,121534,1,2,0:0:0:0:
256,192,121706,5,0,0:0:0:0:
256,192,121792,12,0,127192,0:0:0:0:
