osu file format v14

[General]
AudioFilename: audio.mp3
AudioLeadIn: 0
PreviewTime: 99763
Countdown: 0
SampleSet: None
StackLeniency: 0.6
Mode: 0
LetterboxInBreaks: 0
WidescreenStoryboard: 0

[Editor]
Bookmarks: 42155,43534,43620,43706,48294,53126,66808,80523,88665,109323,110563,110649,110694,110734,110820,110906,114849,120334
DistanceSpacing: 1.3
BeatDivisor: 4
GridSize: 16
TimelineZoom: 2

[Metadata]
Title:Play (feat. UK:ID)
TitleUnicode:Play (feat. UK:ID)
Artist:Muzzy
ArtistUnicode:Muzzy
Creator:Mitkoff
Version:Hard
Source:
Tags:DnB drum and bass electronica F Minor Factory EP monstercat UKF
BeatmapID:1556438
BeatmapSetID:737168

[Difficulty]
HPDrainRate:5
CircleSize:3.8
OverallDifficulty:6
ApproachRate:7.5
SliderMultiplier:1.4
SliderTickRate:1

[Events]
//Background and Video events
0,0,"BGe.jpg",0,0
//Break Periods
//Storyboard Layer 0 (Background)
//Storyboard Layer 1 (Fail)
//Storyboard Layer 2 (Pass)
//Storyboard Layer 3 (Foreground)
//Storyboard Sound Samples

[TimingPoints]
11992,342.857142857143,4,2,2,60,1,0
11992,-133.333333333333,4,2,2,60,0,0
32563,-133.333333333333,4,3,3,60,0,0
33934,-111.111111111111,4,2,2,60,0,0
42163,-100,4,2,2,60,0,0
44905,-100,4,3,3,70,0,0
53134,-133.333333333333,4,3,3,70,0,0
55191,-133.333333333333,4,3,2,80,0,0
55877,-83.3333333333333,4,3,2,80,0,0
59134,-100,4,3,2,80,0,0
61705,-90.9090909090909,4,3,4,80,0,0
64105,-100,4,3,2,80,0,0
66848,-83.3333333333333,4,3,2,80,0,0
69591,-100,4,3,2,80,0,0
77820,-133.333333333333,4,3,2,80,0,0
80563,-100,4,3,2,80,0,0
89992,-100,4,3,2,5,0,0
90163,-100,4,3,2,80,0,0
99763,-83.3333333333333,4,3,2,90,0,1
121706,-100,4,3,2,90,0,0
123077,-100,4,3,2,80,0,0
124449,-100,4,3,2,70,0,0
125820,-100,4,3,2,60,0,0
126506,-100,4,3,2,50,0,0

[Colours]
Combo1 : 111,56,17
Combo2 : 243,58,12
Combo3 : 233,214,44
Combo4 : 216,151,16

[HitObjects]
376,72,11991,5,0,0:0:0:0:
376,216,12506,2,0,L|376:272,1,52.5000020027161,0|0,0:0|0:0,0:0:0:0:
456,224,13020,2,0,P|408:144|306:177,1,210.000008010865,0|0,0:0|0:0,0:0:0:0:
260,252,14049,1,0,0:0:0:0:
260,252,14734,5,0,0:0:0:0:
166,263,15077,2,0,P|175:220|174:155,1,105.000004005432,0|0,0:0|0:0,0:0:0:0:
185,55,15763,2,0,P|177:110|176:172,1,105.000004005432,0|0,0:0|0:0,0:0:0:0:
174,348,16792,1,0,0:0:0:0:
174,348,17477,5,0,0:0:0:0:
260,278,17820,2,0,P|316:283|380:276,1,105.000004005432,0|0,0:0|0:0,0:0:0:0:
469,275,18506,2,0,P|416:273|349:282,1,105.000004005432,0|0,0:0|0:0,0:0:0:0:
306,203,19192,6,0,P|274:167|246:96,1,105.000004005432,0|0,0:0|0:0,0:0:0:0:
218,26,19877,1,0,0:0:0:0:
138,77,20220,2,0,B|122:149|122:149|143:220|143:220|121:281,1,210.000008010865,0|0,0:0|0:0,0:0:0:0:
255,113,21592,1,0,0:0:0:0:
255,113,22277,1,0,0:0:0:0:
401,70,22963,6,0,B|417:142|417:142|396:213|396:213|418:274,1,210.000008010865,0|0,0:0|0:0,0:0:0:0:
449,360,23992,1,0,0:0:0:0:
357,336,24334,2,0,B|309:347|309:347|256:319|190:348|190:348|133:330,1,210.000008010865,0|0,0:0|0:0,0:0:0:0:
61,352,25363,1,0,0:0:0:0:
91,262,25706,6,0,P|142:241|195:249,1,105.000004005432
151,160,26392,2,0,P|206:160|252:185,1,105.000004005432
249,87,27077,2,0,B|305:100|334:146|334:146|369:100|429:84,1,210.000008010865
464,270,28449,5,0,0:0:0:0:
348,357,28963,2,0,B|297:295|330:213|330:213|292:220|292:220|267:195|267:195|203:288|95:296|55:238,1,472.500018024445
184,65,31192,6,0,L|148:164,1,105.000004005432
52,143,31877,2,0,L|86:244,1,105.000004005432,0|0,0:0|0:0,0:0:0:0:
137,321,32563,6,0,L|136:369,3,26.2500010013581
182,334,32906,2,0,L|190:369,3,26.2500010013581
230,339,33249,2,0,L|243:366,3,26.2500010013581
278,332,33592,2,0,L|293:352,3,26.2500010013581,8|0|0|0,0:0|0:0|0:0|0:0,0:0:0:0:
320,312,33934,6,0,B|337:287|337:287|345:287|345:287|341:277|341:277|352:278|352:278|347:266|347:266|358:268|358:268|353:258|353:258|366:259|366:259|383:225,1,125.999996154785,4|0,0:0|0:0,0:0:0:0:
410,170,34449,1,0,0:0:0:0:
408,89,34620,2,0,P|341:72|279:95,1,125.999996154785
188,216,35306,6,0,P|157:234|106:234,2,62.9999980773926
239,151,35820,1,0,0:0:0:0:
289,88,35991,2,0,P|348:110|385:162,1,125.999996154785
410,325,36677,6,0,B|384:308|384:308|377:311|377:311|376:300|376:300|367:306|367:306|367:293|367:293|357:299|357:299|358:288|358:288|346:294|346:294|318:269,1,125.999996154785,4|0,0:0|0:0,0:0:0:0:
269,227,37192,1,0,0:0:0:0:
239,151,37363,2,0,P|294:109|360:106,1,125.999996154785
452,231,38049,6,0,P|462:264|451:314,2,62.9999980773926
400,166,38563,1,0,0:0:0:0:
349,103,38734,2,0,P|292:72|229:78,1,125.999996154785
98,180,39420,6,0,B|123:162|123:162|123:154|123:154|133:158|133:158|132:147|132:147|144:152|144:152|142:141|142:141|152:146|152:146|151:133|151:133|185:116,1,125.999996154785,4|0,0:0|0:0,0:0:0:0:
232,77,39935,1,0,0:0:0:0:
309,89,40106,2,0,P|370:116|401:176,1,125.999996154785
396,328,40792,6,0,P|370:351|320:363,2,62.9999980773926
404,248,41306,1,0,0:0:0:0:
328,224,41477,2,0,P|281:182|265:122,1,125.999996154785
435,60,42163,6,0,B|411:100|467:148|435:204,1,140
388,272,42677,1,0,0:0:0:0:
453,335,42849,2,0,B|390:392|314:330,1,140
256,283,43363,1,0,0:0:0:0:
296,201,43534,6,0,L|348:201,3,35,2|0|0|0,0:0|0:0|0:0|0:0,0:0:0:0:
324,155,43877,2,0,L|373:155,3,35,2|0|0|0,0:0|0:0|0:0|0:0,0:0:0:0:
353,109,44220,1,0,0:0:0:0:
285,47,44392,2,0,B|250:34|250:34|199:38,1,70,2|0,0:0|0:0,0:0:0:0:
134,72,44734,1,0,0:0:0:0:
109,162,44906,6,0,B|112:208|112:208|98:253|98:253|46:294,1,140,4|0,0:0|0:0,0:0:0:0:
19,356,45420,1,0,0:0:0:0:
110,360,45592,2,0,L|172:312,1,70
239,264,45934,1,0,0:0:0:0:
316,310,46105,2,0,L|388:351,1,70,0|0,0:0|0:0,0:0:0:0:
316,213,46448,6,0,L|392:156,1,70,0|0,0:0|0:0,0:0:0:0:
437,117,46791,1,0,0:0:0:0:
367,57,46963,2,0,L|304:5,2,70
307,116,47477,1,0,0:0:0:0:
307,116,47649,6,0,B|271:139|271:139|211:139|211:139|177:118,1,140
97,100,48163,1,0,0:0:0:0:
123,188,48335,2,0,L|190:234,1,70
254,282,48677,1,0,0:0:0:0:
204,357,48848,2,0,L|141:316,1,70,0|0,0:0|0:0,0:0:0:0:
307,357,49191,6,0,L|367:312,1,70,0|0,0:0|0:0,0:0:0:0:
434,258,49534,1,0,0:0:0:0:
369,193,49706,2,0,L|310:134,2,70
438,143,50220,1,0,0:0:0:0:
384,69,50392,6,0,B|356:34|356:34|300:13|300:13|261:22,1,140,4|0,0:0|0:0,0:0:0:0:
187,52,50906,1,0,0:0:0:0:
155,137,51078,2,0,L|102:83,1,70,0|0,0:0|0:0,0:0:0:0:
19,59,51420,1,0,0:0:0:0:
52,143,51591,2,0,L|110:204,1,70,0|0,0:0|0:0,0:0:0:0:
86,283,51934,6,0,L|34:337,1,70,0|0,0:0|0:0,0:0:0:0:
124,359,52277,1,0,0:0:0:0:
189,295,52449,2,0,L|245:236,1,70
270,329,52792,2,0,L|319:278,1,70
301,209,53134,6,0,L|301:170,3,26.2500010013581,8|8|8|8,0:0|0:0|0:0|0:0,0:0:0:0:
263,119,53477,6,0,L|221:118,3,26.2500010013581,8|8|8|8,0:0|0:0|0:0|0:0,0:0:0:0:
339,121,53820,2,0,L|384:120,3,26.2500010013581,8|8|8|8,0:0|0:0|0:0|0:0,0:0:0:0:
264,45,54163,6,0,L|241:1,3,26.2500010013581,8|8|8|8,0:0|0:0|0:0|0:0,0:0:0:0:
340,46,54505,2,0,L|357:4,3,26.2500010013581,8|8|8|8,0:0|0:0|0:0|0:0,0:0:0:0:
381,81,54848,6,0,P|423:92|464:78,1,78.7500030040742,8|8,0:0|0:0,0:0:0:0:
487,67,55192,6,0,B|515:132|456:168|492:229,1,157.500006008148,0|0,0:0|0:0,0:0:0:0:
491,328,55877,6,0,P|411:362|330:325,1,167.999994873047,4|8,0:0|0:0,0:0:0:0:
249,270,56391,2,0,P|195:250|150:255,1,83.9999974365235
64,258,56734,1,2,0:0:0:0:
64,258,56906,1,8,0:0:0:0:
74,149,57077,2,0,P|90:115|89:69,1,83.9999974365235,0|2,3:0|3:0,3:0:0:0:
184,22,57420,2,0,B|225:53|283:31,1,83.9999974365235,0|8,0:0|0:0,0:0:0:0:
346,110,57763,2,0,P|329:147|337:193,1,83.9999974365235,0|0,0:0|0:0,0:0:0:0:
423,253,58105,1,2,0:0:0:0:
423,253,58277,2,0,B|441:299|416:341,1,83.9999974365235,8|0,0:0|0:0,0:0:0:0:
319,289,58620,6,0,B|272:296|272:296|227:251|160:276,1,167.999994873047,2|8,0:0|0:0,0:0:0:0:
74,305,59134,2,0,P|33:315|-19:298,2,70
33,222,59648,1,8,0:0:0:0:
123,210,59820,2,0,P|161:194|189:165,2,70
113,119,60334,1,8,0:0:0:0:
23,106,60506,2,0,P|68:41|130:30,1,140,0|2,0:0|0:0,0:0:0:0:
203,77,61020,2,0,P|236:89|295:80,1,70,8|0,3:0|0:0,0:0:0:0:
368,81,61363,5,0,0:0:0:0:
368,81,61534,2,0,L|366:171,1,70,0|8,0:0|0:0,0:0:0:0:
360,251,61877,1,2,0:0:0:0:
352,351,62049,2,0,P|395:348|428:326,2,77.0000023498536,0|2|8,0:0|0:0|0:0,0:0:0:0:
268,295,62563,1,2,0:0:0:0:
170,281,62734,2,0,P|172:324|195:357,2,77.0000023498536,4|2|8,0:0|0:0|0:0,0:0:0:0:
229,199,63249,1,2,0:0:0:0:
238,99,63420,2,0,P|194:102|162:126,2,77.0000023498536,0|2|8,0:0|0:0|0:0,0:0:0:0:
316,163,63934,1,2,0:0:0:0:
382,100,64106,6,0,P|403:142|402:193,1,70,6|0,3:0|3:0,0:0:0:0:
366,245,64449,2,0,P|374:278|392:308,1,70,8|0,0:0|0:0,0:0:0:0:
301,300,64791,2,0,P|294:335|275:365,1,70
210,300,65134,2,0,P|204:265|184:235,1,70,8|0,0:0|0:0,0:0:0:0:
119,300,65477,2,0,P|113:335|87:372,1,70,2|0,0:0|0:0,0:0:0:0:
29,300,65820,2,0,P|37:260|66:229,1,70,8|0,0:0|0:0,0:0:0:0:
23,149,66163,2,0,B|66:131|114:162|114:162|144:149|144:149|171:159|171:159|198:151|198:151|234:163,1,210
329,186,66849,6,0,P|405:178|456:106,1,167.999994873047,4|8,0:0|0:0,0:0:0:0:
352,84,67363,2,0,P|313:67|272:68,1,83.9999974365235
164,84,67706,1,2,0:0:0:0:
164,84,67877,1,8,0:0:0:0:
80,156,68049,2,0,P|112:181|171:193,1,83.9999974365235,0|2,0:0|0:0,0:0:0:0:
140,300,68392,2,0,P|183:296|229:262,1,83.9999974365235,0|8,0:0|0:0,0:0:0:0:
288,360,68734,2,0,P|313:326|320:266,1,83.9999974365235
428,312,69077,1,2,0:0:0:0:
428,312,69249,2,0,P|430:269|410:223,1,83.9999974365235,8|0,0:0|0:0,0:0:0:0:
360,156,69592,6,0,P|340:95|367:21,1,140,2|8,0:0|0:0,0:0:0:0:
252,65,70106,2,0,P|265:140|219:208,1,140
164,119,70620,1,8,0:0:0:0:
276,79,70792,2,0,P|290:144|238:226,1,140
188,134,71306,1,8,0:0:0:0:
297,96,71477,2,0,P|311:165|266:235,1,140,0|2,0:0|0:0,0:0:0:0:
209,148,71992,1,8,0:0:0:0:
324,288,72334,6,0,P|259:264|192:282,1,140,4|8,0:0|0:0,0:0:0:0:
190,166,72849,2,0,P|126:190|38:150,1,140,0|2,0:0|0:0,0:0:0:0:
120,93,73363,1,8,0:0:0:0:
216,187,73535,2,0,P|160:224|65:205,1,140
129,111,74049,1,8,0:0:0:0:
245,208,74220,2,0,P|182:253|95:251,1,140,0|2,0:0|0:0,0:0:0:0:
138,129,74734,1,8,0:0:0:0:
318,100,75077,6,0,P|388:119|444:194,1,140,4|8,0:0|0:0,0:0:0:0:
450,258,75592,1,0,0:0:0:0:
371,302,75763,1,0,0:0:0:0:
371,302,75934,1,2,0:0:0:0:
282,307,76106,1,2,0:0:0:0:
282,307,76277,1,2,0:0:0:0:
219,238,76449,6,0,L|177:238,2,35,8|8|2,0:0|0:0|0:0,0:0:0:0:
280,170,76792,2,0,L|322:170,2,35,8|8|2,0:0|0:0|0:0,0:0:0:0:
205,121,77134,2,0,L|163:121,2,35,8|8|2,0:0|0:0|0:0,0:0:0:0:
275,62,77477,2,0,L|317:62,2,35,8|0|0,0:0|0:0|0:0,0:0:0:0:
386,62,77820,5,2,0:0:0:0:
462,199,78163,1,2,0:0:0:0:
380,334,78506,1,2,0:0:0:0:
223,331,78849,1,2,0:0:0:0:
146,193,79192,1,2,0:0:0:0:
227,59,79534,1,2,0:0:0:0:
278,110,79706,2,0,L|279:155,4,26.2500010013581,0|0|2|0|2,0:0|0:0|0:0|0:0|0:0,0:0:0:0:
245,204,80220,1,8,0:0:0:0:
245,204,80563,6,0,P|285:212|328:198,1,70,2|0,0:0|0:0,0:0:0:0:
395,167,80906,2,0,P|428:158|462:165,2,70,8|0|0,0:0|0:0|0:0,0:0:0:0:
429,251,81420,1,2,0:0:0:0:
391,334,81592,2,0,P|355:342|309:331,1,70,8|0,0:0|0:0,0:0:0:0:
238,303,81934,2,0,P|197:295|153:308,1,70,2|0,0:0|0:0,0:0:0:0:
83,330,82277,1,8,0:0:0:0:
83,330,82449,2,0,P|87:295|80:245,1,70,0|0,0:0|0:0,0:0:0:0:
35,182,82792,1,2,0:0:0:0:
85,106,82963,2,0,L|85:30,1,70,8|0,0:0|0:0,0:0:0:0:
178,38,83306,6,0,L|179:121,1,70
176,197,83649,2,0,P|163:233|171:282,2,70,8|0|0,0:0|0:0|0:0,0:0:0:0:
255,152,84163,1,2,0:0:0:0:
282,65,84334,2,0,P|315:83|341:124,1,70,8|0,0:0|0:0,0:0:0:0:
372,190,84677,2,0,P|391:221|435:253,1,70,0|0,0:0|0:0,0:0:0:0:
458,323,85020,1,8,0:0:0:0:
458,323,85192,2,0,P|421:329|371:323,1,70,0|0,0:0|0:0,0:0:0:0:
302,299,85534,1,2,0:0:0:0:
215,328,85706,2,0,P|179:333|144:326,1,70,8|0,0:0|0:0,0:0:0:0:
67,280,86049,6,0,P|75:243|60:195,1,70,2|0,0:0|0:0,0:0:0:0:
19,135,86392,1,8,0:0:0:0:
19,135,86563,2,0,P|52:110|76:71,1,70,0|0,0:0|0:0,0:0:0:0:
159,90,86906,1,2,0:0:0:0:
159,90,87077,2,0,P|176:119|214:150,1,70,8|0,0:0|0:0,0:0:0:0:
293,147,87420,2,0,P|326:125|356:85,1,70,0|0,0:0|0:0,0:0:0:0:
395,25,87763,1,8,0:0:0:0:
395,25,87935,1,0,0:0:0:0:
438,104,88106,2,0,P|461:133|503:150,1,70,0|2,0:0|0:0,0:0:0:0:
441,225,88449,2,0,P|416:199|385:185,1,70,8|0,0:0|0:0,0:0:0:0:
364,273,88792,6,0,P|301:302|236:276,1,140,2|8,0:0|0:0,0:0:0:0:
175,211,89306,1,0,0:0:0:0:
175,211,89477,2,0,L|175:125,1,70,0|2,0:0|0:0,0:0:0:0:
112,74,89820,2,0,B|156:34|220:60,1,105,8|0,0:0|0:0,0:0:0:0:
250,76,90163,6,0,P|282:124|290:214,1,140,2|8,0:0|0:0,0:0:0:0:
284,295,90677,1,0,0:0:0:0:
243,377,90849,2,0,P|214:357|195:303,1,70,0|2,0:0|0:0,0:0:0:0:
198,235,91192,1,8,0:0:0:0:
118,189,91364,2,0,P|144:160|197:146,1,70,0|0,0:0|0:0,0:0:0:0:
262,147,91706,1,0,0:0:0:0:
318,76,91877,2,0,P|348:114|351:159,1,70,8|0,0:0|0:0,0:0:0:0:
351,225,92220,1,0,0:0:0:0:
385,309,92392,2,0,P|404:328|472:346,2,70,2|8|0,0:0|0:0|0:0,0:0:0:0:
458,246,92906,6,0,P|431:181|477:96,1,140,2|8,0:0|0:0,0:0:0:0:
386,54,93420,1,0,0:0:0:0:
297,78,93592,2,0,B|323:156|245:200,1,140,0|8,0:0|0:0,0:0:0:0:
295,277,94106,1,0,0:0:0:0:
295,277,94277,6,0,P|223:283|163:228,1,140,2|8,0:0|0:0,0:0:0:0:
129,163,94792,1,0,0:0:0:0:
129,163,94963,2,0,P|88:172|37:149,1,70,0|0,0:0|0:0,0:0:0:0:
95,80,95306,2,0,P|129:73|169:81,1,70,8|0,0:0|0:0,0:0:0:0:
225,146,95649,6,0,P|296:152|356:97,1,140,2|8,0:0|0:0,0:0:0:0:
428,68,96164,1,0,0:0:0:0:
428,68,96335,2,0,P|437:109|414:160,1,70,0|0,0:0|0:0,0:0:0:0:
383,214,96678,2,0,P|376:248|384:288,1,70,8|0,0:0|0:0,0:0:0:0:
429,359,97020,6,0,P|357:370|297:310,1,140,2|8,0:0|0:0,0:0:0:0:
244,264,97535,1,0,0:0:0:0:
244,264,97706,2,0,L|172:220,1,70,0|0,0:0|0:0,0:0:0:0:
265,181,98049,2,0,L|201:139,1,70,8|2,0:0|0:0,0:0:0:0:
126,99,98392,6,0,L|125:150,2,35,2|2|2,0:0|0:0|0:0,0:0:0:0:
190,34,98735,2,0,L|190:-7,2,35,2|2|2,0:0|0:0|0:0,0:0:0:0:
272,71,99077,2,0,L|272:122,2,35,2|2|2,0:0|0:0|0:0,0:0:0:0:
360,48,99420,2,0,L|360:-1,2,35,8|0|0,0:0|0:0|0:0,0:0:0:0:
467,68,99763,6,0,L|467:171,1,83.9999974365235,4|0,0:0|0:0,0:0:0:0:
461,261,100106,1,8,0:0:0:0:
376,192,100277,2,0,P|336:192|296:212,1,83.9999974365235
359,296,100620,1,2,0:0:0:0:
249,292,100792,2,0,P|222:324|183:334,1,83.9999974365235,8|0,3:0|3:0,3:0:0:0:
72,314,101134,6,0,B|-8:267|6:165,1,167.999994873047,4|8,0:0|0:0,0:0:0:0:
16,61,101649,1,0,0:0:0:0:
109,117,101820,2,0,L|195:168,1,83.9999974365235,0|2,0:0|0:0,0:0:0:0:
177,269,102163,2,0,L|264:254,1,83.9999974365235,8|0,0:0|0:0,0:0:0:0:
365,226,102506,5,0,0:0:0:0:
273,167,102677,1,0,0:0:0:0:
281,57,102849,2,0,L|372:100,1,83.9999974365235,8|0,0:0|0:0,0:0:0:0:
429,10,103192,2,0,L|466:91,1,83.9999974365235,0|2,0:0|0:0,0:0:0:0:
498,189,103534,2,0,L|482:271,1,83.9999974365235,8|0,0:0|0:0,0:0:0:0:
393,333,103877,6,0,P|326:284|243:284,1,167.999994873047,4|8,0:0|0:0,0:0:0:0:
143,328,104391,1,0,0:0:0:0:
40,368,104563,2,0,P|29:326|42:281,1,83.9999974365235,0|2,0:0|0:0,0:0:0:0:
134,235,104906,2,0,P|145:196|131:145,1,83.9999974365235,8|0,0:0|0:0,0:0:0:0:
34,194,105249,6,0,P|33:119|101:61,1,167.999994873047,4|8,0:0|0:0,0:0:0:0:
208,60,105763,1,0,0:0:0:0:
296,123,105934,2,0,P|307:163|297:209,1,83.9999974365235,0|2,0:0|0:0,0:0:0:0:
211,269,106277,2,0,P|208:312|222:355,1,83.9999974365235,8|0,0:0|0:0,0:0:0:0:
315,298,106620,6,0,P|387:253|403:166,1,167.999994873047,4|8,0:0|0:0,0:0:0:0:
404,66,107134,1,0,0:0:0:0:
312,126,107306,2,0,P|270:134|230:126,1,83.9999974365235,0|2,0:0|0:0,0:0:0:0:
268,23,107649,2,0,P|225:15|174:32,1,83.9999974365235,8|0,0:0|0:0,0:0:0:0:
119,108,107992,6,0,P|123:155|149:199,1,83.9999974365235,4|0,0:0|0:0,0:0:0:0:
214,266,108335,1,8,0:0:0:0:
322,266,108506,1,0,0:0:0:0:
398,188,108677,2,0,P|417:150|418:109,1,83.9999974365235,0|2,0:0|0:0,0:0:0:0:
325,50,109020,2,0,P|307:94|317:138,1,83.9999974365235,8|0,0:0|0:0,0:0:0:0:
203,129,109363,6,0,P|203:82|181:48,1,83.9999974365235,4|0,0:0|0:0,0:0:0:0:
75,52,109706,2,0,L|22:51,3,41.9999987182618,8|0|0|0,0:0|0:0|0:0|0:0,0:0:0:0:
74,106,110049,2,0,L|4:105,3,41.9999987182618,4|0|0|0,0:0|0:0|0:0|0:0,0:0:0:0:
74,153,110392,2,0,P|82:190|126:225,1,83.9999974365235,8|0,0:0|0:0,0:0:0:0:
58,313,110734,6,0,P|100:329|161:313,1,83.9999974365235,4|0,0:0|0:0,0:0:0:0:
236,275,111077,1,8,0:0:0:0:
301,188,111248,2,0,P|333:178|387:190,1,83.9999974365235,0|0,0:0|0:0,0:0:0:0:
342,289,111591,1,2,0:0:0:0:
445,254,111763,2,0,P|467:219|468:162,1,83.9999974365235,8|0,0:0|0:0,0:0:0:0:
454,69,112106,6,0,P|374:90|285:66,1,167.999994873047,4|8,0:0|0:0,0:0:0:0:
195,17,112620,1,0,0:0:0:0:
105,78,112791,2,0,L|19:38,1,83.9999974365235,0|2,0:0|0:0,0:0:0:0:
56,148,113134,2,0,L|137:185,1,83.9999974365235,8|0,0:0|0:0,0:0:0:0:
51,256,113477,5,0,0:0:0:0:
148,304,113648,1,0,0:0:0:0:
253,276,113820,2,0,L|200:210,1,83.9999974365235,8|0,0:0|0:0,0:0:0:0:
308,195,114163,2,0,L|361:258,1,83.9999974365235,0|2,0:0|0:0,0:0:0:0:
408,160,114506,1,8,0:0:0:0:
476,245,114677,1,0,0:0:0:0:
500,138,114849,6,0,P|446:72|357:60,1,167.999994873047,4|8,0:0|0:0,0:0:0:0:
258,57,115363,1,0,0:0:0:0:
148,57,115535,2,0,P|137:99|150:144,1,83.9999974365235
247,177,115877,2,0,P|255:219|246:260,1,83.9999974365235,8|0,0:0|0:0,0:0:0:0:
142,225,116221,6,0,P|141:300|205:363,1,167.999994873047,4|8,0:0|0:0,0:0:0:0:
315,372,116735,1,0,0:0:0:0:
394,297,116906,2,0,P|405:257|395:211,1,83.9999974365235,0|2,0:0|0:0,0:0:0:0:
293,252,117249,2,0,P|285:211|299:171,1,83.9999974365235,8|0,0:0|0:0,0:0:0:0:
398,128,117591,6,0,P|346:76|249:78,1,167.999994873047,4|8,0:0|0:0,0:0:0:0:
158,125,118105,1,0,0:0:0:0:
83,45,118277,2,0,P|55:75|47:116,1,83.9999974365235,0|2,0:0|0:0,0:0:0:0:
158,125,118620,2,0,P|143:163|150:204,1,83.9999974365235,10|0,0:0|0:0,0:0:0:0:
228,281,118963,6,0,P|268:277|302:253,1,83.9999974365235,4|0,0:0|0:0,0:0:0:0:
230,169,119306,2,0,P|265:150|288:112,1,83.9999974365235,8|0,0:0|0:0,0:0:0:0:
397,115,119649,2,0,P|417:150|454:170,1,83.9999974365235,2|2,0:0|0:0,0:0:0:0:
382,254,119992,2,0,P|415:278|457:282,1,83.9999974365235,2|2,0:0|0:0,0:0:0:0:
369,347,120334,6,0,L|312:346,2,41.9999987182618,8|0|2,0:0|0:0|0:0,0:0:0:0:
261,287,120677,2,0,L|262:244,2,41.9999987182618,8|0|2,0:0|0:0|0:0,0:0:0:0:
192,343,121020,2,0,L|151:343,2,41.9999987182618,8|0|2,0:0|0:0|0:0,0:0:0:0:
84,285,121362,2,0,L|84:243,2,41.9999987182618,8|0|2,0:0|0:0|0:0,0:0:0:0:
256,192,121706,12,0,127192,0:0:0:0:
