osu file format v14

[General]
AudioFilename: audio.mp3
AudioLeadIn: 0
PreviewTime: -1
Countdown: 1
SampleSet: Normal
StackLeniency: 0.5
Mode: 0
LetterboxInBreaks: 0
WidescreenStoryboard: 0

[Editor]
Bookmarks: 11743,19972,22714,44657,56829,61114,63857,66600,77572,83057,85800,87172,88543,105000,109114,110486,121457,126943,129686,131057,132429,148886,153000,154372,170829,173572,176314,187286,192772,195514,198257,209229,214714,217457,218829,220200,222943,236657,239400,240772,242143,258600,261343,264086,280543,283286,286029,297000,302486,305229,307972,329914
DistanceSpacing: 1
BeatDivisor: 4
GridSize: 8
TimelineZoom: 2.899999

[Metadata]
Title:New Age (feat. Celldweller)
TitleUnicode:New Age (feat. Celldweller)
Artist:Muzzy
ArtistUnicode:Muzzy
Creator:[ Frost ]
Version:Your Time Ends Now
Source:Monstercat
Tags:DnB Monstercat Muzzy Celldweller
BeatmapID:1682989
BeatmapSetID:801812

[Difficulty]
HPDrainRate:7
CircleSize:4.2
OverallDifficulty:8.7
ApproachRate:9.2
SliderMultiplier:1.9
SliderTickRate:1

[Events]
//Background and Video events
0,0,"Bounty.jpg",0,0
//Break Periods
//Storyboard Layer 0 (Background)
//Storyboard Layer 1 (Fail)
//Storyboard Layer 2 (Pass)
//Storyboard Layer 3 (Foreground)
//Storyboard Sound Samples

[TimingPoints]
772,342.857142857143,4,1,0,40,1,0
11743,-100,4,1,0,50,0,0
20314,-500,4,1,0,50,0,0
21343,-250,4,1,0,50,0,0
22714,-83.3333333333333,4,1,0,50,0,0
23400,-100,4,1,0,50,0,0
28200,-83.3333333333333,4,1,0,50,0,0
28886,-100,4,1,0,50,0,0
33686,-83.3333333333333,4,1,0,50,0,0
34372,-100,4,1,0,50,0,0
39172,-83.3333333333333,4,1,0,50,0,0
42257,-500,4,1,0,50,0,0
44657,-83.3333333333333,4,1,0,50,0,0
45343,-250,4,1,0,50,0,0
46372,-500,4,1,0,50,0,0
47400,-1000,4,1,0,50,0,0
50143,-83.3333333333333,4,1,0,50,0,0
50829,-250,4,1,0,50,0,0
51857,-500,4,1,0,50,0,0
52886,-1000,4,1,0,50,0,0
55629,-83.3333333333333,4,1,0,50,0,0
56314,-250,4,1,0,50,0,0
57343,-500,4,1,0,50,0,0
58372,-1000,4,1,0,50,0,0
61114,-55.5555555555556,4,1,0,50,0,0
61800,-500,4,1,0,50,0,0
63857,-55.5555555555556,4,1,0,50,0,0
64372,-250,4,1,0,50,0,0
64714,-55.5555555555556,4,1,0,50,0,0
64886,-250,4,1,0,50,0,0
65743,-500,4,1,0,50,0,0
66257,-1000,4,1,0,50,0,0
66943,-200,4,1,0,50,0,0
88543,-55.5555555555556,4,1,0,50,0,0
89229,-47.6190476190476,4,1,0,50,0,0
91286,-55.5555555555556,4,1,0,50,0,0
91972,-47.6190476190476,4,1,0,50,0,0
94029,-55.5555555555556,4,1,0,50,0,0
94714,-47.6190476190476,4,1,0,50,0,0
96772,-83.3333333333333,4,1,0,50,0,0
97114,-500,4,1,0,50,0,0
98143,-250,4,1,0,50,0,0
98657,-83.3333333333333,4,1,0,50,0,0
99172,-47.6190476190476,4,1,0,50,0,0
105000,-83.3333333333333,4,1,0,50,0,0
107743,-250,4,1,0,50,0,0
108086,-55.5555555555556,4,1,0,50,0,0
108257,-250,4,1,0,50,0,0
108600,-55.5555555555556,4,1,0,50,0,0
108772,-250,4,1,0,50,0,0
109114,-41.6666666666667,4,1,0,50,0,0
110314,-55.5555555555556,4,1,0,50,0,0
110829,-41.6666666666667,4,1,0,50,0,0
111343,-125,4,1,0,50,0,0
111857,-62.5,4,1,0,50,0,0
112372,-45.4545454545455,4,1,0,50,0,0
112886,-38.4615384615385,4,1,0,50,0,0
113229,-250,4,1,0,50,0,0
113572,-38.4615384615385,4,1,0,50,0,0

[HitObjects]
332,352,771,5,0,0:0:0:0:
332,352,943,1,0,0:0:0:0:
332,352,1114,1,0,0:0:0:0:
332,352,1286,1,0,0:0:0:0:
99,244,1457,5,0,0:0:0:0:
99,244,1628,1,0,0:0:0:0:
99,244,1800,1,0,0:0:0:0:
99,244,1971,1,0,0:0:0:0:
385,100,2144,5,0,0:0:0:0:
385,100,2315,1,0,0:0:0:0:
385,100,2485,1,0,0:0:0:0:
385,100,2656,1,0,0:0:0:0:
128,104,2829,5,0,0:0:0:0:
128,104,3000,1,0,0:0:0:0:
128,104,3172,1,0,0:0:0:0:
128,104,3343,1,0,0:0:0:0:
189,354,3513,5,0,0:0:0:0:
189,354,3685,1,0,0:0:0:0:
189,354,3856,1,0,0:0:0:0:
189,354,4028,1,0,0:0:0:0:
419,239,4199,5,0,0:0:0:0:
419,239,4370,1,0,0:0:0:0:
419,239,4542,1,0,0:0:0:0:
419,239,4713,1,0,0:0:0:0:
256,40,4885,5,0,0:0:0:0:
256,40,5057,1,0,0:0:0:0:
256,40,5228,1,0,0:0:0:0:
256,40,5400,1,0,0:0:0:0:
256,192,5572,5,0,0:0:0:0:
256,192,5744,1,0,0:0:0:0:
256,192,5915,1,0,0:0:0:0:
256,192,6087,1,0,0:0:0:0:
326,239,6257,5,0,0:0:0:0:
184,240,6429,1,0,0:0:0:0:
255,116,6599,1,0,0:0:0:0:
255,268,6772,5,0,0:0:0:0:
184,144,6943,1,0,0:0:0:0:
326,145,7114,1,0,0:0:0:0:
303,262,7286,5,0,0:0:0:0:
304,120,7458,1,0,0:0:0:0:
180,191,7628,1,0,0:0:0:0:
332,191,7801,5,0,0:0:0:0:
208,120,7972,1,0,0:0:0:0:
209,262,8143,1,0,0:0:0:0:
256,292,8314,5,0,0:0:0:0:
256,91,8486,1,0,0:0:0:0:
155,191,8657,1,0,0:0:0:0:
356,192,8829,1,0,0:0:0:0:
184,263,9000,5,0,0:0:0:0:
327,120,9172,1,0,0:0:0:0:
184,120,9343,1,0,0:0:0:0:
327,263,9515,1,0,0:0:0:0:
155,192,9686,5,0,0:0:0:0:
356,192,9858,1,0,0:0:0:0:
256,91,10029,1,0,0:0:0:0:
255,292,10201,1,0,0:0:0:0:
184,120,10372,5,0,0:0:0:0:
327,263,10544,1,0,0:0:0:0:
327,120,10715,1,0,0:0:0:0:
184,263,10887,1,0,0:0:0:0:
64,192,11057,5,0,0:0:0:0:
208,192,11229,1,0,0:0:0:0:
448,192,11400,5,0,0:0:0:0:
304,192,11572,1,0,0:0:0:0:
256,192,11657,1,0,0:0:0:0:
256,200,11743,2,0,L|256:296,3,95
256,360,12429,5,0,0:0:0:0:
256,184,12600,2,0,L|256:88,2,95
256,24,13114,5,0,0:0:0:0:
264,192,13286,2,0,L|360:192,2,95
424,192,13801,5,0,0:0:0:0:
248,192,13972,2,0,L|152:192,2,95
120,192,14400,1,0,0:0:0:0:
88,192,14486,5,0,0:0:0:0:
261,197,14657,2,0,L|329:265,2,95
376,312,15172,5,0,0:0:0:0:
250,186,15343,2,0,L|182:118,2,95
136,72,15857,5,0,0:0:0:0:
250,197,16029,2,0,L|182:265,2,95
137,310,16544,5,0,0:0:0:0:
261,186,16715,2,0,L|329:118,2,95
352,96,17143,1,0,0:0:0:0:
374,73,17229,5,0,0:0:0:0:
448,192,17400,2,0,L|344:192,1,95
64,192,17743,2,0,L|168:192,1,95
256,192,18086,1,0,0:0:0:0:
256,192,18257,1,0,0:0:0:0:
256,192,18429,1,0,0:0:0:0:
256,192,18600,5,0,0:0:0:0:
256,384,18772,2,0,L|256:280,1,95
256,0,19114,2,0,L|256:104,1,95
256,192,19457,1,0,0:0:0:0:
256,192,19629,1,0,0:0:0:0:
256,192,19800,1,0,0:0:0:0:
256,192,19972,5,0,0:0:0:0:
368,296,20314,6,0,L|339:267,1,38
144,296,20829,2,0,L|172:267,1,38
256,64,21343,6,0,L|256:192,2,114
256,320,22714,6,0,P|216:269|165:270,1,113.999996520996
256,320,23057,2,0,P|296:269|347:270,1,113.999996520996
432,192,23400,6,0,L|328:192,3,95
80,192,24086,2,0,L|184:192,3,95
380,67,24772,2,0,L|306:141,3,95
131,67,25457,2,0,L|205:141,3,95
255,16,26143,2,0,L|256:120,3,95
256,368,26829,2,0,L|256:264,7,95
256,64,28200,6,0,B|216:112|216:112|144:112,1,113.999996520996
256,64,28543,2,0,B|296:112|296:112|360:112,1,113.999996520996
400,192,28886,6,0,P|380:234|339:258,3,95
112,192,29572,2,0,P|131:234|172:258,3,95
357,293,30257,2,0,P|313:309|268:298,3,95
154,293,30943,2,0,P|198:309|243:298,1,95
256,8,31286,6,0,L|256:112,1,95
256,192,31629,1,0,0:0:0:0:
256,192,31800,1,0,0:0:0:0:
256,192,32314,1,0,0:0:0:0:
448,192,32657,1,0,0:0:0:0:
256,192,32829,5,0,0:0:0:0:
64,192,33172,1,0,0:0:0:0:
352,192,33343,1,0,0:0:0:0:
160,192,33514,1,0,0:0:0:0:
256,184,33686,6,0,L|256:56,1,113.999996520996
256,200,34029,2,0,L|256:328,1,113.999996520996
336,192,34372,2,0,B|352:144|352:144|338:101,3,95
176,192,35057,2,0,B|160:144|160:144|173:101,3,95
312,248,35743,2,0,B|357:225|357:225|378:186,3,95
199,248,36429,2,0,B|154:225|154:225|133:186,3,95
302,311,37114,2,0,B|255:327|255:327|209:309,3,95
210,73,37800,2,0,B|257:57|257:57|303:75,7,95
432,192,39172,6,0,P|392:243|341:242,1,113.999996520996
80,192,39514,2,0,P|120:243|171:242,1,113.999996520996
256,64,39857,2,0,L|256:192,3,113.999996520996
256,320,40543,2,0,L|256:192,3,113.999996520996
384,192,41229,2,0,L|256:192,3,113.999996520996
128,192,41914,2,0,L|256:192,1,113.999996520996
368,88,42257,6,0,L|339:117,1,38
144,88,42772,2,0,L|172:117,1,38
144,296,43286,2,0,L|173:267,1,38
368,296,43801,2,0,L|340:267,1,38
256,192,44314,1,0,0:0:0:0:
256,192,44486,1,0,0:0:0:0:
80,208,44657,6,0,B|112:160|112:160|192:160,1,113.999996520996
432,208,45000,2,0,B|400:160|400:160|320:160,1,113.999996520996
256,272,45343,6,0,L|256:192,1,76
256,112,45857,2,0,L|256:192,1,76
156,192,46372,2,0,L|200:192,1,38
356,192,46886,2,0,L|312:192,1,38
256,192,47400,6,0,L|256:336,1,142.5
76,192,50143,6,0,L|196:192,1,113.999996520996
436,192,50486,2,0,L|316:192,1,113.999996520996
160,104,50829,6,0,P|196:123|216:160,1,76
352,280,51343,2,0,P|315:260|295:223,1,76
352,104,51857,6,0,P|333:113|323:132,1,38
160,280,52372,2,0,P|178:270|188:251,1,38
256,192,52886,6,0,B|224:120|288:128|256:56,1,142.5
88,80,55629,6,0,P|72:136|88:192,1,113.999996520996,0|0,2:0|2:0,2:0:0:0:
424,80,55972,2,0,P|440:136|424:192,1,113.999996520996,0|0,2:0|2:0,2:0:0:0:
344,296,56314,6,0,B|312:264|312:264|312:216,1,76
168,296,56829,2,0,B|200:264|200:264|200:216,1,76
200,128,57343,6,0,B|200:152|200:152|208:168,1,38
312,128,57857,2,0,B|312:152|312:152|304:168,1,38
256,192,58372,6,0,B|240:248|240:248|256:304|256:304|256:332,1,142.5
4,192,61114,6,0,B|76:120|76:120|184:120,1,170.999994781494
508,192,61457,2,0,B|436:120|436:120|328:120,1,170.999994781494
256,124,61800,6,0,L|256:164,1,38
256,124,62314,6,0,L|256:164,1,38
256,124,62829,6,0,L|256:164,1,38
256,124,63343,6,0,L|256:164,1,38
256,352,63857,6,0,L|256:128,1,170.999994781494
76,368,64200,6,0,L|155:288,1,85.4999973907472
256,192,64372,6,0,L|223:224,1,38
4,189,64714,6,0,L|116:189,1,85.4999973907472
256,192,64886,6,0,L|210:192,1,38
256,192,65229,2,0,L|280:192,1,19
256,192,65400,6,0,L|291:156,1,38
256,20,65743,2,0,L|256:64,1,38
256,116,66257,2,0,L|256:132,1,14.25
256,188,66600,5,0,0:0:0:0:
255,192,66943,2,0,L|160:192,1,95
256,188,69343,5,0,0:0:0:0:
256,188,72086,5,0,0:0:0:0:
257,192,72429,2,0,L|352:192,1,95
256,188,74829,5,0,0:0:0:0:
192,192,76714,5,0,0:0:0:0:
320,192,76885,1,0,0:0:0:0:
256,128,77057,5,0,0:0:0:0:
256,256,77228,1,0,0:0:0:0:
256,192,77400,1,0,0:0:0:0:
256,192,77572,5,0,0:0:0:0:
128,192,77914,1,0,0:0:0:0:
384,192,78257,1,0,0:0:0:0:
256,64,78600,1,0,0:0:0:0:
256,320,78943,1,0,0:0:0:0:
64,192,79286,5,0,0:0:0:0:
448,192,79629,1,0,0:0:0:0:
256,0,79972,1,0,0:0:0:0:
256,384,80315,1,0,0:0:0:0:
165,101,80657,5,0,0:0:0:0:
346,282,81000,1,0,0:0:0:0:
346,101,81343,1,0,0:0:0:0:
165,282,81686,1,0,0:0:0:0:
116,64,82029,5,0,0:0:0:0:
258,311,82372,5,0,0:0:0:0:
332,192,82543,1,0,0:0:0:0:
180,192,82714,1,0,0:0:0:0:
116,64,82886,5,0,0:0:0:0:
256,64,83057,1,0,0:0:0:0:
332,192,83229,1,0,0:0:0:0:
258,311,83400,1,0,0:0:0:0:
256,64,83572,5,0,0:0:0:0:
401,64,83743,1,0,0:0:0:0:
401,64,83914,1,0,0:0:0:0:
400,349,84086,5,0,0:0:0:0:
116,64,84257,1,0,0:0:0:0:
401,64,84428,1,0,0:0:0:0:
116,349,84600,1,0,0:0:0:0:
440,192,84772,5,0,0:0:0:0:
255,376,84943,1,0,0:0:0:0:
256,7,85114,1,0,0:0:0:0:
71,191,85286,1,0,0:0:0:0:
256,188,85457,1,0,0:0:0:0:
256,188,85629,1,0,0:0:0:0:
256,188,85800,5,0,0:0:0:0:
261,195,85886,1,0,0:0:0:0:
266,202,85972,1,0,0:0:0:0:
270,210,86057,1,0,0:0:0:0:
273,233,86143,5,0,0:0:0:0:
264,255,86229,1,0,0:0:0:0:
247,271,86314,1,0,0:0:0:0:
223,276,86400,1,0,0:0:0:0:
185,268,86486,5,0,0:0:0:0:
158,240,86572,1,0,0:0:0:0:
151,202,86657,1,0,0:0:0:0:
164,166,86743,1,0,0:0:0:0:
174,114,86829,5,0,0:0:0:0:
147,69,86914,1,0,0:0:0:0:
95,60,87000,1,0,0:0:0:0:
56,94,87086,1,0,0:0:0:0:
338,114,88029,1,0,0:0:0:0:
365,69,88200,1,0,0:0:0:0:
417,60,88372,1,0,0:0:0:0:
448,96,88543,6,0,B|419:180|419:180|340:260,1,170.999994781494
448,288,88886,2,0,B|419:204|419:204|340:124,1,170.999994781494
101,56,89229,6,0,B|157:160|157:160|269:208,2,199.499993911743
101,328,89743,2,0,B|157:223|157:223|269:176,1,199.499993911743
480,192,90086,2,0,L|232:192,1,199.499993911743
32,192,90429,2,0,L|280:192,1,199.499993911743
256,272,90772,2,0,P|312:184|256:112,2,199.499993911743
156,40,91286,6,0,B|150:130|150:130|211:191,1,170.999994781494
356,40,91629,2,0,B|361:130|361:130|300:191,1,170.999994781494
423,327,91972,6,0,P|360:223|235:187,2,199.499993911743
423,55,92486,2,0,P|343:171|247:195,1,199.499993911743
32,192,92829,2,0,B|87:170|87:170|156:203|156:203|255:184,1,199.499993911743
480,192,93172,2,0,B|424:170|424:170|355:203|355:203|256:184,1,199.499993911743
256,96,93515,2,0,L|256:328,2,199.499993911743
156,344,94029,6,0,B|162:247|100:185,1,170.999994781494
356,344,94372,2,0,B|349:247|411:185,1,170.999994781494
176,32,94714,6,0,B|256:96|256:96|336:32,2,199.499993911743
296,312,95229,2,0,B|296:168|296:168|360:120,1,199.499993911743
216,312,95572,2,0,B|216:168|216:168|152:120,1,199.499993911743
450,150,95914,2,0,B|375:206|375:206|375:334,1,199.499993911743
62,150,96257,2,0,B|137:206|137:206|137:334,2,199.499993911743
256,16,96772,6,0,L|256:152,1,113.999996520996
185,262,97114,6,0,L|216:231,1,38
326,262,97629,2,0,L|295:231,1,38
256,312,98143,6,0,L|256:224,1,76
131,67,98657,6,0,L|222:158,1,113.999996520996
256,192,99000,1,0,0:0:0:0:
344,368,99172,6,0,P|359:311|344:263,1,99.7499969558717
448,248,99343,2,0,P|419:197|374:174,1,99.7499969558717
416,80,99514,2,0,P|360:64|311:80,1,99.7499969558717
256,8,99686,1,0,0:0:0:0:
256,376,99857,5,0,0:0:0:0:
48,32,100200,6,0,P|138:77|183:167,2,199.499993911743
464,32,100714,2,0,P|373:77|328:167,1,199.499993911743
8,176,101057,2,0,P|40:128|24:200,1,199.499993911743
504,176,101400,2,0,P|472:128|488:200,1,199.499993911743
160,288,101743,2,0,P|256:320|351:288,2,199.499993911743
256,248,102257,6,0,B|372:192|372:192|376:104,1,199.499993911743
260,72,102600,2,0,B|144:128|144:128|140:198,1,199.499993911743
464,352,102943,6,0,B|376:304|376:304|328:216,2,199.499993911743
48,352,103457,2,0,B|136:304|136:304|184:216,1,199.499993911743
504,208,103800,2,0,B|456:136|456:136|328:136,1,199.499993911743
8,208,104143,2,0,B|56:136|56:136|184:136,1,199.499993911743
356,64,104486,1,0,0:0:0:0:
256,32,104657,1,0,0:0:0:0:
156,64,104829,1,0,0:0:0:0:
256,242,105000,6,0,L|256:74,1,113.999996520996
256,352,105343,1,0,0:0:0:0:
416,192,105514,2,0,P|442:241|403:306,2,113.999996520996
256,32,106029,1,0,0:0:0:0:
416,192,106200,1,0,0:0:0:0:
206,192,106372,6,0,L|374:192,1,113.999996520996
96,192,106715,1,0,0:0:0:0:
256,352,106886,2,0,P|207:378|142:339,2,113.999996520996
416,192,107401,1,0,0:0:0:0:
256,352,107572,1,0,0:0:0:0:
256,192,107743,6,0,L|256:240,1,38
48,192,108086,2,0,L|172:192,1,85.4999973907472
272,200,108257,6,0,L|238:233,1,38
108,44,108600,2,0,L|196:132,1,85.4999973907472
288,212,108772,6,0,L|240:211,1,38
495,24,109114,6,0,B|368:109|368:109|303:104|303:104|417:192|406:273|274:350|232:269,1,455.999986083985
116,360,109629,2,0,L|282:193,2,227.999993041992
16,192,110143,1,0,0:0:0:0:
256,24,110314,6,0,B|152:128|152:128|224:128,2,170.999994781494
256,360,110829,6,0,B|352:312|352:312|356:192|356:192,1,227.999993041992
128,192,111172,1,0,0:0:0:0:
256,24,111343,6,0,L|256:120,1,76
384,192,111686,1,0,0:0:0:0:
16,192,111857,6,0,L|196:192,1,152
452,192,112200,1,0,0:0:0:0:
256,360,112372,6,0,L|256:132,1,209.000006378174
16,192,112714,1,0,0:0:0:0:
512,192,112886,6,0,L|240:192,1,246.999988693238
16,192,113229,6,0,L|60:192,1,38
436,343,113572,6,0,B|320:303|320:303|264:191,1,246.999988693238
