osu file format v14

[General]
AudioFilename: audio.mp3
AudioLeadIn: 0
PreviewTime: 65537
Countdown: 1
SampleSet: Soft
StackLeniency: 0.7
Mode: 0
LetterboxInBreaks: 0
WidescreenStoryboard: 0

[Editor]
Bookmarks: 12565,13251,22165,41365,57823,61508,63137,66051,68280,70851,82508,109937,126394,131880,137365,148337,152451,153823,165651,170280,175765,189480,197708,214165,241594,244337,285480
DistanceSpacing: 0.5
BeatDivisor: 4
GridSize: 4
TimelineZoom: 2.1

[Metadata]
Title:Lost Metropolis
TitleUnicode:Lost Metropolis
Artist:Muzzy
ArtistUnicode:Muzzy
Creator:Secretpipe
Version:Abandoned
Source:
Tags:
BeatmapID:1046970
BeatmapSetID:491301

[Difficulty]
HPDrainRate:7
CircleSize:4
OverallDifficulty:8
ApproachRate:9
SliderMultiplier:1.5
SliderTickRate:1

[Events]
//Background and Video events
0,0,"forsaken_by_jonasdero-d4dp2jq.jpg",0,0
//Break Periods
//Storyboard Layer 0 (Background)
//Storyboard Layer 1 (Fail)
//Storyboard Layer 2 (Pass)
//Storyboard Layer 3 (Foreground)
//Storyboard Sound Samples

[TimingPoints]
223,342.857142857143,4,2,0,30,1,0
5708,-166.666666666667,4,2,0,30,0,0
13251,-133.333333333333,4,2,0,30,0,0
22165,-100,4,2,0,30,0,0
45480,-83.3333333333333,4,2,0,30,0,0
46851,-100,4,2,0,30,0,0
50965,-83.3333333333333,4,2,0,30,0,0
52337,-100,4,2,0,30,0,0
56451,-83.3333333333333,4,2,0,30,0,0
57823,-500,4,2,0,30,0,0
60565,-83.3333333333333,4,2,0,30,0,0
65365,-100,4,2,0,30,0,0
66051,-83.3333333333333,4,2,0,30,0,1
68451,-62.5,4,2,0,30,0,1
68794,-83.3333333333333,4,2,0,30,0,1
70851,-71.4285714285714,4,2,0,30,0,1
71537,-83.3333333333333,4,2,0,30,0,1
73937,-62.5,4,2,0,30,0,1
74280,-83.3333333333333,4,2,0,30,0,1
82508,-71.4285714285714,4,2,0,30,0,0
87651,-55.5555555555556,4,2,0,30,0,0
87994,-83.3333333333333,4,2,0,30,0,1
96223,-62.5,4,2,0,30,0,1
96565,-83.3333333333333,4,2,0,30,0,1
102394,-55.5555555555556,4,2,0,30,0,1
102737,-83.3333333333333,4,2,0,30,0,1
104451,-76.9230769230769,4,2,0,30,0,1
109594,-58.8235294117647,4,2,0,30,0,1
109937,-100,4,2,0,30,0,0
112337,-58.8235294117647,4,2,0,30,0,0
112680,-100,4,2,0,30,0,0
117823,-58.8235294117647,4,2,0,30,0,0
118165,-100,4,2,0,30,0,0
126394,-71.4285714285714,4,2,0,30,0,0
131537,-58.8235294117647,4,2,0,30,0,0
132223,-83.3333333333333,4,2,0,30,0,0
148337,-71.4285714285714,4,2,0,30,0,0
159308,-200,4,2,0,30,0,0
197023,-100,4,2,0,30,0,0
197708,-83.3333333333333,4,2,0,30,0,0
200108,-62.5,4,2,0,30,0,0
200451,-83.3333333333333,4,2,0,30,0,0
244337,-71.4285714285714,4,2,0,30,0,1
285480,-125,4,2,0,30,0,0

[Colours]
Combo1 : 180,180,180
Combo2 : 219,169,17
Combo3 : 147,87,118
Combo4 : 125,91,40
Combo5 : 181,154,184

[HitObjects]
256,192,223,12,0,5365,0:0:0:0:
97,325,5708,6,0,B|169:300|216:304|216:304|277:329|277:329|348:328|406:282,1,314.999990386963
449,216,7080,2,0,P|468:150|312:184,1,314.999990386963
301,261,8451,6,0,B|135:308|189:229|26:277|26:277|79:252|99:216,1,359.999989013672
140,120,9994,2,0,B|201:86|262:111|262:111|317:85|317:85|368:113|440:88,1,314.999990386963
484,152,11365,2,0,B|476:287|423:217|461:348|461:348|335:305|395:368|246:338,1,404.999987640381
169,314,13080,1,0,0:0:0:0:
165,305,13251,6,0,P|145:233|181:123,2,168.750006437302
253,109,14623,2,0,P|243:73|213:45,2,56.2500021457673
253,234,15137,2,0,P|257:265|293:298,2,56.2500021457673
342,146,15651,1,0,0:0:0:0:
342,146,15823,1,0,0:0:0:0:
342,146,15994,2,0,L|470:138,1,112.500004291535
408,245,16508,1,0,0:0:0:0:
408,245,16679,6,0,L|352:241,1,56.2500021457673
230,229,17023,2,0,L|238:345,1,112.500004291535
120,261,17537,2,0,L|128:148,1,112.500004291535
187,61,18051,2,0,L|256:62,1,56.2500021457673
333,127,18394,1,0,0:0:0:0:
333,127,18565,1,0,0:0:0:0:
167,206,18737,2,0,P|77:197|45:174,1,112.500004291535
333,127,19251,1,0,0:0:0:0:
333,127,19423,22,0,L|404:137,1,56.2500021457673
455,220,19765,1,0,0:0:0:0:
455,220,19937,1,0,0:0:0:0:
417,330,20108,1,0,0:0:0:0:
340,270,20280,2,0,L|331:146,1,112.500004291535
225,180,20794,5,0,0:0:0:0:
225,180,20965,1,0,0:0:0:0:
108,95,21137,2,0,L|190:90,1,56.2500021457673
300,64,21480,2,0,L|234:63,1,56.2500021457673
112,166,21823,2,0,L|183:163,1,56.2500021457673
312,201,22165,6,0,P|374:225|459:166,1,150,0|2,0:0|0:0,0:0:0:0:
372,123,22680,1,0,0:0:0:0:
254,263,22851,2,0,L|263:348,1,75
218,180,23194,2,0,L|227:95,1,75
152,293,23537,2,0,P|80:308|46:240,1,150
33,113,24051,1,0,0:0:0:0:
152,32,24223,2,0,P|192:19|243:27,2,75
323,133,24908,6,0,P|406:141|479:106,1,150,2|0,0:0|0:0,0:0:0:0:
248,183,25423,1,0,0:0:0:0:
248,183,25594,2,0,L|254:278,1,75
160,330,25937,2,0,L|160:249,1,75
133,129,26280,21,0,0:0:0:0:
72,230,26451,1,0,0:0:0:0:
248,183,26623,1,0,0:0:0:0:
52,146,26794,1,0,0:0:0:0:
242,275,26965,1,0,0:0:0:0:
218,21,27137,2,0,L|215:101,1,75
321,217,27651,6,0,P|402:208|441:133,1,150,2|0,0:0|0:0,0:0:0:0:
236,188,28165,1,0,0:0:0:0:
236,188,28337,2,0,P|233:230|250:276,1,75
346,115,28680,1,0,0:0:0:0:
256,18,28851,1,0,0:0:0:0:
151,173,29023,6,0,P|145:252|196:328,1,150
256,367,29537,1,0,0:0:0:0:
375,260,29708,2,0,L|287:263,1,75
440,346,30051,1,0,0:0:0:0:
424,104,30394,6,0,L|266:112,1,150,2|0,0:0|0:0,0:0:0:0:
201,57,30908,1,0,0:0:0:0:
294,202,31080,2,0,L|380:210,1,75
213,247,31423,2,0,L|127:255,1,75
297,362,31765,22,0,P|306:319|294:279,2,75,2|0|2,0:0|0:0|0:0,0:0:0:0:
213,247,32280,1,0,0:0:0:0:
376,248,32451,2,0,L|467:255,1,75,2|0,0:0|0:0,0:0:0:0:
294,202,32794,1,0,0:0:0:0:
392,20,33137,6,0,B|403:76|403:76|397:127|364:177,1,150,2|0,0:0|0:0,0:0:0:0:
304,291,33651,1,0,0:0:0:0:
231,148,33823,2,0,L|227:64,1,75
281,216,34165,1,0,0:0:0:0:
147,163,34337,1,0,0:0:0:0:
315,34,34508,6,0,L|311:116,2,75
346,184,35023,1,0,0:0:0:0:
249,256,35194,2,0,L|155:266,1,75
359,307,35537,1,0,0:0:0:0:
365,311,35880,6,0,P|424:336|429:265,1,150,2|0,0:0|0:0,0:0:0:0:
383,198,36394,1,0,0:0:0:0:
436,46,36565,2,0,L|426:130,1,75
298,54,36908,2,0,L|308:138,1,75
261,256,37251,21,0,0:0:0:0:
211,175,37423,1,0,0:0:0:0:
344,249,37594,1,0,0:0:0:0:
276,347,37765,1,0,0:0:0:0:
295,163,37937,1,0,0:0:0:0:
370,342,38108,1,0,0:0:0:0:
173,250,38280,2,0,P|105:234|55:247,1,112.5
64,242,38623,6,0,B|82:160|82:160|61:87,1,150,2|0,0:0|0:0,0:0:0:0:
179,54,39137,2,0,L|212:138,2,75
145,259,39651,2,0,L|166:171,1,75
268,316,39994,2,0,P|240:328|176:334,1,75
351,279,40337,2,0,P|392:280|424:293,1,75
275,218,40680,1,0,0:0:0:0:
338,364,40851,1,0,0:0:0:0:
342,127,41023,5,4,0:0:0:0:
256,192,41365,12,0,43937,0:0:0:0:
263,268,44108,6,0,L|250:353,1,75,2|0,0:0|0:0,0:0:0:0:
359,251,44451,2,0,L|346:166,1,75
272,57,44794,2,0,L|259:142,2,75
347,176,45308,1,0,0:0:0:0:
201,216,45480,22,0,L|96:224,1,89.9999972534181,8|0,0:0|0:0,0:0:0:0:
263,268,45823,2,0,L|352:274,1,89.9999972534181
175,293,46165,2,0,L|70:301,1,89.9999972534181,8|0,0:0|0:0,0:0:0:0:
237,345,46508,2,0,L|326:351,1,89.9999972534181
434,302,46851,6,0,P|450:224|416:152,1,150,2|0,0:0|0:0,0:0:0:0:
343,97,47365,1,0,0:0:0:0:
211,250,47537,2,0,L|375:237,1,150
257,167,48051,1,0,0:0:0:0:
169,321,48223,6,0,L|65:312,2,75
273,339,48737,1,0,0:0:0:0:
360,238,48908,2,0,P|368:204|360:150,1,75
328,71,49251,1,0,0:0:0:0:
128,204,49594,6,0,L|303:187,1,150,2|0,0:0|0:0,0:0:0:0:
77,276,50108,1,0,0:0:0:0:
77,276,50280,2,0,P|49:236|54:190,1,75
154,63,50623,2,0,P|148:99|124:127,1,75
228,32,50965,22,0,L|323:35,1,89.9999972534181,8|0,0:0|0:0,0:0:0:0:
464,103,51308,2,0,L|369:106,1,89.9999972534181
212,155,51651,2,0,L|307:158,1,89.9999972534181,8|0,0:0|0:0,0:0:0:0:
448,226,51994,2,0,L|353:229,1,89.9999972534181
202,297,52337,6,0,P|227:222|198:133,1,150,2|0,0:0|0:0,0:0:0:0:
140,69,52851,1,0,0:0:0:0:
253,24,53023,2,0,B|291:21|322:34|322:34|356:17|412:22,1,150
493,52,53537,1,0,0:0:0:0:
369,203,53708,6,0,L|381:112,2,75,2|0|2,0:0|0:0|0:0,0:0:0:0:
399,283,54223,1,0,0:0:0:0:
475,159,54394,1,0,0:0:0:0:
285,188,54565,1,0,0:0:0:0:
351,351,54737,1,0,0:0:0:0:
360,82,55080,6,0,P|279:68|200:97,1,150,2|0,0:0|0:0,0:0:0:0:
147,144,55594,1,0,0:0:0:0:
281,311,55765,2,0,B|277:253|277:253|290:209|290:209|285:153,1,150
194,285,56280,1,0,0:0:0:0:
368,318,56451,22,0,L|469:288,1,89.9999972534181
281,311,56794,2,0,L|180:281,1,89.9999972534181
372,234,57137,2,0,L|473:204,1,89.9999972534181
289,228,57480,2,0,L|188:198,1,89.9999972534181
364,50,57823,54,0,P|359:137|271:80,1,232.5
201,32,60565,6,0,B|166:159|265:227|265:227|385:246|426:218|457:136|457:136|441:237|491:340|491:340|416:375|341:340|341:340|278:361|278:361|226:335|163:357|163:357|123:312|145:255|145:255|116:208|116:208|146:144|90:80,1,1304.99996017456,4|0,0:0|0:0,0:0:0:0:
256,192,63137,12,0,65194,0:0:0:0:
207,260,65365,6,0,L|145:256,1,37.5
288,271,65537,2,0,L|350:267,1,37.5
256,199,65708,2,0,L|260:137,1,37.5
240,333,65880,2,0,L|242:370,1,37.5
417,270,66051,22,0,P|425:186|407:130,1,134.999995880127
360,82,66394,2,0,L|252:92,1,89.9999972534181
98,157,66737,1,0,0:0:0:0:
156,30,66908,1,0,0:0:0:0:
181,221,67080,2,0,L|152:333,1,89.9999972534181
364,355,67423,22,0,L|328:217,1,134.999995880127
315,143,67765,2,0,P|357:134|430:155,1,89.9999972534181
247,201,68108,1,0,0:0:0:0:
415,229,68280,1,0,0:0:0:0:
244,92,68451,6,0,B|175:117|112:93|112:93|151:141,1,180
166,207,68794,6,0,P|150:254|165:307,1,89.9999972534181
357,263,69137,2,0,L|240:254,1,89.9999972534181
414,356,69480,1,0,0:0:0:0:
448,189,69651,1,0,0:0:0:0:
286,73,69823,2,0,L|169:64,1,89.9999972534181
276,167,70165,6,0,L|376:157,1,89.9999972534181
114,213,70508,2,0,P|106:264|126:313,1,89.9999972534181
283,266,70851,22,0,L|210:260,1,52.4999983978272
367,304,71023,2,0,L|362:356,1,52.4999983978272
359,213,71194,2,0,B|357:167|375:98|375:98|340:119,1,157.499995193482
276,167,71537,22,0,P|206:188|133:173,1,134.999995880127
79,131,71880,2,0,L|76:42,1,89.9999972534181
72,211,72223,1,0,0:0:0:0:
203,71,72394,1,0,0:0:0:0:
351,224,72565,2,0,L|334:337,1,89.9999972534181
415,158,72908,6,0,L|401:69,1,89.9999972534181
436,332,73251,2,0,L|449:243,1,89.9999972534181
482,93,73594,1,0,0:0:0:0:
322,141,73765,1,0,0:0:0:0:
155,35,73937,22,0,B|130:99|172:148|172:148|156:181|176:210,1,180
194,289,74280,6,0,L|358:300,1,134.999995880127
405,279,74623,2,0,P|420:241|411:182,1,89.9999972534181
334,88,74965,2,0,P|310:126|307:170,1,89.9999972534181
459,51,75308,2,0,P|482:89|485:133,1,89.9999972534181
286,30,75651,6,0,L|144:40,1,134.999995880127
80,86,75994,1,0,0:0:0:0:
154,254,76165,2,0,P|174:198|163:156,2,89.9999972534181
261,104,76680,2,0,P|257:148|275:188,1,89.9999972534181
471,117,77023,6,0,L|357:133,1,89.9999972534181
405,295,77365,2,0,L|434:198,1,89.9999972534181
281,272,77708,1,0,0:0:0:0:
341,373,77880,1,0,0:0:0:0:
326,163,78051,2,0,L|291:60,1,89.9999972534181
57,209,78394,22,0,P|137:210|198:179,1,134.999995880127
234,126,78737,2,0,L|199:6,2,89.9999972534181
281,272,79251,1,0,0:0:0:0:
464,157,79423,2,0,P|416:148|360:166,1,89.9999972534181
403,339,79765,6,0,L|414:234,1,89.9999972534181
385,43,80108,1,0,0:0:0:0:
323,209,80280,1,0,0:0:0:0:
464,157,80451,1,0,0:0:0:0:
285,93,80623,1,0,0:0:0:0:
195,310,80794,2,0,P|248:323|301:301,1,89.9999972534181
116,271,81137,6,0,P|72:262|29:275,1,89.9999972534181
186,219,81480,1,0,0:0:0:0:
123,360,81651,1,0,0:0:0:0:
295,222,81823,1,0,0:0:0:0:
81,156,81994,1,0,0:0:0:0:
262,350,82165,2,0,P|314:358|359:336,1,89.9999972534181
420,148,82508,6,0,L|411:261,1,104.999996795654
439,17,82851,2,0,P|399:37|325:29,1,104.999996795654
307,17,83108,1,0,0:0:0:0:
269,14,83194,1,0,0:0:0:0:
233,23,83280,1,0,0:0:0:0:
202,42,83365,1,0,0:0:0:0:
65,213,83537,2,0,L|73:335,1,104.999996795654
92,348,83794,1,0,0:0:0:0:
126,360,83880,22,0,P|187:365|237:339,1,104.999996795654
415,203,84223,2,0,P|366:184|314:190,1,104.999996795654,0|0,0:0|0:0,0:0:0:0:
286,213,84480,1,0,0:0:0:0:
253,229,84565,1,0,0:0:0:0:
216,227,84651,1,0,0:0:0:0:
181,214,84737,1,0,0:0:0:0:
231,23,84908,2,0,L|225:144,1,104.999996795654
226,128,85165,1,0,0:0:0:0:
231,135,85251,6,0,P|178:123|107:159,1,104.999996795654
316,220,85594,2,0,L|427:204,1,104.999996795654
451,186,85851,1,0,0:0:0:0:
471,155,85937,1,0,0:0:0:0:
474,118,86023,1,0,0:0:0:0:
462,83,86108,1,0,0:0:0:0:
178,16,86280,2,0,L|155:131,1,104.999996795654
120,150,86537,1,0,0:0:0:0:
76,160,86623,5,0,0:0:0:0:
42,193,86708,1,0,0:0:0:0:
33,238,86794,1,0,0:0:0:0:
52,283,86880,1,0,0:0:0:0:
94,304,86965,1,0,0:0:0:0:
138,287,87051,1,0,0:0:0:0:
179,265,87137,1,0,0:0:0:0:
212,232,87223,5,0,0:0:0:0:
254,212,87308,1,0,0:0:0:0:
301,212,87394,1,0,0:0:0:0:
345,228,87480,1,0,0:0:0:0:
376,263,87565,1,0,0:0:0:0:
382,310,87651,6,0,P|337:367|292:274,1,202.499993820191
301,212,87994,6,0,L|285:88,1,89.9999972534181
208,251,88337,1,0,0:0:0:0:
373,104,88508,1,0,0:0:0:0:
355,77,88593,1,0,0:0:0:0:
331,55,88679,1,0,0:0:0:0:
302,43,88765,1,0,0:0:0:0:
271,40,88850,1,0,0:0:0:0:
362,274,89023,1,0,0:0:0:0:
497,160,89194,1,0,0:0:0:0:
497,160,89280,1,0,0:0:0:0:
497,160,89365,6,0,L|400:174,1,89.9999972534181
107,238,89708,2,0,L|204:252,1,89.9999972534181
227,245,89965,1,0,0:0:0:0:
247,221,90051,1,0,0:0:0:0:
253,190,90137,1,0,0:0:0:0:
247,158,90223,1,0,0:0:0:0:
230,131,90308,1,0,0:0:0:0:
205,111,90394,2,0,L|142:98,1,44.999998626709
244,49,90565,2,0,L|288:39,1,44.999998626709
401,38,90737,6,0,L|392:188,1,134.999995880127
335,239,91080,2,0,P|291:229|231:245,1,89.9999972534181
220,253,91337,1,0,0:0:0:0:
193,269,91423,1,0,0:0:0:0:
296,338,91594,1,0,0:0:0:0:
248,126,91765,2,0,L|216:1,1,89.9999972534181
68,198,92108,6,0,P|124:204|175:187,1,89.9999972534181
346,113,92451,1,0,0:0:0:0:
375,101,92537,1,0,0:0:0:0:
406,101,92623,1,0,0:0:0:0:
435,111,92708,1,0,0:0:0:0:
456,134,92794,2,0,L|472:198,1,44.999998626709
385,295,92965,2,0,L|395:251,1,44.999998626709
269,166,93137,2,0,L|294:273,1,89.9999972534181
196,113,93480,22,0,L|94:99,1,89.9999972534181
337,28,93823,1,0,0:0:0:0:
187,200,93994,1,0,0:0:0:0:
160,216,94080,1,0,0:0:0:0:
128,217,94165,1,0,0:0:0:0:
98,204,94251,1,0,0:0:0:0:
83,175,94337,1,0,0:0:0:0:
277,80,94508,1,0,0:0:0:0:
301,211,94680,1,0,0:0:0:0:
301,211,94765,1,0,0:0:0:0:
301,211,94851,6,0,L|274:314,1,89.9999972534181
401,212,95194,2,0,L|374:109,1,89.9999972534181
366,95,95451,1,0,0:0:0:0:
340,76,95537,2,0,L|268:85,1,44.999998626709
207,146,95708,2,0,L|279:155,1,44.999998626709
103,108,95880,2,0,P|97:164|124:210,1,89.9999972534181
165,287,96223,6,0,B|215:294|246:281|246:281|280:321|336:313,1,180
419,307,96565,1,0,0:0:0:0:
310,135,96737,1,0,0:0:0:0:
310,135,96823,1,0,0:0:0:0:
310,135,96908,2,0,L|317:226,1,89.9999972534181
426,106,97251,2,0,B|399:68|399:68|346:63,1,89.9999972534181
151,61,97594,6,0,L|137:213,1,134.999995880127
81,259,97937,1,0,0:0:0:0:
255,303,98108,1,0,0:0:0:0:
255,303,98194,1,0,0:0:0:0:
255,303,98280,2,0,L|182:310,1,44.999998626709
329,341,98451,2,0,L|393:352,1,44.999998626709
338,167,98623,2,0,L|321:268,1,89.9999972534181
380,96,98965,6,0,L|367:45,2,44.999998626709
200,25,99308,1,0,0:0:0:0:
199,220,99480,2,0,L|136:228,2,44.999998626709
312,276,99823,1,0,0:0:0:0:
82,264,99994,2,0,P|76:208|107:165,1,89.9999972534181
112,156,100251,1,0,0:0:0:0:
134,133,100337,6,0,P|148:97|127:37,1,89.9999972534181
167,293,100680,1,0,0:0:0:0:
313,173,100851,1,0,0:0:0:0:
313,173,100937,1,0,0:0:0:0:
313,173,101023,2,0,L|239:188,1,44.999998626709
382,134,101194,2,0,L|431:145,1,44.999998626709
307,85,101365,1,0,0:0:0:0:
396,311,101537,1,0,0:0:0:0:
396,311,101623,1,0,0:0:0:0:
396,311,101708,6,0,L|380:223,1,89.9999972534181
221,332,102051,2,0,L|337:345,1,89.9999972534181
113,234,102394,6,0,P|59:274|153:294,1,202.499993820191
196,247,102737,6,0,L|186:107,1,134.999995880127
150,47,103080,2,0,B|107:39|107:39|56:63,1,89.9999972534181
272,155,103423,2,0,B|315:163|315:163|356:143,1,89.9999972534181
383,126,103680,1,0,0:0:0:0:
400,106,103765,2,0,L|391:60,2,44.999998626709
446,343,104108,2,0,P|369:343|301:331,1,134.999995880127
231,299,104451,6,0,L|213:183,1,97.4999955368044
123,25,104794,1,0,0:0:0:0:
310,112,104965,2,0,L|359:123,2,48.7499977684022
119,164,105308,1,0,0:0:0:0:
345,41,105480,2,0,L|446:61,1,97.4999955368044
328,199,105823,2,0,L|232:180,1,97.4999955368044
470,234,106165,6,0,P|468:298|437:347,1,97.4999955368044
432,347,106423,1,0,0:0:0:0:
406,361,106508,2,0,L|331:366,1,48.7499977684022
252,302,106680,2,0,L|320:310,1,48.7499977684022
176,336,106851,2,0,P|132:300|150:213,1,146.249993305207
203,137,107194,6,0,L|53:151,1,146.249993305207
18,220,107537,1,0,0:0:0:0:
260,222,107708,1,0,0:0:0:0:
260,222,107794,1,0,0:0:0:0:
260,222,107880,2,0,L|366:200,1,97.4999955368044
176,78,108223,2,0,L|80:58,1,97.4999955368044
152,260,108565,6,0,B|175:214|175:214|166:151,1,97.4999955368044
63,342,108908,1,0,0:0:0:0:
258,304,109080,1,0,0:0:0:0:
292,278,109165,1,0,0:0:0:0:
335,269,109251,1,0,0:0:0:0:
378,277,109337,1,0,0:0:0:0:
413,302,109423,1,0,0:0:0:0:
435,264,109508,1,0,0:0:0:0:
469,236,109594,2,0,P|478:145|372:125,1,191.250003647804
321,144,109937,6,0,P|251:145|199:131,1,112.5
132,99,110280,2,0,L|144:185,1,75
205,33,110623,1,0,0:0:0:0:
52,95,110794,1,0,0:0:0:0:
201,290,110965,2,0,L|211:203,1,75
153,352,111308,6,0,P|221:366|265:334,1,112.5
314,290,111651,2,0,B|353:281|353:281|397:295,1,75
486,353,111994,1,0,0:0:0:0:
362,367,112165,1,0,0:0:0:0:
394,177,112337,6,0,B|421:132|414:48|414:48|453:77|457:114,1,191.250003647804
480,163,112680,6,0,P|469:204|445:240,1,75
243,153,113023,2,0,P|291:142|349:148,1,75
181,241,113365,1,0,0:0:0:0:
181,241,113537,1,0,0:0:0:0:
312,65,113708,2,0,P|350:64|406:80,1,75
240,86,114051,6,0,P|181:94|127:79,1,112.5
72,35,114394,2,0,L|80:120,1,75
62,227,114737,2,0,L|76:180,1,37.5
91,306,114908,2,0,L|98:345,1,37.5
222,237,115080,2,0,B|184:231|184:231|128:244,1,75
286,278,115423,6,0,L|426:282,1,112.5
481,296,115765,2,0,P|481:344|462:373,1,75
410,196,116108,2,0,P|403:159|412:123,1,75
252,327,116451,2,0,P|213:336|168:329,1,75
273,155,116794,6,0,P|289:188|284:232,1,75
63,308,117137,2,0,L|76:182,1,112.5
118,126,117480,1,0,0:0:0:0:
42,40,117651,1,0,0:0:0:0:
167,210,117823,6,0,B|211:220|241:199|241:199|276:219|276:219|312:191|360:202,1,191.250003647804
424,227,118165,6,0,L|413:316,1,75
381,55,118508,2,0,L|393:147,1,75
289,37,118851,2,0,P|249:43|189:26,1,75
35,103,119194,2,0,P|82:110|128:96,1,75
256,262,119537,6,0,L|247:141,1,112.5
301,87,119880,1,0,0:0:0:0:
164,246,120051,2,0,P|127:233|91:243,2,75
348,336,120565,2,0,P|398:331|421:259,1,112.5
405,209,120908,6,0,L|391:120,1,75
481,27,121251,2,0,L|464:129,1,75
321,188,121594,1,0,0:0:0:0:
383,46,121765,1,0,0:0:0:0:
447,290,121937,2,0,L|354:283,1,75
186,188,122280,6,0,P|123:176|67:197,1,112.5
29,255,122623,2,0,L|37:342,2,75
126,361,123137,1,0,0:0:0:0:
261,192,123308,2,0,P|255:151|213:118,1,75
221,348,123651,6,0,L|300:334,1,75
465,252,123994,1,0,0:0:0:0:
354,197,124165,1,0,0:0:0:0:
379,306,124337,1,0,0:0:0:0:
441,143,124508,1,0,0:0:0:0:
210,202,124680,2,0,P|206:239|223:275,1,75
267,134,125023,6,0,L|252:49,1,75
211,201,125365,1,0,0:0:0:0:
335,294,125537,1,0,0:0:0:0:
345,110,125708,1,0,0:0:0:0:
300,215,125880,1,0,0:0:0:0:
487,155,126051,2,0,P|437:154|393:163,1,75
149,251,126394,6,0,P|88:262|29:229,1,104.999996795654
253,105,126737,2,0,L|375:118,1,104.999996795654
390,133,126994,1,0,0:0:0:0:
412,157,127080,1,0,0:0:0:0:
425,190,127165,1,0,0:0:0:0:
422,226,127251,1,0,0:0:0:0:
294,339,127423,2,0,L|183:348,1,104.999996795654
153,340,127680,1,0,0:0:0:0:
123,318,127765,6,0,P|106:266|121:207,1,104.999996795654
295,178,128108,2,0,L|180:181,1,104.999996795654
160,158,128365,1,0,0:0:0:0:
146,123,128451,1,0,0:0:0:0:
147,86,128537,1,0,0:0:0:0:
162,52,128623,1,0,0:0:0:0:
364,127,128794,2,0,P|384:178|369:235,1,104.999996795654
353,256,129051,1,0,0:0:0:0:
325,280,129137,6,0,P|265:267|198:279,1,104.999996795654
451,358,129480,2,0,P|440:297|472:232,1,104.999996795654
474,227,129737,1,0,0:0:0:0:
488,192,129823,1,0,0:0:0:0:
491,155,129908,1,0,0:0:0:0:
480,120,129994,1,0,0:0:0:0:
199,154,130165,2,0,L|309:158,1,104.999996795654
351,149,130423,1,0,0:0:0:0:
385,117,130508,5,0,0:0:0:0:
385,69,130594,1,0,0:0:0:0:
345,42,130680,1,0,0:0:0:0:
300,55,130765,1,0,0:0:0:0:
256,73,130851,1,0,0:0:0:0:
208,69,130937,1,0,0:0:0:0:
166,45,131023,1,0,0:0:0:0:
126,20,131108,1,0,0:0:0:0:
78,17,131194,5,0,0:0:0:0:
44,42,131280,1,0,0:0:0:0:
31,81,131365,1,0,0:0:0:0:
40,122,131451,1,0,0:0:0:0:
63,160,131537,6,0,B|64:208|101:220|101:220|81:256|81:256|113:290|87:335,1,191.250003647804
40,373,131880,5,0,0:0:0:0:
40,373,132051,1,0,0:0:0:0:
201,261,132223,2,0,L|295:268,1,89.9999972534181
317,273,132480,1,0,0:0:0:0:
337,281,132565,2,0,L|347:346,1,44.999998626709
424,314,132737,2,0,L|434:379,1,44.999998626709
476,249,132908,2,0,L|457:155,1,89.9999972534181
250,185,133251,6,0,P|304:194|355:180,1,89.9999972534181
110,251,133594,2,0,P|153:242|197:250,1,89.9999972534181
216,262,133851,1,0,0:0:0:0:
234,274,133937,1,0,0:0:0:0:
67,346,134108,1,0,0:0:0:0:
26,84,134280,2,0,L|45:182,1,89.9999972534181
159,34,134623,6,0,L|135:135,1,89.9999972534181
67,346,134965,1,0,0:0:0:0:
240,230,135137,1,0,0:0:0:0:
240,230,135223,1,0,0:0:0:0:
240,230,135308,1,0,0:0:0:0:
72,193,135480,1,0,0:0:0:0:
211,357,135651,2,0,L|307:351,1,89.9999972534181
426,243,135994,6,0,L|327:233,1,89.9999972534181
72,193,136337,1,0,0:0:0:0:
161,67,136508,1,0,0:0:0:0:
161,67,136594,1,0,0:0:0:0:
161,67,136680,2,0,L|155:113,1,44.999998626709
198,180,136851,2,0,L|208:224,1,44.999998626709
330,107,137023,2,0,P|283:97|226:109,1,89.9999972534181
411,61,137365,5,0,0:0:0:0:
411,61,137537,1,0,0:0:0:0:
367,286,137708,2,0,L|371:192,1,89.9999972534181
376,174,137965,1,0,0:0:0:0:
385,153,138051,2,0,L|429:148,1,44.999998626709
443,219,138223,2,0,L|495:212,1,44.999998626709
367,286,138394,2,0,L|269:275,1,89.9999972534181
273,104,138737,6,0,P|277:158|260:209,1,89.9999972534181
76,311,139080,2,0,L|72:207,1,89.9999972534181
72,198,139337,1,0,0:0:0:0:
70,175,139423,1,0,0:0:0:0:
2,262,139594,1,0,0:0:0:0:
201,361,139765,2,0,L|300:350,1,89.9999972534181
205,183,140108,6,0,L|196:278,1,89.9999972534181
271,67,140451,1,0,0:0:0:0:
126,115,140623,1,0,0:0:0:0:
126,115,140708,1,0,0:0:0:0:
126,115,140794,1,0,0:0:0:0:
316,199,140965,1,0,0:0:0:0:
155,36,141137,2,0,P|109:29|58:58,1,89.9999972534181
199,222,141480,6,0,B|218:178|218:178|204:129,1,89.9999972534181
101,343,141823,1,0,0:0:0:0:
277,307,141994,1,0,0:0:0:0:
277,307,142080,1,0,0:0:0:0:
277,307,142165,2,0,L|211:310,1,44.999998626709
349,344,142337,2,0,L|409:356,1,44.999998626709
357,179,142508,2,0,P|339:223|350:278,1,89.9999972534181
406,102,142851,5,0,0:0:0:0:
406,102,143023,1,0,0:0:0:0:
153,39,143194,2,0,P|139:92|158:141,1,89.9999972534181
159,144,143451,1,0,0:0:0:0:
169,163,143537,2,0,L|167:224,1,44.999998626709
90,263,143708,2,0,L|92:206,1,44.999998626709
170,327,143880,2,0,P|231:338|273:323,1,89.9999972534181
421,285,144223,6,0,P|375:293|320:271,1,89.9999972534181
140,127,144565,2,0,L|256:133,1,89.9999972534181
252,133,144823,1,0,0:0:0:0:
274,133,144908,1,0,0:0:0:0:
112,208,145080,1,0,0:0:0:0:
233,43,145251,2,0,L|342:49,1,89.9999972534181
364,253,145594,6,0,B|350:208|350:208|361:146,1,89.9999972534181
289,356,145937,1,0,0:0:0:0:
244,195,146108,1,0,0:0:0:0:
244,195,146194,1,0,0:0:0:0:
244,195,146280,1,0,0:0:0:0:
404,324,146451,1,0,0:0:0:0:
152,271,146623,2,0,P|109:263|54:270,1,89.9999972534181
244,195,146965,6,0,P|249:139|236:91,1,89.9999972534181
193,347,147308,1,0,0:0:0:0:
351,270,147480,1,0,0:0:0:0:
351,270,147565,1,0,0:0:0:0:
351,270,147651,2,0,L|346:210,1,44.999998626709
413,319,147823,2,0,L|404:369,1,44.999998626709
471,254,147994,2,0,B|474:205|474:205|452:149,1,89.9999972534181
268,180,148337,6,0,P|324:187|389:164,1,104.999996795654
191,50,148680,2,0,L|56:58,1,104.999996795654
64,70,148937,1,0,0:0:0:0:
48,91,149023,2,0,L|46:158,2,52.4999983978272
119,205,149365,2,0,L|115:323,1,104.999996795654
128,333,149623,1,0,0:0:0:0:
149,347,149708,6,0,P|208:356|262:344,1,104.999996795654
434,219,150051,2,0,P|380:230|319:217,1,104.999996795654
309,206,150308,1,0,0:0:0:0:
293,184,150394,1,0,0:0:0:0:
287,158,150480,1,0,0:0:0:0:
291,132,150565,1,0,0:0:0:0:
493,272,150737,2,0,P|441:297|379:299,1,104.999996795654
368,294,150994,1,0,0:0:0:0:
342,285,151080,6,0,P|280:280|224:295,1,104.999996795654
24,370,151423,2,0,L|34:258,1,104.999996795654
44,241,151680,1,0,0:0:0:0:
59,220,151765,1,0,0:0:0:0:
81,206,151851,1,0,0:0:0:0:
106,201,151937,1,0,0:0:0:0:
302,184,152108,2,0,L|306:79,1,104.999996795654
298,54,152365,1,0,0:0:0:0:
281,33,152451,6,0,P|233:23|170:42,1,104.999996795654
258,261,152794,2,0,P|320:265|365:241,1,104.999996795654
375,228,153051,1,0,0:0:0:0:
388,205,153137,2,0,L|391:120,1,52.4999983978272
438,271,153308,2,0,L|446:328,1,52.4999983978272
472,184,153480,6,0,P|460:96|384:68,1,157.499995193482
256,192,153823,12,0,158965,0:0:0:0:
40,328,159308,6,0,B|140:260|244:316|244:316|300:252|172:220|236:92|236:92|304:48|368:108,1,600
409,210,162223,6,0,B|364:232|321:193|321:193|377:274|329:349,2,262.5
478,161,164794,6,0,P|475:100|394:87,1,150
326,117,165651,6,0,B|273:133|226:95|226:95|147:128|79:117|79:117|6:13|178:-44|216:69|181:131|67:109|64:272|114:337|114:337|184:303|262:348|262:348|306:315|286:252,1,993.75
256,192,170280,12,0,175594,0:0:0:0:
150,338,175765,6,0,B|197:384|262:352|262:352|273:295|227:259|227:259|279:206|245:157|245:157|185:185|132:157|132:157|110:92|140:54,1,562.5
215,24,178508,6,0,B|301:63|383:23|383:23|351:89|401:133|401:133|369:204|369:204|396:240|384:316|384:316|352:296|312:308,1,562.5
236,332,181251,6,0,B|188:324|148:348|148:348|184:264|116:212|116:212|144:148|144:148|108:112|108:48|108:48|44:72|28:108|52:168,1,562.5
56,296,183994,6,0,B|160:324|212:240|212:240|284:268|284:268|336:236|384:256|384:256|432:244|452:196,1,450
464,116,186223,2,0,L|452:68,2,37.5
380,48,186737,6,0,B|328:56|284:36|284:36|248:36|220:52|220:52|176:68|136:40|136:40|156:112|140:164|140:164|176:180|232:160|232:160|276:176|276:176|320:168,1,562.5
408,148,189480,6,0,B|460:200|440:280|440:280|396:312|328:288|328:288|280:284|236:312|236:312|176:300|176:300|124:320|64:300,1,525
256,192,192223,12,0,195994,0:0:0:0:
188,280,196337,6,0,P|252:288|312:284,1,112.5
384,272,197023,2,0,L|392:216,1,37.5
324,152,197194,2,0,L|336:212,1,37.5
400,128,197365,2,0,L|400:88,1,37.5
312,32,197537,2,0,L|324:76,1,37.5
247,273,197708,6,0,L|103:257,1,134.999995880127
42,283,198051,2,0,P|36:327|55:366,1,89.9999972534181
114,174,198394,1,0,0:0:0:0:
41,70,198565,1,0,0:0:0:0:
231,193,198737,2,0,L|351:182,1,89.9999972534181
390,19,199080,6,0,P|373:87|393:164,1,134.999995880127
449,212,199423,2,0,P|463:166|453:114,1,89.9999972534181
357,265,199765,1,0,0:0:0:0:
499,367,199937,1,0,0:0:0:0:
304,125,200108,6,0,B|269:96|269:96|293:159|268:228,1,180
221,290,200451,6,0,P|160:307|94:284,1,120
