osu file format v14

[General]
AudioFilename: audio.mp3
AudioLeadIn: 0
PreviewTime: 272819
Countdown: 0
SampleSet: Soft
StackLeniency: 0.4
Mode: 0
LetterboxInBreaks: 0
WidescreenStoryboard: 0

[Editor]
Bookmarks: 9592,31534,53477,75420,97363,119306,141249,163192,185134,207077,229020,250963,256449,272906,294849,316792,338734
DistanceSpacing: 1
BeatDivisor: 4
GridSize: 8
TimelineZoom: 1.7

[Metadata]
Title:Lost Forever
TitleUnicode:Lost Forever
Artist:Muzzy
ArtistUnicode:Muzzy
Creator:Mir
Version:Astray
Source:
Tags:drum and bass dnb spectrum ep
BeatmapID:1268477
BeatmapSetID:600276

[Difficulty]
HPDrainRate:6
CircleSize:4
OverallDifficulty:8.5
ApproachRate:9
SliderMultiplier:1.8
SliderTickRate:1

[Events]
//Background and Video events
0,0,"asuteroud.jpg",0,0
//Break Periods
2,190989,195503
2,196303,200989
2,201789,206475
2,234704,237675
//Storyboard Layer 0 (Background)
//Storyboard Layer 1 (Fail)
//Storyboard Layer 2 (Pass)
//Storyboard Layer 3 (Foreground)
//Storyboard Sound Samples

[TimingPoints]
-11,342.857142857143,4,2,1,40,1,0
674,-100,4,2,1,5,0,0
1360,-100,4,2,1,10,0,0
2046,-100,4,2,1,15,0,0
2731,-100,4,2,1,20,0,0
9589,-333.333333333333,4,2,1,40,0,0
31531,-200,4,2,1,60,0,0
53131,-125,4,2,1,80,0,0
76789,-200,4,2,1,80,0,0
91874,-133.333333333333,4,2,1,60,0,0
92560,-133.333333333333,4,2,1,70,0,0
93246,-133.333333333333,4,2,1,80,0,0
93931,-133.333333333333,4,2,1,90,0,0
94617,-100,4,2,1,90,0,0
97360,-83.3333333333333,4,2,1,100,0,1
116560,-100,4,2,1,80,0,0
118103,-133.333333333333,4,2,1,80,0,0
119303,-100,4,2,1,80,0,0
141246,-83.3333333333333,4,2,1,100,0,1
152046,-83.3333333333333,4,2,1,100,0,0
152217,-83.3333333333333,4,2,1,100,0,1
163189,-100,4,2,1,80,0,0
182389,-200,4,2,1,80,0,0
184531,-200,4,2,1,5,0,0
184617,-200,4,2,1,80,0,0
207074,-200,4,2,1,40,0,0
219074,-153.846153846153,4,2,1,40,0,0
223531,-153.846153846153,4,2,1,50,0,0
227646,-133.333333333333,4,2,1,50,0,0
245475,-133.333333333333,4,2,1,60,0,0
246160,-133.333333333333,4,2,1,70,0,0
246846,-133.333333333333,4,2,1,80,0,0
247532,-133.333333333333,4,2,1,90,0,0
255932,-133.333333333333,4,2,1,100,0,0
256446,-83.3333333333333,4,2,1,100,0,1
270160,-133.333333333333,4,2,1,80,0,0
272903,-83.3333333333333,4,2,1,100,0,1
273675,-83.3333333333333,4,2,1,5,0,1
273760,-83.3333333333333,4,2,1,100,0,1
273846,-83.3333333333333,4,2,1,5,0,1
273932,-83.3333333333333,4,2,1,100,0,1
279160,-83.3333333333333,4,2,1,5,0,1
279246,-83.3333333333333,4,2,1,100,0,1
279332,-83.3333333333333,4,2,1,5,0,1
279417,-83.3333333333333,4,2,1,100,0,1
283703,-83.3333333333333,4,2,1,100,0,0
283874,-83.3333333333333,4,2,1,100,0,1
284646,-83.3333333333333,4,2,1,5,0,1
284732,-83.3333333333333,4,2,1,100,0,1
284817,-83.3333333333333,4,2,1,5,0,1
284903,-83.3333333333333,4,2,1,100,0,1
287389,-83.3333333333333,4,2,1,5,0,1
287475,-83.3333333333333,4,2,1,100,0,1
287560,-83.3333333333333,4,2,1,5,0,1
287646,-83.3333333333333,4,2,1,100,0,1
290131,-83.3333333333333,4,2,1,5,0,1
290217,-83.3333333333333,4,2,1,100,0,1
290303,-83.3333333333333,4,2,1,5,0,1
290389,-83.3333333333333,4,2,1,100,0,1
294846,-100,4,2,1,80,0,0
314046,-133.333333333333,4,2,1,60,0,0
316789,-100,4,2,1,80,0,0
335989,-133.333333333333,4,2,1,80,0,0
338731,-333.333333333333,4,2,1,40,0,0
353732,-25,4,2,1,40,0,0
353817,-1000,4,2,1,40,0,0

[Colours]
Combo1 : 255,230,151
Combo2 : 160,220,152
Combo3 : 212,212,212
Combo4 : 230,176,128

[HitObjects]
256,192,674,12,2,9246,0:2:0:0:
78,115,9589,6,0,B|132:119|161:103|161:103|214:117|214:117|271:85|346:122|346:122|308:122|296:146,1,323.999990112305,2|0,0:2|0:2,0:2:0:0:
248,189,11989,2,0,L|251:213,3,13.4999995880127,0|0|0|0,0:2|0:2|0:2|0:2,0:2:0:0:
168,227,12331,6,0,P|235:285|306:266,1,161.999995056153,2|0,0:2|0:2,0:2:0:0:
300,270,13703,5,0,0:2:0:0:
321,268,14389,1,0,0:2:0:0:
405,187,14731,2,0,L|408:208,3,13.4999995880127,0|0|0|0,0:2|0:2|0:2|0:2,0:2:0:0:
460,121,15074,6,0,B|431:108|376:91|327:148|327:148|285:127|285:127|221:167|157:130,1,323.999990112305,2|0,3:2|0:2,0:2:0:0:
74,125,17474,2,0,L|72:109,3,13.4999995880127,0|0|0|0,0:2|0:2|0:2|0:2,0:2:0:0:
16,190,17817,6,0,L|27:324,1,134.999995880127,2|0,0:2|0:2,0:2:0:0:
31,351,19189,5,0,0:2:0:0:
57,351,19531,2,0,L|89:350,1,26.9999991760254
164,380,19874,2,0,L|190:380,1,26.9999991760254
200,224,20217,2,0,L|198:210,3,13.4999995880127,0|0|0|0,0:2|0:2|0:2|0:2,0:2:0:0:
174,300,20560,6,0,B|209:308|238:298|238:298|285:330|285:330|328:299|328:299|410:290|410:290|479:323,1,323.999990112305,2|0,3:2|0:2,0:2:0:0:
490,242,22960,2,0,L|468:231,3,13.4999995880127,0|0|0|0,0:2|0:2|0:2|0:2,0:2:0:0:
468,159,23303,6,0,B|409:135|409:135|365:159|365:159|300:138|246:142|263:181|209:192|155:172,1,323.999990112305,2|0,0:2|0:2,0:2:0:0:
195,96,25703,2,0,L|196:77,3,13.4999995880127,0|0|0|0,0:2|0:2|0:2|0:2,0:2:0:0:
108,106,26046,6,0,P|81:142|173:259,1,215.999993408203,2|0,3:2|0:2,0:2:0:0:
163,259,28103,5,0,0:2:0:0:
291,326,28446,2,0,L|289:346,3,13.4999995880127,0|0|0|0,0:2|0:2|0:2|0:2,0:2:0:0:
345,274,28789,6,0,B|427:273|427:273|458:293,2,107.999996704102,2|0|0,0:2|0:2|0:2,0:2:0:0:
303,209,30503,2,0,L|302:178,1,26.9999991760254,0|0,0:2|0:2,0:2:0:0:
374,161,30846,2,0,L|375:130,1,26.9999991760254,0|0,0:2|0:2,0:2:0:0:
300,102,31189,2,0,L|300:80,3,13.4999995880127,0|0|0|0,0:2|0:2|0:2|0:2,0:2:0:0:
213,142,31531,6,0,L|160:145,1,45,6|0,0:2|0:2,0:2:0:0:
137,72,31874,2,0,L|92:69,1,45,0|0,0:2|0:2,0:2:0:0:
20,153,32217,2,0,L|73:150,1,45,0|0,0:2|0:2,0:2:0:0:
74,243,32560,2,0,L|118:245,1,45,0|0,0:2|0:2,0:2:0:0:
313,180,32903,6,0,P|310:202|311:224,1,45,2|0,0:2|0:2,0:2:0:0:
269,340,33246,2,0,P|266:318|267:295,1,45,2|0,0:2|0:2,0:2:0:0:
365,344,33589,2,0,P|368:322|367:299,1,45,2|0,0:2|0:2,0:2:0:0:
431,225,33932,2,0,P|431:191|453:150,1,67.5,2|0,0:2|0:2,0:2:0:0:
431,151,34274,6,0,L|368:150,1,45,2|0,0:2|0:2,0:2:0:0:
292,62,34617,2,0,L|369:60,1,67.5,2|0,0:2|0:2,0:2:0:0:
370,49,34960,2,0,L|372:-3,1,45,0|0,0:2|0:2,0:2:0:0:
292,62,35303,2,0,L|293:106,1,45,2|0,0:2|0:2,0:2:0:0:
81,67,35646,6,0,L|129:68,1,45,2|0,0:2|0:2,0:2:0:0:
44,144,35989,2,0,L|-4:145,1,45,2|0,0:2|0:2,0:2:0:0:
127,180,36331,2,0,P|154:159|167:134,1,45,2|0,0:2|0:2,0:2:0:0:
141,273,36674,2,0,P|159:300|190:312,1,67.5,2|0,0:2|0:2,0:2:0:0:
206,311,37017,6,0,L|206:366,1,45,4|0,0:2|0:2,0:2:0:0:
264,241,37360,2,0,L|264:196,1,45,0|0,0:2|0:2,0:2:0:0:
317,320,37703,2,0,L|317:375,1,45,0|0,0:2|0:2,0:2:0:0:
402,276,38046,2,0,L|402:231,1,45,0|0,0:2|0:2,0:2:0:0:
198,127,38389,6,0,P|159:123|145:128,1,45,2|0,0:2|0:2,0:2:0:0:
264,196,38731,2,0,P|303:200|317:195,1,45,2|0,0:2|0:2,0:2:0:0:
362,120,39074,2,0,L|364:64,1,45,2|0,0:2|0:2,0:2:0:0:
211,44,39417,2,0,L|215:118,1,67.5,2|0,0:2|0:2,0:2:0:0:
203,122,39760,6,0,L|143:122,1,45,0|0,0:2|0:2,0:2:0:0:
39,199,40103,2,0,L|116:200,1,67.5,2|0,0:2|0:2,0:2:0:0:
121,204,40446,2,0,P|123:244|118:261,1,45,0|0,0:2|0:2,0:2:0:0:
72,366,40789,2,0,P|69:343|73:321,1,45,0|0,0:2|0:2,0:2:0:0:
268,315,41131,6,0,P|307:318|345:304,1,67.5,2|0,0:2|0:2,0:2:0:0:
349,306,41474,1,2,0:2:0:0:
298,223,41646,2,0,L|303:176,1,45,2|0,0:2|0:2,0:2:0:0:
315,88,41989,1,2,0:0:0:0:
222,135,42160,1,2,0:0:0:0:
435,183,42331,1,2,0:0:0:0:
435,170,42417,1,2,0:2:0:0:
436,157,42503,6,0,L|436:101,1,45,6|0,0:2|0:2,0:2:0:0:
346,36,42846,2,0,L|346:80,1,45,0|0,0:2|0:2,0:2:0:0:
287,193,43189,2,0,L|288:137,1,45,0|0,0:2|0:2,0:2:0:0:
153,37,43532,2,0,P|150:59|153:81,1,45,2|0,0:2|0:2,0:2:0:0:
203,155,43874,5,2,0:2:0:0:
203,155,44046,1,2,0:2:0:0:
202,253,44217,1,2,0:0:0:0:
202,253,44389,1,2,0:0:0:0:
100,248,44560,2,0,P|87:246|26:281,1,67.5,2|0,0:2|0:2,0:2:0:0:
26,288,44903,1,2,0:2:0:0:
118,349,45074,1,2,0:2:0:0:
129,346,45160,1,2,0:2:0:0:
140,344,45246,6,0,L|201:342,1,45,0|0,0:2|0:2,0:2:0:0:
299,285,45589,2,0,L|238:283,1,45,0|0,0:2|0:2,0:2:0:0:
100,248,45931,2,0,L|161:246,1,45,0|0,0:2|0:2,0:2:0:0:
93,98,46274,1,2,0:2:0:0:
93,98,46446,1,2,0:2:0:0:
196,107,46617,5,2,0:2:0:0:
196,107,46789,1,2,0:2:0:0:
271,49,46960,2,0,P|302:40|356:47,1,67.5,2|0,0:2|0:2,0:2:0:0:
350,49,47303,2,0,L|352:103,1,45,2|0,0:2|0:2,0:2:0:0:
417,181,47646,1,2,0:2:0:0:
331,234,47817,1,2,0:2:0:0:
319,234,47903,1,2,0:2:0:0:
307,234,47989,6,0,L|228:231,1,67.5,6|0,0:2|0:2,0:2:0:0:
224,236,48331,2,0,L|221:289,1,45,0|0,0:2|0:2,0:2:0:0:
111,241,48674,2,0,L|108:196,1,45,0|0,0:2|0:2,0:2:0:0:
11,83,49017,1,2,0:2:0:0:
26,170,49189,1,2,0:2:0:0:
105,63,49360,6,0,P|139:57|180:65,1,67.5,2|0,0:2|0:2,0:2:0:0:
184,70,49703,2,0,P|218:76|259:68,1,67.5,2|0,0:2|0:2,0:2:0:0:
265,67,50046,2,0,L|266:115,1,45,2|0,0:2|0:2,0:2:0:0:
269,198,50389,1,2,0:2:0:0:
361,72,50560,1,2,0:2:0:0:
368,63,50646,1,2,0:2:0:0:
375,54,50731,5,2,3:2:0:0:
255,202,52103,5,8,0:2:0:0:
136,253,52274,1,0,3:2:0:0:
274,275,52446,1,0,3:2:0:0:
154,327,52617,1,0,3:2:0:0:
255,202,52789,1,0,3:2:0:0:
229,338,52960,1,0,3:2:0:0:
346,278,53131,2,0,L|249:275,1,72,8|0,0:2|0:2,0:2:0:0:
218,44,53474,5,4,3:2:0:0:
280,109,53646,1,0,0:2:0:0:
119,133,53817,2,0,L|191:133,1,72,8|0,0:2|0:2,0:2:0:0:
100,223,54160,2,0,L|28:223,1,72,0|0,3:2|0:2,0:2:0:0:
218,44,54503,2,0,P|261:67|277:120,1,72,8|2,0:2|0:2,0:2:0:0:
280,109,54760,1,2,0:2:0:0:
283,134,54846,5,2,0:2:0:0:
321,15,55017,1,0,3:2:0:0:
325,217,55189,1,8,0:2:0:0:
408,101,55360,1,2,0:2:0:0:
421,80,55446,1,2,0:2:0:0:
437,60,55531,1,2,0:2:0:0:
416,183,55703,1,0,3:2:0:0:
421,80,55874,1,8,0:2:0:0:
505,142,56046,1,2,0:2:0:0:
505,142,56131,1,2,0:2:0:0:
505,142,56217,5,2,3:2:0:0:
496,234,56389,1,0,0:2:0:0:
422,80,56560,1,8,0:2:0:0:
416,183,56731,1,0,0:2:0:0:
327,138,56903,2,0,P|293:130|257:133,1,72,0|0,3:2|0:2,0:2:0:0:
116,246,57246,2,0,P|192:250|201:247,1,72,8|2,0:2|0:2,0:2:0:0:
210,243,57503,1,2,0:2:0:0:
232,232,57589,5,2,0:2:0:0:
162,155,57760,1,0,3:2:0:0:
31,259,57931,2,0,P|29:224|48:194,1,72,8|0,0:2|0:2,0:2:0:0:
162,155,58274,1,0,0:2:0:0:
84,109,58446,1,0,3:2:0:0:
247,122,58617,2,0,L|329:117,1,72,8|0,0:2|3:2,3:2:0:0:
438,103,58874,1,0,3:2:0:0:
462,98,58960,6,0,P|476:147|463:184,1,72,4|0,3:2|0:2,0:2:0:0:
330,279,59303,2,0,L|336:199,1,72,8|0,0:2|0:2,0:2:0:0:
162,155,59646,1,8,0:0:0:0:
204,361,59817,1,0,3:0:0:0:
204,361,60160,6,0,L|198:289,1,72,8|0,0:2|0:2,0:2:0:0:
304,147,60503,1,0,3:2:0:0:
177,384,60674,2,0,L|171:312,1,72,8|0,0:2|0:2,0:2:0:0:
155,138,61017,1,8,0:0:0:0:
372,315,61189,1,0,3:0:0:0:
372,315,61531,2,0,L|373:279,1,36,8|0,0:2|0:2,0:2:0:0:
300,120,61703,6,0,P|330:102|366:98,1,72,0|0,3:2|0:2,0:2:0:0:
180,211,62046,2,0,L|175:129,1,72,8|0,0:2|0:2,0:2:0:0:
50,74,62389,1,8,0:0:0:0:
68,277,62560,1,0,3:0:0:0:
68,277,62903,6,0,L|73:195,1,72,8|0,0:2|0:2,0:2:0:0:
76,92,63246,1,0,3:2:0:0:
369,70,63417,1,8,0:0:0:0:
369,70,63760,5,0,3:2:0:0:
337,52,63845,1,8,0:2:0:0:
302,48,63931,1,8,0:2:0:0:
267,58,64017,1,8,0:2:0:0:
235,74,64103,1,8,0:2:0:0:
203,91,64188,1,8,0:2:0:0:
168,95,64274,1,8,0:2:0:0:
133,85,64360,1,8,0:2:0:0:
105,62,64446,6,0,L|100:164,1,72,0|0,3:2|0:2,0:2:0:0:
166,247,64789,1,8,0:2:0:0:
245,191,64960,1,0,3:2:0:0:
245,191,65131,2,0,L|344:188,1,72,0|0,3:2|0:2,0:2:0:0:
409,242,65474,1,8,0:2:0:0:
349,105,65646,1,2,0:2:0:0:
349,105,65731,1,2,0:2:0:0:
349,105,65817,6,0,L|354:16,1,72,2|0,0:2|3:2,0:2:0:0:
456,128,66160,1,8,0:2:0:0:
409,242,66331,1,2,3:2:0:0:
400,265,66417,1,2,0:2:0:0:
392,289,66503,1,2,3:2:0:0:
316,188,66674,1,0,3:2:0:0:
264,307,66846,2,0,L|161:303,1,72,8|0,0:2|0:2,0:2:0:0:
61,175,67189,5,0,3:2:0:0:
61,175,67360,1,0,3:2:0:0:
144,124,67531,2,0,P|157:168|138:223,1,72,8|0,0:2|0:2,0:2:0:0:
81,55,67874,2,0,P|125:35|168:41,1,72,0|0,3:2|0:2,0:2:0:0:
305,108,68217,1,8,0:2:0:0:
353,7,68389,1,2,0:2:0:0:
353,7,68474,1,2,0:2:0:0:
353,7,68560,6,0,L|433:4,1,72,2|0,0:2|3:2,0:2:0:0:
512,139,68903,2,0,L|432:136,1,72,8|0,0:2|0:2,0:2:0:0:
350,279,69246,2,0,P|384:217|381:192,1,72,0|0,0:2|3:2,0:2:0:0:
307,86,69589,1,8,0:2:0:0:
222,207,69760,1,2,0:2:0:0:
222,207,69846,1,2,0:2:0:0:
222,207,69931,6,0,P|181:215|126:199,1,72,6|0,3:2|0:2,0:2:0:0:
307,86,70274,2,0,L|235:87,1,72,8|0,0:2|0:2,0:2:0:0:
411,8,70617,1,8,0:0:0:0:
464,234,70789,1,0,3:2:0:0:
464,234,71131,6,0,L|392:232,1,72,8|0,0:2|0:2,0:2:0:0:
316,101,71474,1,0,3:2:0:0:
468,252,71646,2,0,L|396:250,1,72,8|0,0:2|0:2,0:2:0:0:
277,299,71989,1,8,0:0:0:0:
316,101,72160,1,0,3:0:0:0:
316,101,72503,2,0,L|375:101,1,36,8|0,0:2|0:2,0:2:0:0:
251,159,72674,6,0,P|228:117|231:73,1,72,0|0,3:2|0:2,0:2:0:0:
117,261,73017,2,0,L|120:164,1,72,8|0,0:2|0:2,0:2:0:0:
37,347,73360,1,8,0:0:0:0:
258,360,73531,1,0,3:2:0:0:
258,360,73874,6,0,L|255:263,1,72,8|0,0:2|0:2,0:2:0:0:
125,202,74217,1,0,3:2:0:0:
255,144,74389,1,0,3:2:0:0:
114,116,74560,1,0,3:2:0:0:
210,218,74731,1,0,3:2:0:0:
125,202,74903,1,0,3:2:0:0:
255,144,75074,2,0,P|307:136|372:171,1,108,0|0,3:2|0:2,0:2:0:0:
383,181,75417,5,4,3:2:0:0:
396,200,75760,1,0,0:2:0:0:
404,225,76103,1,0,0:2:0:0:
405,248,76446,1,0,0:2:0:0:
249,275,76789,6,0,L|311:275,1,45,2|0,0:2|0:2,0:2:0:0:
229,192,77131,2,0,L|167:192,1,45,2|0,0:2|0:2,0:2:0:0:
103,243,77474,2,0,P|85:204|84:184,1,45,2|0,0:2|0:2,0:2:0:0:
114,91,77817,6,0,B|45:93|45:93|20:107,2,90,2|0|2,0:2|0:2|0:2,0:2:0:0:
143,92,78846,1,0,0:2:0:0:
329,17,79189,2,0,L|268:15,1,45,2|0,0:0|0:0,0:0:0:0:
299,96,79531,6,0,P|309:130|308:151,1,45,2|0,0:2|0:2,0:2:0:0:
357,254,79874,2,0,P|359:231|367:210,1,45,2|0,0:2|0:2,0:2:0:0:
445,101,80217,2,0,P|442:123|434:144,1,45,2|0,0:2|0:2,0:2:0:0:
357,254,80560,6,0,B|419:253|419:253|463:270,2,90,2|0|0,0:2|0:2|0:2,0:2:0:0:
327,255,81589,1,0,0:2:0:0:
192,161,81931,1,2,0:2:0:0:
141,248,82274,6,0,L|198:244,1,45,2|0,0:2|0:2,0:2:0:0:
166,147,82617,2,0,L|109:143,1,45,2|0,0:2|0:2,0:2:0:0:
211,68,82960,2,0,P|243:97|249:113,1,45,2|0,0:2|0:2,0:2:0:0:
307,168,83303,6,0,B|359:129|359:129|392:127,2,90,2|0|2,0:2|0:2|0:2,0:2:0:0:
285,191,84331,1,0,0:2:0:0:
268,206,84674,1,0,0:2:0:0:
361,299,85017,6,0,L|311:294,1,45,2|0,0:2|0:2,0:2:0:0:
422,240,85360,2,0,L|472:235,1,45,2|0,0:2|0:2,0:2:0:0:
509,327,85703,2,0,L|459:322,1,45,2|0,0:2|0:2,0:2:0:0:
329,379,86046,2,0,L|379:384,1,45,2|0,0:2|0:2,0:2:0:0:
196,268,86389,6,0,L|113:269,1,67.5,6|0,0:2|0:2,0:2:0:0:
120,255,86731,2,0,L|121:205,1,45,2|2,0:2|0:2,0:2:0:0:
23,276,87074,2,0,L|23:320,1,45,2|2,0:2|0:2,0:2:0:0:
62,138,87417,2,0,L|62:93,1,45,2|2,0:2|0:2,0:2:0:0:
145,32,87760,6,0,P|188:32|227:51,1,67.5,2|0,0:2|0:2,0:2:0:0:
216,55,88103,2,0,L|213:99,1,45,2|2,0:2|0:2,0:2:0:0:
313,53,88446,2,0,L|310:9,1,45,2|2,0:2|0:2,0:2:0:0:
402,55,88789,1,2,0:0:0:0:
439,203,88960,1,2,0:0:0:0:
439,203,89046,1,2,0:0:0:0:
439,203,89131,6,0,P|384:203|360:190,1,67.5,0|0,0:2|0:2,0:2:0:0:
358,194,89474,2,0,L|356:242,1,45,2|2,0:2|0:2,0:2:0:0:
287,161,89817,1,2,0:2:0:0:
345,108,89989,1,2,0:2:0:0:
225,211,90160,2,0,L|223:255,1,45,2|2,0:2|0:2,0:2:0:0:
58,185,90503,6,0,P|105:179|117:180,1,45,2|0,0:2|0:2,0:2:0:0:
63,277,90846,2,0,P|16:283|4:282,1,45,2|0,0:2|0:2,0:2:0:0:
147,257,91189,2,0,L|144:313,1,45,2|0,0:2|0:2,0:2:0:0:
186,377,91531,1,2,0:2:0:0:
148,231,91703,1,2,0:2:0:0:
412,196,91874,5,8,0:2:0:0:
371,268,92046,1,8,0:2:0:0:
330,200,92217,1,8,0:2:0:0:
449,267,92389,1,8,0:2:0:0:
367,129,92560,1,8,0:2:0:0:
298,271,92731,1,8,0:2:0:0:
285,130,92903,1,8,0:2:0:0:
371,268,93074,1,8,0:2:0:0:
409,64,93246,5,8,0:2:0:0:
251,203,93417,1,8,0:2:0:0:
325,60,93589,1,8,0:2:0:0:
371,268,93760,1,8,0:2:0:0:
495,66,93931,1,8,0:2:0:0:
298,271,94103,1,8,0:2:0:0:
325,60,94274,1,8,0:2:0:0:
452,267,94446,1,8,0:2:0:0:
196,109,94617,6,0,L|107:106,1,90,0|0,3:2|0:2,3:2:0:0:
250,198,94960,2,0,L|340:195,1,90,8|0,0:2|0:2,0:2:0:0:
471,283,95303,1,8,0:0:0:0:
466,83,95474,1,0,3:0:0:0:
466,83,95817,6,0,L|376:79,1,90,8|0,0:2|0:2,0:2:0:0:
263,182,96160,1,0,3:2:0:0:
483,62,96331,2,0,L|393:58,1,90,8|0,0:2|0:2,0:2:0:0:
280,161,96674,1,8,0:2:0:0:
512,124,96846,1,8,0:2:0:0:
298,142,97017,2,0,L|293:205,1,45,0|0,3:2|3:2,0:2:0:0:
226,24,97189,2,0,L|230:69,1,45,0|0,3:2|3:2,0:2:0:0:
119,122,97360,6,0,P|87:165|79:218,1,107.999996704102,0|0,3:2|0:2,0:2:0:0:
333,283,97703,2,0,P|325:230|293:186,1,107.999996704102,8|0,0:2|0:2,0:2:0:0:
127,295,98046,1,0,0:2:0:0:
266,171,98217,1,0,3:2:0:0:
321,368,98389,6,0,P|376:360|415:314,1,107.999996704102,8|0,0:2|0:2,0:2:0:0:
368,174,98731,1,0,3:2:0:0:
319,257,98903,1,0,0:2:0:0:
452,146,99074,2,0,P|418:98|348:90,1,107.999996704102,8|0,0:2|0:2,0:2:0:0:
208,117,99417,1,0,0:2:0:0:
368,174,99589,1,0,3:2:0:0:
171,247,99760,2,0,L|33:240,1,107.999996704102,8|0,0:2|0:2,0:2:0:0:
213,0,100103,5,2,3:2:0:0:
89,90,100274,1,0,0:2:0:0:
325,103,100446,1,10,0:2:0:0:
213,0,100617,1,0,0:2:0:0:
263,256,100789,1,2,0:2:0:0:
325,103,100960,1,0,3:2:0:0:
110,250,101131,6,0,L|-3:255,1,107.999996704102,8|0,0:2|0:2,0:2:0:0:
238,346,101474,2,0,L|351:351,1,107.999996704102,0|0,3:2|0:2,0:2:0:0:
459,163,101817,2,0,P|389:199|371:241,1,107.999996704102,8|0,0:2|0:2,0:2:0:0:
470,367,102160,2,0,L|464:251,1,107.999996704102,0|0,0:2|3:2,0:2:0:0:
238,346,102503,1,8,0:2:0:0:
311,133,102674,1,0,3:2:0:0:
116,215,102846,6,0,L|-4:212,1,107.999996704102,0|0,3:2|0:2,0:2:0:0:
166,138,103189,2,0,P|205:189|201:248,1,107.999996704102,8|0,0:2|0:2,0:2:0:0:
75,129,103531,1,0,0:2:0:0:
297,238,103703,1,0,3:2:0:0:
157,357,103874,6,0,P|91:338|65:294,1,107.999996704102,8|0,0:2|0:2,0:2:0:0:
206,230,104217,1,0,3:2:0:0:
301,376,104389,1,0,0:2:0:0:
293,155,104560,2,0,L|291:40,1,107.999996704102,8|0,0:2|0:2,0:2:0:0:
206,230,104903,1,0,0:2:0:0:
70,128,105074,1,0,3:2:0:0:
325,243,105246,2,0,P|381:195|386:159,1,107.999996704102,8|0,0:2|0:2,0:2:0:0:
214,346,105589,5,2,3:2:0:0:
92,256,105760,1,0,0:2:0:0:
325,243,105932,1,10,0:2:0:0:
214,346,106103,1,0,0:2:0:0:
264,92,106275,1,2,0:2:0:0:
325,243,106446,1,0,3:2:0:0:
121,109,106617,6,0,L|115:-6,1,107.999996704102,8|0,0:2|0:2,0:2:0:0:
264,92,106960,1,0,3:2:0:0:
165,192,107131,1,0,0:2:0:0:
325,243,107303,2,0,L|449:240,1,107.999996704102,8|0,0:2|0:2,0:2:0:0:
263,123,107646,1,0,3:0:0:0:
325,324,107817,1,0,3:0:0:0:
264,106,107989,1,8,0:2:0:0:
191,336,108160,1,0,3:2:0:0:
74,177,108331,6,0,P|144:170|183:192,1,107.999996704102,0|0,3:2|0:2,0:2:0:0:
426,233,108674,2,0,P|377:253|325:243,1,107.999996704102,8|0,0:2|0:2,0:2:0:0:
160,97,109017,1,0,0:2:0:0:
223,262,109189,1,0,3:2:0:0:
370,146,109360,6,0,L|374:24,1,107.999996704102,8|0,0:2|0:2,0:2:0:0:
160,97,109703,1,0,3:2:0:0:
251,142,109874,1,0,0:2:0:0:
85,37,110046,2,0,P|61:86|81:152,1,107.999996704102,8|0,0:2|0:2,0:2:0:0:
152,184,110389,1,0,0:2:0:0:
165,7,110560,1,0,3:2:0:0:
70,231,110731,2,0,L|77:340,1,107.999996704102,8|0,0:2|0:2,0:2:0:0:
260,384,111074,5,2,3:2:0:0:
382,292,111245,1,0,0:2:0:0:
146,279,111417,1,10,0:2:0:0:
260,384,111588,1,0,0:2:0:0:
208,126,111760,1,2,0:2:0:0:
146,279,111931,1,0,3:2:0:0:
347,140,112102,6,0,L|353:25,1,107.999996704102,8|0,0:2|0:2,0:2:0:0:
139,70,112446,2,0,P|120:128|141:184,1,107.999996704102,0|0,3:2|0:2,0:2:0:0:
240,327,112789,2,0,P|252:275|233:225,1,107.999996704102,8|0,0:2|0:2,0:2:0:0:
132,171,113131,1,0,0:2:0:0:
333,166,113303,1,0,3:2:0:0:
146,279,113474,1,8,0:2:0:0:
234,115,113646,1,0,3:2:0:0:
333,260,113817,6,0,P|394:237|422:172,1,107.999996704102,0|0,3:2|0:2,0:2:0:0:
226,47,114160,2,0,L|241:175,1,107.999996704102,8|0,0:2|0:2,0:2:0:0:
333,166,114503,1,0,0:2:0:0:
137,96,114674,1,0,3:2:0:0:
130,313,114846,6,0,P|196:315|245:276,1,107.999996704102,8|0,0:2|0:2,0:2:0:0:
124,181,115189,2,0,P|71:175|23:199,1,107.999996704102,0|0,3:2|0:2,0:2:0:0:
130,313,115531,1,8,0:2:0:0:
238,154,115703,1,0,0:2:0:0:
264,353,115874,1,0,0:2:0:0:
248,125,116046,1,0,3:2:0:0:
324,239,116217,5,8,0:2:0:0:
124,181,116389,1,0,3:2:0:0:
472,165,116560,1,0,3:2:0:0:
472,165,117074,5,0,3:2:0:0:
478,183,117417,1,0,3:2:0:0:
478,202,117760,1,0,3:2:0:0:
268,266,118103,5,0,3:0:0:0:
225,264,118274,1,0,3:0:0:0:
182,263,118446,1,0,3:0:0:0:
231,175,118617,1,0,3:2:0:0:
207,350,118789,1,0,3:2:0:0:
96,173,118960,5,8,0:2:0:0:
98,141,119045,1,0,3:2:0:0:
101,110,119131,1,0,3:2:0:0:
103,78,119217,1,0,3:2:0:0:
109,46,119303,6,0,L|261:47,1,135,0|0,3:2|0:2,0:2:0:0:
279,52,119646,2,0,P|293:97|282:161,1,90,8|0,0:2|0:2,0:2:0:0:
289,139,119989,1,0,0:2:0:0:
250,216,120161,1,0,3:2:0:0:
390,238,120332,1,10,0:2:0:0:
376,154,120504,1,2,0:2:0:0:
412,378,120675,6,0,L|284:380,1,90,2|0,3:2|0:2,0:2:0:0:
185,301,121018,2,0,L|274:306,1,90,8|2,0:2|0:2,0:2:0:0:
221,384,121360,1,2,0:2:0:0:
231,220,121532,1,2,3:2:0:0:
118,360,121704,2,0,P|94:300|112:251,1,90,10|0,0:2|0:2,0:2:0:0:
249,194,122047,6,0,L|103:194,1,135,0|0,3:2|0:2,0:2:0:0:
84,174,122390,2,0,P|72:128|90:76,1,90,8|0,0:2|0:2,0:2:0:0:
82,87,122732,1,0,0:2:0:0:
144,24,122904,1,0,3:2:0:0:
205,153,123075,1,10,0:2:0:0:
222,67,123247,1,2,0:2:0:0:
369,197,123418,6,0,P|389:149|366:83,1,90,2|0,3:2|0:2,0:2:0:0:
311,66,123761,2,0,L|219:67,1,90,8|2,0:2|0:2,0:2:0:0:
205,153,124104,1,2,0:2:0:0:
384,112,124275,1,2,3:2:0:0:
287,194,124447,1,10,0:2:0:0:
317,48,124618,1,0,3:2:0:0:
198,258,124790,6,0,P|262:283|276:351,1,135,0|0,3:2|0:2,0:2:0:0:
259,367,125132,2,0,L|164:364,1,90,8|0,0:2|0:2,0:2:0:0:
169,364,125475,1,0,0:2:0:0:
132,207,125647,1,0,3:2:0:0:
73,356,125818,1,10,0:2:0:0:
50,261,125990,1,2,0:2:0:0:
257,189,126161,6,0,L|367:202,1,90,2|0,3:2|0:2,0:2:0:0:
276,96,126504,2,0,P|232:95|193:115,1,90,8|2,0:2|0:2,0:2:0:0:
257,189,126847,1,2,0:2:0:0:
364,109,127018,1,2,3:2:0:0:
277,280,127190,2,0,P|232:281|193:260,1,90,10|0,0:2|0:2,0:2:0:0:
34,57,127532,6,0,L|32:198,1,135,0|0,3:2|0:2,0:2:0:0:
31,223,127875,2,0,L|136:224,1,90,8|0,0:2|0:2,0:2:0:0:
120,223,128218,1,0,0:2:0:0:
218,272,128390,1,0,3:2:0:0:
282,93,128561,1,10,0:0:0:0:
207,169,128732,1,2,0:0:0:0:
367,232,128904,6,0,L|484:236,1,90,2|0,3:2|0:2,0:2:0:0:
329,137,129247,2,0,L|212:141,1,90,8|2,0:2|0:2,0:2:0:0:
274,227,129590,1,2,3:2:0:0:
431,155,129761,1,2,3:2:0:0:
322,319,129932,1,10,0:2:0:0:
329,137,130104,1,0,3:2:0:0:
174,235,130275,6,0,P|106:226|71:179,1,90,2|0,3:2|0:2,0:2:0:0:
57,117,130618,1,8,0:2:0:0:
204,146,130790,2,0,P|242:171|264:238,1,90,2|0,0:2|0:2,0:2:0:0:
236,307,131132,1,0,3:2:0:0:
204,146,131304,1,10,0:2:0:0:
174,235,131475,1,0,0:2:0:0:
346,186,131647,5,0,3:2:0:0:
243,70,131818,1,0,0:2:0:0:
261,209,131990,1,10,0:2:0:0:
204,146,132161,1,0,0:2:0:0:
357,101,132332,2,0,P|400:117|432:171,1,90,0|0,0:2|3:2,0:2:0:0:
333,331,132675,1,8,0:2:0:0:
181,235,132847,1,0,0:2:0:0:
181,235,132932,1,0,0:2:0:0:
181,235,133018,6,0,L|60:232,1,90,2|0,3:2|0:2,0:2:0:0:
26,157,133361,1,8,0:2:0:0:
200,56,133531,2,0,L|204:168,1,90,2|0,0:2|0:2,0:2:0:0:
181,235,133874,1,0,3:2:0:0:
41,70,134046,2,0,P|95:100|115:153,1,90,10|0,0:2|0:2,0:2:0:0:
232,158,134390,6,0,P|278:164|333:151,1,90,0|0,3:2|0:2,0:2:0:0:
436,70,134732,2,0,P|391:61|347:68,1,90,10|0,0:2|0:2,0:2:0:0:
232,158,135075,1,0,0:2:0:0:
215,8,135247,1,0,3:2:0:0:
337,187,135418,1,8,0:2:0:0:
145,94,135590,1,0,3:2:0:0:
43,265,135761,6,0,L|169:266,1,90,2|0,3:2|0:2,0:2:0:0:
239,192,136104,1,8,0:2:0:0:
334,327,136275,2,0,L|244:327,1,90,2|0,0:2|0:2,0:2:0:0:
227,213,136618,1,0,3:2:0:0:
154,347,136790,1,10,0:2:0:0:
326,235,136961,1,0,0:2:0:0:
113,95,137132,6,0,P|51:111|26:149,1,90,0|0,3:2|0:2,0:2:0:0:
212,24,137475,2,0,L|203:131,1,90,10|0,0:2|0:2,0:2:0:0:
111,269,137818,2,0,L|103:179,1,90,0|0,0:2|3:2,0:2:0:0:
328,213,138161,1,8,0:2:0:0:
204,218,138332,1,0,3:2:0:0:
445,204,138504,5,0,3:2:0:0:
284,105,139360,5,0,3:2:0:0:
252,93,139531,1,0,3:2:0:0:
218,93,139703,1,0,3:2:0:0:
237,174,139874,5,0,3:2:0:0:
278,24,140046,1,0,3:2:0:0:
137,81,140217,1,0,3:2:0:0:
298,106,140389,1,0,3:2:0:0:
190,12,140560,1,0,3:2:0:0:
328,188,140731,1,0,3:2:0:0:
124,175,140903,5,8,0:2:0:0:
81,188,140988,1,0,3:2:0:0:
52,221,141074,1,0,3:2:0:0:
44,265,141160,1,0,3:2:0:0:
62,307,141246,6,0,L|174:310,1,107.999996704102,4|0,3:2|0:2,0:2:0:0:
328,188,141589,2,0,L|216:191,1,107.999996704102,8|0,0:2|0:2,0:2:0:0:
344,306,141931,1,0,0:2:0:0:
262,88,142103,1,0,3:2:0:0:
418,139,142274,6,0,P|429:199|407:243,1,107.999996704102,8|0,0:2|0:2,0:2:0:0:
220,190,142617,1,0,3:2:0:0:
353,75,142789,1,0,0:2:0:0:
186,29,142960,2,0,P|129:47|83:100,1,107.999996704102,8|0,0:2|0:2,0:2:0:0:
54,226,143303,1,0,0:2:0:0:
87,98,143474,1,0,3:2:0:0:
121,319,143646,2,0,L|236:314,1,107.999996704102,8|0,0:2|0:2,0:2:0:0:
362,236,143989,5,2,3:2:0:0:
244,33,144160,1,0,0:2:0:0:
419,134,144331,1,10,0:2:0:0:
186,134,144503,1,0,0:2:0:0:
362,33,144674,1,2,0:2:0:0:
244,236,144846,1,0,3:2:0:0:
419,134,145017,6,0,P|461:192|459:243,1,107.999996704102,8|0,0:2|0:2,0:2:0:0:
346,332,145360,2,0,L|351:211,1,107.999996704102,0|0,3:2|0:2,0:2:0:0:
239,128,145703,2,0,L|244:236,1,107.999996704102,8|0,0:2|0:2,0:2:0:0:
326,141,146046,1,0,0:2:0:0:
231,26,146217,1,0,3:2:0:0:
247,259,146389,1,8,0:2:0:0:
239,113,146560,1,0,3:2:0:0:
124,255,146731,6,0,P|49:261|-4:239,1,107.999996704102,0|0,3:2|0:2,0:2:0:0:
133,116,147074,2,0,P|185:104|238:112,1,107.999996704102,8|0,0:2|0:2,0:2:0:0:
334,188,147417,1,0,0:2:0:0:
231,26,147589,1,0,3:2:0:0:
247,259,147760,6,0,L|244:371,1,107.999996704102,8|0,0:2|0:2,0:2:0:0:
358,321,148103,1,0,3:2:0:0:
250,234,148274,1,0,0:2:0:0:
435,229,148446,2,0,P|478:178|470:113,1,107.999996704102,8|0,0:2|0:2,0:2:0:0:
320,9,148789,1,0,0:2:0:0:
392,150,148960,1,0,3:2:0:0:
432,35,149131,1,8,0:2:0:0:
287,124,149303,1,0,0:2:0:0:
109,27,149474,5,2,3:2:0:0:
236,247,149645,1,0,0:2:0:0:
46,138,149816,1,10,0:2:0:0:
300,138,149988,1,0,0:2:0:0:
109,247,150159,1,2,0:2:0:0:
236,27,150331,1,0,3:2:0:0:
46,138,150502,6,0,P|30:68|51:22,1,107.999996704102,8|0,0:2|0:2,0:2:0:0:
236,27,150846,2,0,L|230:147,1,107.999996704102,0|0,3:2|0:2,0:2:0:0:
109,305,151189,2,0,P|173:254|243:256,1,107.999996704102,8|0,0:2|0:2,0:2:0:0:
308,245,151531,1,0,3:2:0:0:
262,344,151703,1,0,3:2:0:0:
280,143,151874,1,8,0:2:0:0:
409,292,152046,1,0,3:2:0:0:
133,190,152217,5,0,3:2:0:0:
133,190,152389,1,2,0:2:0:0:
193,51,152560,1,8,0:2:0:0:
193,51,152731,1,2,0:2:0:0:
38,68,152903,1,0,0:2:0:0:
38,68,153074,1,2,3:2:0:0:
208,175,153246,5,8,0:2:0:0:
105,271,153417,1,2,0:2:0:0:
347,180,153589,1,0,3:2:0:0:
208,175,153760,1,2,0:2:0:0:
444,283,153931,1,8,0:2:0:0:
347,180,154102,1,2,0:2:0:0:
336,383,154274,2,0,L|343:265,1,107.999996704102,0|2,0:2|3:2,0:2:0:0:
447,82,154617,2,0,L|453:189,1,107.999996704102,8|2,0:2|0:2,0:2:0:0:
243,302,154960,5,0,3:2:0:0:
243,302,155131,1,2,0:2:0:0:
134,148,155303,1,8,0:2:0:0:
134,148,155474,1,2,0:2:0:0:
325,122,155646,1,0,0:2:0:0:
325,122,155817,1,2,3:2:0:0:
243,21,155989,5,8,0:2:0:0:
120,38,156160,1,2,0:2:0:0:
365,38,156331,1,0,3:2:0:0:
243,21,156502,1,2,0:2:0:0:
487,21,156674,1,8,0:2:0:0:
365,38,156845,1,2,0:2:0:0:
458,165,157017,1,0,0:2:0:0:
487,21,157189,1,2,3:2:0:0:
449,135,157360,1,8,0:2:0:0:
377,56,157531,1,2,3:2:0:0:
254,194,157703,5,0,3:2:0:0:
254,194,157874,1,2,0:2:0:0:
95,120,158046,1,8,0:2:0:0:
95,120,158217,1,2,0:2:0:0:
107,292,158389,1,0,0:2:0:0:
107,292,158560,1,2,3:2:0:0:
248,22,158731,5,8,0:2:0:0:
254,194,158903,1,2,0:2:0:0:
374,15,159074,1,0,3:2:0:0:
254,194,159246,1,2,0:2:0:0:
451,128,159417,1,8,0:2:0:0:
254,194,159589,1,2,0:2:0:0:
374,15,159760,2,0,P|307:8|265:30,1,107.999996704102,0|2,0:2|3:2,0:2:0:0:
197,263,160103,2,0,P|246:282|299:272,1,107.999996704102,8|2,0:2|3:2,0:2:0:0:
201,68,160446,6,0,L|206:185,1,107.999996704102,8|0,0:2|3:2,0:2:0:0:
363,237,160789,1,0,3:2:0:0:
189,54,160960,2,0,L|194:171,1,107.999996704102,8|0,0:2|3:2,0:2:0:0:
351,223,161303,1,0,3:2:0:0:
172,39,161474,2,0,L|177:156,1,107.999996704102,8|0,0:2|3:2,0:2:0:0:
334,208,161817,1,0,3:2:0:0:
153,25,161989,2,0,L|158:142,1,107.999996704102,8|0,0:2|3:2,0:2:0:0:
315,194,162332,1,0,3:2:0:0:
133,9,162503,2,0,L|138:126,1,107.999996704102,8|0,0:2|3:2,0:2:0:0:
314,177,162846,5,8,0:2:0:0:
340,177,162931,1,0,3:2:0:0:
367,178,163017,1,0,3:2:0:0:
394,179,163103,1,0,3:2:0:0:
422,180,163189,6,0,P|422:252|392:283,1,90,0|0,3:2|0:2,0:2:0:0:
213,300,163531,2,0,P|257:271|310:278,1,90,8|0,0:2|0:2,0:2:0:0:
280,364,163874,1,0,0:2:0:0:
322,280,164046,1,0,3:2:0:0:
170,384,164217,2,0,L|39:374,1,90,8|0,0:2|0:2,0:2:0:0:
76,174,164560,6,0,L|70:296,1,90,0|0,3:2|0:2,0:2:0:0:
164,142,164903,2,0,P|130:99|74:85,1,90,10|0,0:2|0:2,0:2:0:0:
76,174,165245,1,2,0:2:0:0:
50,15,165417,1,0,3:2:0:0:
222,68,165589,2,0,P|310:60|341:46,1,90,8|0,0:2|0:2,0:2:0:0:
443,140,165931,6,0,L|433:251,1,90,0|0,3:2|0:2,0:2:0:0:
328,375,166274,2,0,L|319:285,1,90,8|0,0:2|0:2,0:2:0:0:
327,155,166617,1,0,0:2:0:0:
434,229,166789,1,0,3:2:0:0:
279,279,166960,2,0,P|226:276|179:250,1,90,8|0,0:2|0:2,0:2:0:0:
126,74,167303,6,0,P|150:120|150:175,1,90,0|0,3:2|0:2,0:2:0:0:
20,310,167646,2,0,P|49:265|95:237,1,90,8|0,0:2|0:2,0:2:0:0:
193,260,167989,1,2,0:2:0:0:
52,162,168160,1,0,3:2:0:0:
227,87,168331,1,8,0:2:0:0:
33,171,168503,1,0,3:2:0:0:
284,178,168674,6,0,P|354:171|406:188,1,90,0|0,3:2|0:2,0:2:0:0:
457,347,169017,2,0,L|464:258,1,90,8|0,0:2|0:2,0:2:0:0:
450,152,169360,1,0,0:2:0:0:
340,324,169531,1,0,3:2:0:0:
205,254,169703,2,0,P|153:249|98:270,1,90,8|0,0:2|0:2,0:2:0:0:
284,88,170046,6,0,L|283:195,1,90,0|0,3:2|0:2,0:2:0:0:
205,343,170389,2,0,L|204:253,1,90,10|0,0:2|0:2,0:2:0:0:
85,235,170731,1,2,0:2:0:0:
248,170,170903,1,0,3:2:0:0:
93,331,171074,2,0,P|34:321|-1:280,1,90,8|0,0:2|0:2,0:2:0:0:
49,131,171417,6,0,L|162:130,1,90,0|0,3:2|0:2,0:2:0:0:
319,60,171760,2,0,L|206:59,1,90,8|0,0:2|0:2,0:2:0:0:
137,30,172103,1,0,0:2:0:0:
248,170,172274,1,0,3:2:0:0:
395,13,172446,2,0,P|411:59|389:113,1,90,8|0,0:2|0:2,0:2:0:0:
344,266,172789,6,0,P|333:222|349:181,1,90,0|0,3:2|0:2,0:2:0:0:
511,233,173131,2,0,L|411:228,1,90,10|0,0:2|0:2,0:2:0:0:
314,105,173474,1,2,3:2:0:0:
273,295,173646,1,0,3:2:0:0:
400,97,173817,1,8,0:2:0:0:
250,209,173989,1,0,3:2:0:0:
317,17,174160,6,0,P|273:23|239:51,1,90,0|0,3:2|0:2,0:2:0:0:
108,140,174503,2,0,L|197:137,1,90,8|0,0:2|0:2,0:2:0:0:
290,171,174846,1,0,0:2:0:0:
158,236,175017,1,0,3:2:0:0:
153,52,175188,2,0,P|196:40|238:50,1,90,8|0,0:2|0:2,0:2:0:0:
332,247,175531,6,0,P|293:193|291:156,1,90,0|0,3:2|0:2,0:2:0:0:
414,0,175874,2,0,P|402:43|372:75,1,90,10|0,0:2|0:2,0:2:0:0:
290,171,176217,1,2,0:2:0:0:
240,51,176389,1,0,3:2:0:0:
245,242,176560,2,0,P|288:255|332:246,1,90,8|0,0:2|0:2,0:2:0:0:
512,245,176903,6,0,L|392:250,1,90,0|0,3:2|0:2,0:2:0:0:
203,338,177246,2,0,L|323:343,1,90,8|0,0:2|0:2,0:2:0:0:
332,247,177589,1,0,0:2:0:0:
183,338,177760,1,0,3:2:0:0:
257,128,177931,2,0,L|247:231,1,90,8|0,0:2|0:2,0:2:0:0:
56,197,178274,6,0,P|119:218|169:207,1,90,0|0,3:2|0:2,0:2:0:0:
343,109,178617,2,0,P|298:109|257:128,1,90,10|0,0:2|0:2,0:2:0:0:
249,218,178960,1,2,0:2:0:0:
221,38,179131,1,0,3:2:0:0:
408,177,179303,1,8,0:2:0:0:
257,128,179474,1,0,3:2:0:0:
457,102,179646,6,0,P|493:143|492:206,1,90,0|0,3:2|0:2,0:2:0:0:
412,332,179989,2,0,P|422:288|453:257,1,90,8|0,0:2|0:2,0:2:0:0:
506,336,180331,1,0,0:2:0:0:
408,177,180503,1,0,3:2:0:0:
284,308,180674,2,0,L|159:311,1,90,8|0,0:2|0:2,0:2:0:0:
40,151,181017,6,0,P|93:140|160:170,1,90,0|0,3:2|0:2,0:2:0:0:
94,320,181360,2,0,L|86:217,1,90,10|0,0:2|0:2,0:2:0:0:
144,152,181703,1,2,0:2:0:0:
260,201,181874,1,0,3:2:0:0:
88,55,182046,1,8,0:2:0:0:
173,235,182217,1,0,3:2:0:0:
236,42,182389,6,0,L|381:48,2,135,2|2|2,0:0|0:0|0:0,0:0:0:0:
236,42,183931,1,0,0:0:0:0:
229,135,184103,2,0,P|231:195|255:242,1,112.5,2|0,0:0|0:0,0:0:0:0:
273,264,184617,5,0,3:2:0:0:
104,59,184789,1,8,0:2:0:0:
97,48,185131,5,0,3:2:0:0:
256,192,185817,12,0,190789,0:2:0:0:
256,192,196103,5,0,3:2:0:0:
256,192,201589,5,0,3:2:0:0:
442,194,207075,6,0,L|352:195,2,90,4|0|0,0:2|0:2|0:2,0:2:0:0:
487,93,208104,2,0,L|411:93,1,67.5,0|0,0:2|0:2,0:2:0:0:
397,86,208447,6,0,L|335:87,1,56.25,2|0,0:2|0:2,0:2:0:0:
238,162,208790,2,0,L|282:158,1,45,2|0,0:2|0:2,0:2:0:0:
188,86,209132,2,0,P|152:124|148:133,1,45,2|0,0:2|0:2,0:2:0:0:
192,248,209475,2,0,P|174:234|159:217,1,45,2|0,0:2|0:2,0:2:0:0:
145,209,209732,1,0,0:0:0:0:
129,206,209818,6,0,L|136:266,1,45,0|0,0:2|0:2,0:2:0:0:
205,348,210161,1,2,0:2:0:0:
225,357,210846,2,0,L|285:359,1,45,2|0,0:2|0:2,0:2:0:0:
400,330,211190,6,0,P|385:299|366:282,1,45,2|0,0:2|0:2,0:2:0:0:
268,242,211532,2,0,P|282:211|305:192,1,45,2|0,0:2|0:2,0:2:0:0:
425,207,211875,2,0,P|410:177|387:158,1,45,2|0,0:2|0:2,0:2:0:0:
363,19,212218,2,0,P|345:47|337:74,1,45,2|2,0:2|0:2,0:2:0:0:
348,84,212475,1,2,0:0:0:0:
362,102,212561,5,6,0:2:0:0:
357,123,213932,6,0,L|350:222,1,90,2|2,0:2|0:2,0:2:0:0:
75,251,214618,2,0,P|101:244|134:240,1,45,2|0,0:2|0:2,0:2:0:0:
272,292,214961,2,0,P|318:337|356:339,1,90,2|0,0:2|0:2,0:2:0:0:
350,169,215647,2,0,L|349:269,1,90,2|0,0:2|0:2,0:2:0:0:
372,100,216675,6,0,P|341:88|316:91,1,45,2|0,0:2|0:2,0:2:0:0:
213,172,217018,2,0,P|243:160|268:163,1,45,2|0,0:2|0:2,0:2:0:0:
383,191,217361,2,0,P|352:179|327:182,1,45,2|0,0:2|0:2,0:2:0:0:
241,256,217704,2,0,P|271:244|296:247,1,45,2|0,0:2|0:2,0:2:0:0:
145,319,218047,5,6,0:2:0:0:
145,319,219075,2,0,L|147:243,1,58.4999973220826,2|0,0:2|0:2,0:2:0:0:
123,177,219418,1,2,0:2:0:0:
123,177,219590,1,2,0:2:0:0:
46,119,219761,2,0,P|59:78|85:52,1,58.4999973220826,2|0,0:2|0:2,0:2:0:0:
190,107,220104,2,0,P|212:138|199:236,1,116.999994644165,2|0,0:2|0:2,0:2:0:0:
155,309,220618,1,2,0:2:0:0:
271,307,220790,6,0,L|137:309,1,116.999994644165,2|0,0:2|0:2,0:2:0:0:
362,368,221475,2,0,L|497:367,1,116.999994644165,0|2,0:2|0:2,0:2:0:0:
510,289,221990,1,2,0:2:0:0:
370,181,222161,6,0,L|367:251,1,58.4999973220826,2|0,0:2|0:2,0:2:0:0:
457,168,222504,2,0,L|454:100,1,58.4999973220826,2|0,0:2|0:2,0:2:0:0:
378,34,222847,2,0,P|361:77|372:110,1,58.4999973220826,2|0,0:2|0:2,0:2:0:0:
370,181,223190,1,0,0:2:0:0:
239,26,223361,1,2,0:2:0:0:
239,26,223447,1,2,0:2:0:0:
239,26,223532,6,0,B|121:18|121:18|185:60,1,175.499991966248,6|0,0:2|0:2,0:2:0:0:
168,49,224561,2,0,L|164:132,1,58.4999973220826,2|0,0:2|0:2,0:2:0:0:
233,242,224904,2,0,L|231:184,1,58.4999973220826,2|0,0:2|0:2,0:2:0:0:
187,318,225247,2,0,P|236:332|262:328,1,58.4999973220826,2|0,0:2|0:2,0:2:0:0:
370,293,225590,2,0,P|320:278|294:282,1,58.4999973220826,2|0,0:2|0:2,0:2:0:0:
233,242,225932,1,2,0:2:0:0:
435,117,226104,1,0,0:2:0:0:
435,117,226190,1,0,0:2:0:0:
435,117,226275,5,2,3:2:0:0:
335,194,227647,5,0,3:2:0:0:
309,166,227818,1,0,3:2:0:0:
281,150,227990,1,0,3:2:0:0:
193,167,228161,1,0,3:2:0:0:
255,228,228332,1,0,3:2:0:0:
380,120,228504,1,0,3:2:0:0:
192,82,228675,2,0,L|162:81,6,16.8750006437302,0|0|0|0|0|0|0,3:2|0:2|0:2|0:2|0:2|0:2|0:2,0:2:0:0:
219,52,229018,5,0,3:2:0:0:
256,192,229190,12,0,234504,0:2:0:0:
256,192,238275,12,0,239647,0:2:0:0:
256,192,239989,5,0,3:2:0:0:
256,192,240503,12,0,244274,0:2:0:0:
290,89,245475,5,8,0:2:0:0:
263,168,245647,1,8,0:2:0:0:
347,152,245818,1,8,0:2:0:0:
205,109,245990,1,8,0:2:0:0:
319,234,246161,1,8,0:2:0:0:
228,30,246332,1,8,0:2:0:0:
181,191,246504,1,8,0:2:0:0:
290,89,246675,1,8,0:2:0:0:
126,131,246847,5,8,0:2:0:0:
263,168,247018,1,8,0:2:0:0:
144,48,247190,1,8,0:2:0:0:
108,220,247361,1,8,0:2:0:0:
290,89,247532,1,8,0:2:0:0:
126,131,247704,1,8,0:2:0:0:
178,279,247875,1,8,0:2:0:0:
228,30,248047,1,8,0:2:0:0:
302,329,248218,6,0,B|271:336|271:336|222:327,1,67.5000025749208,0|0,3:2|0:2,0:2:0:0:
108,260,248561,2,0,L|188:258,1,67.5000025749208,8|0,0:2|0:2,0:2:0:0:
306,247,248903,1,8,0:0:0:0:
142,172,249074,1,0,3:0:0:0:
142,172,249418,2,0,L|74:170,1,67.5000025749208,8|0,0:2|0:2,0:2:0:0:
9,254,249761,1,0,3:2:0:0:
304,116,249932,5,8,0:2:0:0:
282,217,250104,1,8,0:2:0:0:
386,186,250275,1,8,0:2:0:0:
210,141,250447,1,8,0:2:0:0:
394,96,250618,5,0,3:2:0:0:
410,92,250704,1,0,3:2:0:0:
426,88,250790,1,0,3:2:0:0:
442,84,250875,1,0,3:2:0:0:
283,68,251818,5,2,0:2:0:0:
275,93,252161,1,2,0:2:0:0:
275,120,252504,1,2,0:2:0:0:
286,144,252847,1,2,0:2:0:0:
291,170,253190,1,2,0:2:0:0:
287,196,253532,1,2,0:2:0:0:
280,222,253875,1,2,0:2:0:0:
279,248,254218,1,2,0:2:0:0:
292,271,254561,1,2,0:2:0:0:
314,285,254904,5,0,3:2:0:0:
163,203,255074,5,8,0:0:0:0:
148,172,255159,1,0,3:0:0:0:
144,139,255245,1,0,3:0:0:0:
151,106,255331,1,0,3:0:0:0:
168,78,255416,1,0,3:0:0:0:
194,56,255502,1,0,3:0:0:0:
228,49,255589,6,0,L|285:53,1,33.7500012874604,8|0,0:0|3:0,0:0:0:0:
379,78,255760,1,0,3:0:0:0:
378,111,255846,1,0,3:0:0:0:
365,142,255931,1,0,3:0:0:0:
338,163,256017,1,0,3:0:0:0:
304,166,256103,2,0,L|270:163,1,33.7500012874604,8|0,0:0|0:0,0:0:0:0:
228,49,256274,1,0,3:0:0:0:
439,206,256447,6,0,L|451:328,1,107.999996704102,4|0,3:2|0:2,0:2:0:0:
318,384,256789,2,0,L|328:276,1,107.999996704102,8|0,0:2|0:2,0:2:0:0:
304,166,257132,1,0,0:2:0:0:
427,311,257304,1,0,3:2:0:0:
183,207,257475,6,0,P|152:263|160:310,1,107.999996704102,8|0,0:2|0:2,0:2:0:0:
249,273,257818,1,0,3:2:0:0:
106,117,257990,1,0,0:2:0:0:
319,59,258161,2,0,L|303:173,1,107.999996704102,8|0,0:2|0:2,0:2:0:0:
249,273,258504,1,0,0:2:0:0:
333,178,258675,1,0,3:2:0:0:
106,117,258847,2,0,P|191:114|228:139,1,107.999996704102,8|0,0:2|0:2,0:2:0:0:
203,337,259190,5,2,3:2:0:0:
80,283,259361,1,0,0:2:0:0:
327,283,259532,1,10,0:2:0:0:
203,337,259703,1,0,0:2:0:0:
450,337,259875,1,2,0:2:0:0:
327,283,260046,1,0,3:2:0:0:
436,49,260218,6,0,L|419:178,1,107.999996704102,8|0,0:2|0:2,0:2:0:0:
327,283,260561,2,0,L|312:175,1,107.999996704102,0|0,3:2|0:2,0:2:0:0:
142,88,260904,2,0,P|244:77|284:102,1,107.999996704102,8|0,0:2|0:2,0:2:0:0:
312,176,261246,1,0,0:0:0:0:
328,23,261418,1,0,3:0:0:0:
178,229,261590,1,8,0:2:0:0:
142,88,261761,1,0,3:2:0:0:
273,246,261932,6,0,P|260:175|193:137,1,107.999996704102,0|0,3:2|0:2,0:2:0:0:
71,226,262275,2,0,L|210:230,1,107.999996704102,8|0,0:2|0:2,0:2:0:0:
142,88,262618,1,0,0:2:0:0:
178,229,262790,1,0,3:2:0:0:
381,189,262961,2,0,L|504:189,1,107.999996704102,8|0,0:2|0:2,0:2:0:0:
417,366,263304,6,0,P|358:321|346:261,1,107.999996704102,0|0,3:2|0:2,0:2:0:0:
452,114,263647,2,0,P|427:161|381:188,1,107.999996704102,8|0,0:2|0:2,0:2:0:0:
350,94,263990,1,0,0:2:0:0:
440,277,264161,1,0,3:2:0:0:
280,163,264332,2,0,L|151:166,1,107.999996704102,8|0,0:2|0:2,0:2:0:0:
17,151,264675,5,2,3:2:0:0:
94,48,264847,1,0,0:2:0:0:
94,254,265018,1,10,0:2:0:0:
17,151,265190,1,0,0:2:0:0:
17,357,265361,1,2,0:2:0:0:
94,254,265531,1,0,3:2:0:0:
191,326,265704,6,0,P|256:326|317:269,1,107.999996704102,8|0,0:2|0:2,0:2:0:0:
419,171,266047,2,0,P|354:171|293:228,1,107.999996704102,0|0,3:2|0:2,0:2:0:0:
469,374,266390,2,0,L|467:255,1,107.999996704102,8|0,0:2|0:2,0:2:0:0:
419,171,266732,1,0,0:2:0:0:
310,284,266904,1,0,3:2:0:0:
359,94,267075,1,8,0:2:0:0:
379,353,267247,1,0,3:2:0:0:
191,326,267418,6,0,P|191:247|221:211,1,107.999996704102,0|0,3:2|0:2,0:2:0:0:
294,52,267761,2,0,P|316:100|308:153,1,107.999996704102,8|0,0:2|0:2,0:2:0:0:
271,288,268104,1,0,0:2:0:0:
195,74,268275,1,0,3:2:0:0:
0,261,268447,6,0,L|130:256,1,107.999996704102,8|0,0:2|0:2,0:2:0:0:
262,376,268790,1,0,3:2:0:0:
191,207,268961,1,0,0:2:0:0:
348,319,269132,2,0,P|397:288|409:215,1,107.999996704102,8|0,0:2|0:2,0:2:0:0:
381,115,269475,1,0,0:2:0:0:
274,272,269647,1,0,3:2:0:0:
219,74,269818,1,8,0:2:0:0:
272,298,269990,1,0,3:2:0:0:
296,156,270161,6,0,L|396:154,1,67.5000025749208,0|0,3:2|0:2,0:2:0:0:
222,99,270504,2,0,L|122:97,1,67.5000025749208,0|0,3:2|0:2,0:2:0:0:
58,226,270847,2,0,P|58:172|74:144,1,67.5000025749208,0|0,3:2|0:2,0:2:0:0:
136,96,271190,1,0,0:2:0:0:
160,267,271361,1,0,3:2:0:0:
271,204,271532,5,8,0:2:0:0:
304,206,271617,1,0,3:2:0:0:
338,209,271703,1,0,3:2:0:0:
371,212,271789,1,0,3:2:0:0:
405,214,271874,1,0,3:2:0:0:
439,218,271961,1,0,3:2:0:0:
472,223,272047,6,0,L|469:274,1,33.7500012874604,8|0,0:2|3:2,0:2:0:0:
416,374,272217,1,0,3:0:0:0:
382,377,272303,1,0,3:0:0:0:
350,365,272389,1,0,3:0:0:0:
323,345,272474,1,0,3:0:0:0:
308,314,272560,2,0,L|309:280,1,33.7500012874604,8|0,0:2|3:2,0:2:0:0:
371,212,272731,2,0,L|370:178,1,33.7500012874604,0|0,3:2|3:2,0:2:0:0:
169,160,272903,6,0,L|52:160,1,107.999996704102,0|0,3:2|0:2,0:2:0:0:
225,79,273246,2,0,P|268:133|259:197,1,107.999996704102,8|0,0:2|0:2,0:2:0:0:
224,315,273589,2,0,L|160:316,1,53.9999983520508,0|0,3:2|0:2,0:2:0:0:
222,320,273760,2,0,L|158:321,1,53.9999983520508,0|0,3:2|0:2,0:2:0:0:
370,215,273931,6,0,L|485:215,1,107.999996704102,8|0,0:2|0:2,0:2:0:0:
372,105,274274,1,0,3:2:0:0:
221,321,274446,1,0,0:2:0:0:
124,176,274617,2,0,P|133:108|176:70,1,107.999996704102,8|0,0:2|0:2,0:2:0:0:
264,29,274960,1,0,0:2:0:0:
23,89,275131,1,0,3:2:0:0:
222,152,275303,2,0,L|345:153,1,107.999996704102,8|0,0:2|0:2,0:2:0:0:
414,263,275646,5,2,3:2:0:0:
371,42,275817,1,0,0:2:0:0:
425,300,275989,1,10,0:2:0:0:
360,82,276160,1,0,0:2:0:0:
436,338,276331,1,2,0:2:0:0:
348,122,276503,1,0,3:2:0:0:
254,231,276674,6,0,P|187:234|140:191,1,107.999996704102,8|0,0:2|0:2,0:2:0:0:
37,91,277017,2,0,P|104:88|151:131,1,107.999996704102,0|0,3:2|0:2,0:2:0:0:
87,282,277360,2,0,P|60:216|81:163,1,107.999996704102,8|0,0:2|0:2,0:2:0:0:
224,147,277703,1,0,0:2:0:0:
144,359,277874,1,0,3:2:0:0:
320,149,278046,2,0,L|437:147,1,107.999996704102,8|0,0:2|3:2,0:2:0:0:
351,339,278389,6,0,P|305:271|318:209,1,107.999996704102,0|0,3:2|0:2,0:2:0:0:
508,253,278731,2,0,L|378:258,1,107.999996704102,8|0,0:2|0:2,0:2:0:0:
320,149,279074,2,0,L|327:85,1,53.9999983520508,0|0,3:2|0:2,0:2:0:0:
327,143,279246,2,0,L|332:89,1,53.9999983520508,0|0,3:2|0:2,0:2:0:0:
207,101,279417,6,0,L|78:103,1,107.999996704102,8|0,0:2|0:2,0:2:0:0:
125,289,279760,1,0,3:2:0:0:
223,108,279931,1,0,0:2:0:0:
267,313,280103,2,0,P|338:314|390:271,1,107.999996704102,8|0,0:2|0:2,0:2:0:0:
395,180,280446,1,0,0:2:0:0:
200,204,280617,1,0,3:2:0:0:
326,21,280789,1,8,0:2:0:0:
304,232,280960,1,0,0:2:0:0:
111,72,281131,5,2,3:2:0:0:
158,354,281303,1,0,0:2:0:0:
129,43,281474,1,10,0:2:0:0:
138,325,281646,1,0,0:2:0:0:
153,17,281816,1,2,0:2:0:0:
116,299,281988,1,0,3:2:0:0:
256,156,282160,6,0,P|326:130|396:164,1,107.999996704102,10|0,0:2|0:2,0:2:0:0:
328,330,282503,2,0,L|321:200,1,107.999996704102,0|0,3:2|0:2,0:2:0:0:
262,48,282846,2,0,L|256:155,1,107.999996704102,8|0,0:2|0:2,0:2:0:0:
61,300,283189,1,0,3:2:0:0:
108,97,283360,1,0,3:2:0:0:
167,368,283531,1,8,0:2:0:0:
50,193,283703,1,0,3:2:0:0:
242,117,283874,5,0,3:2:0:0:
242,117,284046,1,2,0:2:0:0:
378,193,284217,1,8,0:2:0:0:
378,193,284389,1,2,0:2:0:0:
244,264,284560,2,0,L|239:331,1,53.9999983520508,0|0,3:2|0:2,0:2:0:0:
249,264,284731,2,0,L|244:331,1,53.9999983520508,0|0,3:2|0:2,0:2:0:0:
478,239,284903,5,8,0:2:0:0:
441,354,285074,1,2,0:2:0:0:
441,123,285246,1,0,3:2:0:0:
478,239,285417,1,2,0:2:0:0:
478,7,285589,1,8,0:2:0:0:
441,123,285760,1,2,0:2:0:0:
346,20,285931,2,0,L|336:141,1,107.999996704102,0|2,0:2|3:2,0:2:0:0:
288,316,286274,2,0,L|279:208,1,107.999996704102,8|2,0:2|0:2,0:2:0:0:
191,31,286617,5,0,3:2:0:0:
191,31,286789,1,2,0:2:0:0:
190,189,286960,1,8,0:2:0:0:
190,189,287132,1,2,0:2:0:0:
333,110,287303,2,0,L|403:108,1,53.9999983520508,0|0,3:2|0:2,0:2:0:0:
338,115,287474,2,0,L|408:113,1,53.9999983520508,2|0,3:2|0:2,0:2:0:0:
191,294,287646,5,8,0:2:0:0:
85,222,287817,1,2,0:2:0:0:
296,222,287989,1,0,3:2:0:0:
191,294,288160,1,2,0:2:0:0:
402,294,288331,1,8,0:2:0:0:
296,222,288502,1,2,0:2:0:0:
496,218,288674,1,0,0:2:0:0:
317,229,288846,1,2,3:2:0:0:
472,232,289017,1,8,0:2:0:0:
395,274,289189,1,2,3:2:0:0:
170,163,289360,5,0,3:2:0:0:
170,163,289531,1,2,0:2:0:0:
349,95,289703,1,8,0:2:0:0:
349,95,289874,1,2,0:2:0:0:
317,287,290046,2,0,L|313:354,1,53.9999983520508,0|0,3:2|0:2,0:2:0:0:
322,291,290217,2,0,L|318:358,1,53.9999983520508,2|0,3:2|0:2,0:2:0:0:
210,85,290389,5,8,0:2:0:0:
81,154,290560,1,2,0:2:0:0:
338,154,290731,1,0,3:2:0:0:
210,85,290902,1,2,0:2:0:0:
460,80,291074,1,8,0:2:0:0:
338,154,291246,1,2,0:2:0:0:
493,244,291417,2,0,P|466:301|411:331,1,107.999996704102,0|2,0:2|3:2,0:2:0:0:
374,73,291760,2,0,P|414:106|431:167,1,107.999996704102,8|2,2:2|2:2,2:2:0:0:
254,238,292103,6,0,L|235:127,1,107.999996704102,8|0,0:2|3:2,0:2:0:0:
342,0,292446,1,0,3:2:0:0:
235,262,292617,2,0,L|216:151,1,107.999996704102,8|0,0:2|3:2,0:2:0:0:
323,23,292960,1,0,3:2:0:0:
219,286,293131,2,0,L|200:175,1,107.999996704102,8|0,0:2|3:2,0:2:0:0:
307,47,293474,1,0,3:2:0:0:
203,309,293646,2,0,L|184:198,1,107.999996704102,8|0,0:2|3:2,0:2:0:0:
291,70,293989,1,0,3:2:0:0:
188,334,294160,2,0,L|169:223,1,107.999996704102,8|0,0:2|3:2,0:2:0:0:
276,95,294503,5,8,0:2:0:0:
309,76,294589,1,0,3:2:0:0:
346,70,294674,1,0,3:2:0:0:
383,73,294760,1,0,3:2:0:0:
413,82,294846,6,0,P|455:135|451:183,1,90,0|0,3:2|0:2,0:2:0:0:
346,303,295188,2,0,P|357:260|389:229,1,90,8|0,0:2|0:2,0:2:0:0:
443,309,295531,1,0,0:2:0:0:
369,153,295703,1,0,3:2:0:0:
247,275,295874,2,0,L|127:267,1,90,8|0,0:2|0:2,0:2:0:0:
159,88,296217,6,0,P|186:155|173:196,1,90,0|0,3:2|0:2,0:2:0:0:
0,214,296560,2,0,L|120:206,1,90,10|0,0:2|0:2,0:2:0:0:
157,269,296903,1,2,0:2:0:0:
60,120,297074,1,0,3:2:0:0:
273,167,297246,2,0,L|159:170,1,90,8|0,0:2|0:2,0:2:0:0:
329,84,297589,6,0,P|367:131|366:196,1,90,0|0,3:2|0:2,0:2:0:0:
325,342,297931,2,0,L|328:229,1,90,8|0,0:2|0:2,0:2:0:0:
372,158,298274,1,0,0:2:0:0:
414,287,298446,1,0,3:2:0:0:
228,248,298617,2,0,P|156:246|104:266,1,90,8|0,0:2|0:2,0:2:0:0:
17,384,298960,6,0,L|27:288,1,90,0|0,3:2|0:2,0:2:0:0:
52,101,299303,2,0,L|61:190,1,90,10|0,0:2|0:2,0:2:0:0:
139,250,299646,1,2,0:2:0:0:
52,101,299817,1,0,3:2:0:0:
260,176,299989,1,8,0:2:0:0:
128,280,300160,1,0,3:2:0:0:
284,284,300331,6,0,L|409:285,1,90,0|0,3:2|0:2,0:2:0:0:
512,192,300674,2,0,L|387:193,1,90,8|0,0:2|0:2,0:2:0:0:
367,105,301017,1,0,0:2:0:0:
467,287,301189,1,0,3:2:0:0:
256,190,301360,2,0,P|195:188|137:221,1,90,8|0,0:2|0:2,0:2:0:0:
227,363,301703,6,0,L|218:250,1,90,0|0,3:2|0:2,0:2:0:0:
99,141,302046,2,0,P|77:207|99:258,1,90,10|0,0:2|0:2,0:2:0:0:
135,293,302388,1,2,0:2:0:0:
174,104,302560,1,0,3:2:0:0:
336,217,302731,2,0,L|425:220,1,90,8|0,0:2|0:2,0:2:0:0:
313,71,303074,6,0,P|271:129|281:172,1,90,0|0,3:2|0:2,0:2:0:0:
377,289,303417,2,0,P|369:246|336:217,1,90,8|0,0:2|0:2,0:2:0:0:
271,143,303760,1,0,0:2:0:0:
422,141,303931,1,0,3:2:0:0:
290,289,304103,2,0,L|195:296,1,90,8|0,0:0|0:0,0:0:0:0:
58,344,304446,6,0,P|98:363|142:359,1,90,0|0,3:2|0:2,0:2:0:0:
116,176,304789,2,0,L|116:292,1,90,10|0,0:2|0:2,0:2:0:0:
22,225,305131,1,2,3:2:0:0:
227,193,305303,1,0,3:2:0:0:
97,68,305474,1,8,0:2:0:0:
116,176,305646,1,0,3:2:0:0:
262,111,305817,6,0,L|386:117,1,90,0|0,3:2|0:2,0:2:0:0:
507,191,306160,2,0,L|383:197,1,90,8|0,0:2|0:2,0:2:0:0:
381,32,306503,1,0,0:2:0:0:
327,204,306674,1,0,3:2:0:0:
176,88,306846,2,0,P|206:40|247:26,1,90,8|0,0:2|0:2,0:2:0:0:
210,194,307189,6,0,L|202:316,1,90,0|0,3:2|0:2,0:2:0:0:
112,380,307531,2,0,L|106:290,1,90,10|0,0:2|0:2,0:2:0:0:
103,190,307874,1,2,0:2:0:0:
205,315,308046,1,0,3:2:0:0:
30,249,308217,2,0,P|6:201|16:147,1,90,8|0,0:2|0:2,0:2:0:0:
232,107,308560,6,0,L|110:107,1,90,0|0,3:2|0:2,0:2:0:0:
273,23,308903,2,0,P|314:60|321:119,1,90,8|0,0:2|0:2,0:2:0:0:
304,176,309246,1,0,0:2:0:0:
188,19,309417,1,0,3:2:0:0:
410,109,309589,2,0,L|518:106,1,90,8|0,0:2|0:2,0:2:0:0:
423,282,309931,6,0,P|402:236|407:167,1,90,0|0,3:2|0:2,0:2:0:0:
491,358,310274,2,0,P|451:379|407:383,1,90,10|0,2:2|2:2,2:2:0:0:
316,369,310617,1,2,0:2:0:0:
423,282,310789,1,0,3:2:0:0:
247,183,310960,1,8,0:2:0:0:
320,269,311131,1,0,3:2:0:0:
139,175,311303,6,0,P|71:177|26:211,1,90,0|0,3:2|0:2,0:2:0:0:
99,357,311646,2,0,L|106:262,1,90,8|0,0:2|0:2,0:2:0:0:
52,186,311989,1,0,0:2:0:0:
195,297,312160,1,0,3:2:0:0:
269,139,312331,2,0,L|377:142,1,90,8|0,0:2|0:2,0:2:0:0:
233,50,312674,6,0,P|186:79|169:149,1,90,0|0,3:2|0:2,0:2:0:0:
195,297,313017,2,0,L|192:191,1,90,10|0,0:2|0:2,0:2:0:0:
269,139,313360,1,2,0:2:0:0:
192,207,313531,1,0,3:2:0:0:
247,49,313703,1,8,0:2:0:0:
100,178,313874,1,0,3:2:0:0:
269,139,314046,6,0,L|342:135,1,67.5000025749208,0|0,3:2|0:2,0:2:0:0:
415,103,314389,1,0,0:2:0:0:
415,103,314561,1,0,0:2:0:0:
409,191,314732,2,0,L|477:195,1,67.5000025749208,0|0,3:2|0:2,0:2:0:0:
485,46,315074,1,0,0:2:0:0:
485,46,315246,1,0,0:2:0:0:
299,32,315417,5,8,0:2:0:0:
265,32,315502,1,0,3:2:0:0:
231,32,315588,1,0,3:2:0:0:
197,32,315674,1,0,3:2:0:0:
163,33,315760,1,0,3:0:0:0:
129,35,315846,1,0,3:0:0:0:
95,36,315931,2,0,L|96:76,1,33.7500012874604,8|0,0:2|3:2,0:2:0:0:
180,143,316103,5,0,3:2:0:0:
191,174,316188,1,0,3:2:0:0:
192,208,316274,1,0,3:2:0:0:
182,240,316360,1,0,3:2:0:0:
164,268,316445,1,8,0:2:0:0:
102,200,316617,1,0,3:2:0:0:
314,169,316789,5,2,3:2:0:0:
310,255,316960,1,2,0:2:0:0:
330,82,317131,2,0,P|387:117|402:163,1,90,10|0,0:2|0:2,0:2:0:0:
396,231,317474,1,0,0:2:0:0:
314,169,317646,1,2,3:2:0:0:
306,344,317817,1,8,0:2:0:0:
310,255,317989,1,2,0:2:0:0:
187,338,318160,6,0,L|83:343,1,90,2|2,3:2|0:2,0:2:0:0:
21,232,318503,1,8,0:2:0:0:
154,163,318674,2,0,P|145:223|105:255,1,90,2|0,0:2|0:2,0:2:0:0:
82,96,319017,1,0,3:2:0:0:
21,232,319189,1,10,0:2:0:0:
154,163,319360,1,2,0:2:0:0:
23,20,319531,5,2,3:2:0:0:
178,67,319703,1,2,0:2:0:0:
82,96,319874,1,10,0:2:0:0:
252,124,320046,2,0,L|357:114,1,90,2|0,0:2|0:2,0:2:0:0:
409,58,320389,1,2,3:2:0:0:
368,234,320560,1,8,0:2:0:0:
427,150,320731,1,2,0:2:0:0:
414,318,320903,6,0,P|354:330|309:309,1,90,2|2,3:2|0:2,0:2:0:0:
368,234,321246,1,8,0:2:0:0:
210,248,321417,2,0,L|108:248,1,90,2|0,0:2|0:2,0:2:0:0:
77,165,321760,1,2,3:2:0:0:
154,336,321931,1,8,0:2:0:0:
6,266,322103,1,2,3:2:0:0:
210,248,322274,5,2,3:2:0:0:
151,359,322446,1,2,0:2:0:0:
265,344,322617,1,10,0:2:0:0:
195,224,322789,2,0,P|178:169|190:123,1,90,2|0,0:2|0:2,0:2:0:0:
260,50,323131,1,2,3:2:0:0:
279,173,323303,1,8,0:2:0:0:
254,14,323474,1,2,0:2:0:0:
371,116,323646,6,0,P|429:123|474:112,1,90,2|2,3:2|0:2,0:2:0:0:
498,32,323989,1,8,0:2:0:0:
504,196,324160,2,0,L|507:299,1,90,2|0,0:2|0:2,0:2:0:0:
435,353,324503,1,0,3:2:0:0:
372,221,324674,1,8,0:2:0:0:
367,317,324846,1,2,0:2:0:0:
506,285,325017,5,2,3:2:0:0:
346,325,325189,1,2,0:2:0:0:
464,192,325360,1,10,0:2:0:0:
321,335,325531,2,0,L|209:333,1,90,2|0,0:2|0:2,0:2:0:0:
147,125,325874,2,0,P|177:157|186:201,1,90,2|8,3:2|0:2,0:2:0:0:
93,315,326217,1,2,0:2:0:0:
0,198,326389,6,0,L|112:201,1,90,2|2,3:2|0:2,0:2:0:0:
147,125,326731,1,8,0:2:0:0:
252,264,326903,2,0,P|215:288|171:290,1,90,2|0,0:2|0:2,0:2:0:0:
186,201,327246,1,2,3:2:0:0:
281,356,327417,1,8,0:2:0:0:
265,163,327589,1,2,3:2:0:0:
89,200,327760,5,2,3:2:0:0:
123,50,327931,1,2,0:2:0:0:
91,175,328103,1,10,0:2:0:0:
228,88,328274,2,0,P|303:81|343:108,1,90,2|0,0:2|0:2,0:2:0:0:
265,263,328617,2,0,L|268:173,1,90,2|8,3:2|0:2,0:2:0:0:
314,85,328960,1,2,0:2:0:0:
458,237,329131,6,0,P|410:247|352:234,1,90,2|2,3:2|0:0,0:0:0:0:
268,173,329474,1,8,0:2:0:0:
226,351,329646,2,0,L|316:349,1,90,2|0,0:2|0:2,0:2:0:0:
354,233,329989,1,0,3:2:0:0:
148,257,330160,1,8,0:2:0:0:
242,169,330331,1,2,0:2:0:0:
150,47,330503,5,2,3:2:0:0:
227,163,330674,1,2,0:2:0:0:
51,48,330846,1,10,0:2:0:0:
228,85,331017,2,0,L|335:88,1,90,2|0,0:2|0:2,0:2:0:0:
421,52,331360,1,2,3:2:0:0:
399,185,331531,1,8,0:2:0:0:
433,27,331703,1,2,0:2:0:0:
501,165,331874,6,0,P|495:231|458:264,1,90,2|2,3:2|0:2,0:2:0:0:
416,321,332217,1,8,0:2:0:0:
309,183,332389,2,0,L|416:185,1,90,2|0,0:0|0:0,0:0:0:0:
501,165,332731,1,2,3:2:0:0:
330,265,332903,1,8,0:2:0:0:
359,97,333074,1,2,3:2:0:0:
328,289,333246,6,0,L|320:398,1,90,2|2,3:2|0:2,0:2:0:0:
153,273,333589,2,0,P|238:275|264:292,1,90,10|0,0:2|0:2,0:2:0:0:
195,360,333931,1,2,0:2:0:0:
213,158,334103,1,2,3:2:0:0:
59,313,334274,2,0,L|64:223,1,90,10|0,0:2|0:2,0:2:0:0:
214,136,334617,6,0,P|273:127|312:87,1,90,2|0,3:2|0:2,0:2:0:0:
139,75,334960,2,0,P|117:130|132:184,1,90,10|0,0:2|0:2,0:2:0:0:
243,225,335303,1,2,0:2:0:0:
232,47,335474,1,2,3:2:0:0:
128,184,335646,1,10,0:2:0:0:
242,28,335817,1,0,3:2:0:0:
170,257,335989,6,0,L|169:329,1,67.5000025749208,0|0,3:2|0:2,0:2:0:0:
274,384,336331,2,0,L|273:316,1,67.5000025749208,0|0,3:2|0:2,0:2:0:0:
376,218,336674,2,0,P|336:243|310:244,1,67.5000025749208,0|0,3:2|0:2,0:2:0:0:
203,215,337017,1,0,3:2:0:0:
282,133,337189,1,0,3:2:0:0:
140,41,337360,5,8,0:2:0:0:
127,52,337445,1,0,3:2:0:0:
117,66,337531,1,0,3:2:0:0:
110,81,337617,1,0,3:2:0:0:
106,97,337702,1,0,3:2:0:0:
105,114,337788,1,0,3:2:0:0:
107,131,337874,2,0,L|125:175,1,33.7500012874604,8|0,0:2|3:2,0:2:0:0:
217,135,338046,5,0,3:2:0:0:
217,135,338131,1,0,3:2:0:0:
217,135,338217,1,0,3:2:0:0:
217,135,338303,1,0,3:2:0:0:
217,135,338389,2,0,L|326:136,1,101.250003862381,0|0,3:2|0:2,0:2:0:0:
331,137,338731,6,0,L|331:168,1,26.9999991760254,0|0,3:0|3:0,0:0:0:0:
256,192,339417,12,0,344217,0:2:0:0:
