osu file format v14

[General]
AudioFilename: ilu muzzy.mp3
AudioLeadIn: 1000
PreviewTime: 87853
Countdown: 1
SampleSet: Soft
StackLeniency: 0.7
Mode: 0
LetterboxInBreaks: 1
WidescreenStoryboard: 0

[Editor]
Bookmarks: 22024,43967,65910,76882,131739,153682,186596,197567,241453,263396
DistanceSpacing: 0.9
BeatDivisor: 4
GridSize: 4
TimelineZoom: 2.899999

[Metadata]
Title:Junction Seven
TitleUnicode:Junction Seven
Artist:Muzzy
ArtistUnicode:Muzzy
Creator:Secretpipe
Version:Transcendence
Source:
Tags:dnb drum and bass
BeatmapID:1019897
BeatmapSetID:477415

[Difficulty]
HPDrainRate:7
CircleSize:4
OverallDifficulty:7
ApproachRate:9
SliderMultiplier:1.6
SliderTickRate:1

[Events]
//Background and Video events
0,0,"army_of_me_by_nanomortis-da4z1sw.jpg",0,0
//Break Periods
//Storyboard Layer 0 (Background)
//Storyboard Layer 1 (Fail)
//Storyboard Layer 2 (Pass)
//Storyboard Layer 3 (Foreground)
//Storyboard Sound Samples

[TimingPoints]
82,342.857142857143,4,2,0,30,1,0
82,-125,4,2,0,30,0,0
22024,-100,4,2,0,30,0,1
22110,-100,4,2,0,30,0,0
22710,-200,4,2,0,30,0,0
23396,-100,4,2,0,30,0,0
24082,-200,4,2,0,30,0,0
24767,-100,4,2,0,30,0,0

[HitObjects]
301,280,82,6,0,L|371:287,1,64
438,241,424,2,0,P|442:212|434:171,1,64
242,128,767,2,0,P|310:146|382:124,1,128
301,46,1282,1,0,0:0:0:0:
174,83,1453,6,0,P|160:119|161:147,1,64
219,293,1796,2,0,P|225:264|204:212,1,64
13,269,2139,2,0,L|141:259,1,128
219,293,2653,1,0,0:0:0:0:
287,181,2824,6,0,L|293:107,1,64
347,254,3167,2,0,L|353:328,1,64
502,143,3510,2,0,P|435:138|361:180,1,128
452,234,4024,1,0,0:0:0:0:
410,44,4196,5,0,0:0:0:0:
269,143,4367,1,0,0:0:0:0:
380,162,4539,1,0,0:0:0:0:
298,32,4710,1,0,0:0:0:0:
199,225,4882,2,0,P|258:254|328:236,1,128
269,143,5396,1,0,0:0:0:0:
117,194,5567,6,0,P|110:227|123:274,1,64
183,129,5910,2,0,P|190:96|177:49,1,64
289,239,6253,2,0,L|418:232,1,128
487,161,6767,1,0,0:0:0:0:
404,83,6939,6,0,L|341:77,1,64
246,164,7282,2,0,L|309:157,1,64
157,79,7624,2,0,B|179:148|134:130|168:216,1,128
192,304,8139,1,0,0:0:0:0:
320,170,8310,6,0,L|309:247,1,64
394,350,8653,2,0,L|384:286,1,64
379,93,8996,2,0,P|317:80|243:121,1,128
152,183,9510,1,0,0:0:0:0:
149,93,9682,5,0,0:0:0:0:
273,209,9853,1,0,0:0:0:0:
208,354,10024,1,0,0:0:0:0:
173,273,10196,1,0,0:0:0:0:
332,334,10367,2,0,P|387:348|461:324,1,128
382,188,10882,1,0,0:0:0:0:
382,188,11053,6,0,L|395:276,1,64
473,124,11396,2,0,L|460:212,1,64
263,79,11739,2,0,P|316:41|403:50,1,128
348,140,12253,1,0,0:0:0:0:
215,218,12424,6,0,L|143:208,1,64
292,272,12767,2,0,L|355:263,1,64
197,341,13110,2,0,P|131:354|59:324,1,128
8,263,13624,1,0,0:0:0:0:
114,139,13796,6,0,L|107:217,1,64
29,40,14139,2,0,L|36:118,1,64
228,37,14482,2,0,P|175:26|109:57,1,128
51,193,14996,1,0,0:0:0:0:
181,253,15167,6,0,P|191:220|186:179,2,64
121,140,15682,1,0,0:0:0:0:
276,73,15853,2,0,B|318:52|318:52|365:72|417:58,1,128
492,43,16367,1,0,0:0:0:0:
422,193,16539,6,0,P|414:232|419:268,2,64
488,303,17053,1,0,0:0:0:0:
312,358,17224,2,0,P|244:366|182:343,1,128
108,262,17739,1,0,0:0:0:0:
268,206,17910,6,0,L|260:278,1,64
185,166,18253,2,0,L|177:94,1,64
396,106,18596,2,0,P|338:131|271:112,1,128
329,34,19110,1,0,0:0:0:0:
476,74,19282,6,0,P|478:115|465:157,1,64
414,257,19624,2,0,P|408:225|411:193,1,64
474,340,19967,2,0,P|414:359|343:332,1,128
261,291,20482,1,0,0:0:0:0:
342,169,20653,6,0,L|332:94,2,64
416,61,21167,1,0,0:0:0:0:
240,70,21339,1,0,0:0:0:0:
363,268,21510,1,0,0:0:0:0:
373,294,21596,1,0,0:0:0:0:
382,321,21682,1,0,0:0:0:0:
483,180,21853,1,0,0:0:0:0:
230,150,22024,6,0,P|180:145|131:164,1,80
309,100,22367,2,0,P|359:95|408:114,1,80
298,225,22710,6,0,L|287:360,1,120
217,231,23396,2,0,L|204:107,1,120
239,42,23739,2,0,P|273:30|333:39,1,80
136,168,24082,6,0,P|83:175|14:150,1,120
97,13,24767,6,0,L|92:103,1,80
136,168,25110,2,0,L|131:258,1,80
293,117,25453,2,0,P|219:124|262:189,1,160
336,248,25967,1,0,0:0:0:0:
388,148,26139,6,0,L|373:61,1,80
451,237,26482,2,0,L|433:330,1,80
186,263,26824,2,0,P|276:231|364:268,1,160
270,346,27339,1,0,0:0:0:0:
73,299,27510,6,0,L|61:208,1,80
151,117,27853,2,0,L|140:211,1,80
59,20,28196,1,0,0:0:0:0:
230,81,28367,2,0,P|266:71|324:81,2,80
254,227,28882,6,0,P|274:193|274:146,1,80
169,291,29224,1,0,0:0:0:0:
274,328,29396,1,0,0:0:0:0:
181,171,29567,2,0,P|98:184|51:252,1,160
169,291,30082,1,0,0:0:0:0:
294,160,30253,6,0,P|305:125|296:70,1,80
