osu file format v14

[General]
AudioFilename: audio.mp3
AudioLeadIn: 0
PreviewTime: 65642
Countdown: 1
SampleSet: Normal
StackLeniency: 0.3
Mode: 0
LetterboxInBreaks: 0
WidescreenStoryboard: 0

[Editor]
Bookmarks: 22099,36157,38557,38899,41299,44042,55014,57757,58442,59128,59814,60499,63928,64614,65128,65642,65985,74214,76957,85185,87928,96157,98899,104385,108499,109014,109528,109871,111585,111757,111928,112099,112614,114671,118099,120842,129071,131814,140042,142785,148271,153757,175699,186671,192157,197642,205871,208614,216842,219585,227814,230557,236042,241528,244271,249757,252499,260728,263471,271699,274442,279928,285414
DistanceSpacing: 1
BeatDivisor: 4
GridSize: 4
TimelineZoom: 1.9

[Metadata]
Title:Horsepower
TitleUnicode:Horsepower
Artist:Muzzy
ArtistUnicode:Muzzy
Creator:mocha_bean
Version:wubwub
Source:Rocket League
Tags:
BeatmapID:1787174
BeatmapSetID:855286

[Difficulty]
HPDrainRate:8
CircleSize:4.2
OverallDifficulty:9
ApproachRate:9.4
SliderMultiplier:1
SliderTickRate:1

[Events]
//Background and Video events
0,0,"bg.jpg",0,0
//Break Periods
2,1042,5102
2,6528,10588
//Storyboard Layer 0 (Background)
//Storyboard Layer 1 (Fail)
//Storyboard Layer 2 (Pass)
//Storyboard Layer 3 (Foreground)
//Storyboard Sound Samples

[TimingPoints]
157,342.857142857143,4,1,0,70,1,0
157,-66.6666666666667,4,1,0,70,0,0
5642,-66.6666666666667,4,1,0,70,0,0
11128,-57.1428571428571,4,1,0,70,0,0
11985,-100,4,1,0,70,0,0
13871,-200,4,1,0,70,0,0
16614,-57.1428571428571,4,1,0,70,0,0
17471,-83.3333333333333,4,1,0,70,0,0
19957,-55.5555555555556,4,1,0,70,0,0
20471,-47.6190476190476,4,1,0,70,0,0
20985,-41.6666666666667,4,1,0,70,0,0
21499,-37.037037037037,4,1,0,70,0,0
22099,-45.4545454545455,4,1,0,70,0,0
22957,-57.1428571428571,4,1,0,70,0,0
23299,-45.4545454545455,4,1,0,70,0,0
24757,-55.5555555555556,4,1,0,70,0,0
25185,-45.4545454545455,4,1,0,70,0,0
27242,-71.4285714285714,4,1,0,70,0,0
27585,-45.4545454545455,4,1,0,70,0,0
28614,-55.5555555555556,4,1,0,70,0,0
31185,-43.4782608695652,4,1,0,70,0,0
31699,-33.3333333333333,4,1,0,70,0,0
32214,-25.6410256410256,4,1,0,70,0,0
33071,-33.3333333333333,4,1,0,70,0,0
33928,-47.6190476190476,4,1,0,70,0,0
35728,-55.5555555555556,4,1,0,70,0,0
36157,-133.333333333333,4,1,0,70,0,0
44042,-100,4,1,0,70,0,0
46785,-66.6666666666667,4,1,0,70,0,0
49528,-50,4,1,0,70,0,0
52271,-40,4,1,0,70,0,0
55014,-100,4,1,0,70,0,0
57757,-52.6315789473684,4,1,0,70,0,0
60499,-50,4,1,0,70,0,0
63242,-133.333333333333,4,1,0,70,0,0
63585,-66.6666666666667,4,1,0,70,0,0
64614,-52.6315789473684,4,1,0,70,0,0
65642,-41.6666666666667,4,1,0,70,0,0
65985,-41.6666666666667,4,1,0,70,0,1
74128,-55.5555555555556,4,1,0,70,0,1
74557,-125,4,1,0,70,0,1
76957,-41.6666666666667,4,1,0,70,0,1
85185,-50,4,1,0,70,0,1
87928,-35.7142857142857,4,1,0,70,0,1
96071,-55.5555555555556,4,1,0,70,0,1
96499,-55.5555555555556,4,1,0,70,0,1
98899,-35.7142857142857,4,1,0,70,0,1
107042,-55.5555555555556,4,1,0,70,0,1
107214,-66.6666666666667,4,1,0,70,0,1
108499,-52.6315789473684,4,1,0,70,0,1
109528,-41.6666666666667,4,1,0,70,0,1
109871,-41.6666666666667,4,1,0,70,0,0
111242,-83.3333333333333,4,1,0,70,0,0
112614,-41.6666666666667,4,1,0,70,0,1
153757,-66.6666666666667,4,1,0,70,0,0
197642,-66.6666666666667,4,1,0,70,0,1
241528,-66.6666666666667,4,1,0,70,0,0
244271,-66.6666666666667,4,1,0,70,0,1

[HitObjects]
224,168,157,6,0,B|270:163|270:163|318:140,1,75.0000028610231
136,288,499,1,0,0:0:0:0:
279,275,671,2,0,B|325:270|325:270|373:247,1,75.0000028610231
286,173,5642,6,0,B|282:129|282:129|268:94,1,75.0000028610231
224,368,5985,1,0,0:0:0:0:
211,225,6157,2,0,B|207:181|207:181|193:146,1,75.0000028610231
366,256,11128,6,0,B|309:250|309:250|254:262,1,87.500000834465
512,365,11471,1,0,0:0:0:0:
314,353,11642,2,0,B|257:347|257:347|202:359,1,87.500000834465
114,379,11985,5,0,0:0:0:0:
46,321,12157,2,0,P|23:297|18:266,1,50
176,270,12499,2,0,P|199:246|204:215,1,50
83,239,12842,2,0,P|60:215|55:184,1,50
146,188,13185,2,0,P|169:164|174:133,1,50
98,131,13528,2,0,P|75:107|70:76,1,50
146,73,13871,6,0,B|242:89|342:42|342:42|282:123|313:225,1,387.5
309,289,16614,6,0,B|252:283|252:283|197:295,1,87.500000834465
480,376,16957,1,0,0:0:0:0:
344,364,17128,2,0,B|287:358|287:358|232:370,1,87.500000834465
171,377,17471,5,0,0:0:0:0:
228,282,17642,2,0,P|204:259|170:253,1,59.9999981689454
73,220,17985,2,0,P|104:210|127:184,1,59.9999981689454
208,110,18328,2,0,P|200:142|211:174,1,59.9999981689454
324,224,18671,2,0,P|300:201|266:195,1,59.9999981689454
340,308,19014,2,0,P|371:298|394:272,1,59.9999981689454
465,168,19357,6,0,L|487:170,10,14.9999995422363
351,93,19957,6,0,P|263:155|347:194,1,224.999993133545
315,215,20471,2,0,P|248:110|351:79,1,262.499991989136
341,58,20985,2,0,P|223:130|305:230,1,299.999990844727
280,246,21499,2,0,P|202:115|359:45,1,337.50000128746
384,152,22099,6,0,B|388:214|388:214|407:268,1,110.000003356934
451,34,22442,1,0,0:0:0:0:
464,185,22614,2,0,B|468:247|468:247|487:301,1,110.000003356934
326,346,22957,2,0,P|307:301|318:258,1,87.500000834465
356,88,23299,6,0,L|212:74,1,110.000003356934
0,122,23642,2,0,L|143:134,1,110.000003356934
383,233,23985,2,0,L|177:214,1,165.000005035401
105,208,24328,1,0,0:0:0:0:
322,336,24499,1,0,0:0:0:0:
488,284,24757,6,0,L|483:232,1,44.999998626709
118,118,25185,2,0,P|210:209|164:331,1,275.000008392334
136,310,25699,2,0,P|227:217|349:263,1,275.000008392334
328,296,26214,2,0,P|235:204|281:82,1,275.000008392334
312,96,26728,2,0,P|220:188|98:142,1,275.000008392334
148,91,27242,2,0,P|183:120|226:111,1,69.9999978637696
452,200,27585,6,0,B|380:193|380:193|298:210,1,110.000003356934
512,384,27928,1,0,0:0:0:0:
336,368,28099,2,0,B|264:362|264:362|186:331,1,110.000003356934
65,108,28614,5,0,0:0:0:0:
222,134,28785,2,0,B|245:124|245:124|269:130|269:130|292:120|292:120|317:125|317:125,1,89.9999972534181
132,229,29128,2,0,B|107:222|107:222|84:232|84:232|60:227|60:227|36:236|36:236,1,89.9999972534181
256,281,29471,2,0,B|267:279|267:279|291:269|291:269|315:275|315:275|338:265|338:265|363:270|363:270|386:261|386:261|411:267|411:267,1,134.999995880127
512,232,29814,1,0,0:0:0:0:
298,359,29985,1,0,0:0:0:0:
93,355,30242,6,0,L|37:350,1,44.999998626709
277,106,30671,2,0,P|367:94|317:173,1,224.999993133545
210,151,31185,2,0,P|149:244|258:218,1,287.500005483627
277,106,31699,2,0,P|392:44|323:172,1,375.000014305115
210,151,32214,2,0,B|23:76|-11:429|279:365|259:219|259:219|252:164|232:131|236:-4|318:-75|530:46|413:150,1,877.500003347397
452,184,33071,6,0,B|459:272|459:272|442:349,1,150.000005722046
349,110,33414,1,0,0:0:0:0:
362,235,33585,2,0,B|369:323|369:323|352:400,1,150.000005722046
281,348,33928,2,0,P|234:321|216:271,1,104.999996795654
174,20,34271,6,0,L|163:151,1,104.999996795654
135,363,34614,2,0,L|123:231,1,104.999996795654
80,20,34957,2,0,L|64:199,1,157.499995193482
56,284,35299,1,0,0:0:0:0:
256,87,35471,1,0,0:0:0:0:
312,229,35728,6,0,L|367:233,1,44.999998626709
178,218,36157,2,0,B|62:207|62:207|30:205|-1:206|-114:276|-18:423|100:414|153:312|126:258,1,506.250019311906
90,131,38557,1,0,0:0:0:0:
256,192,38899,12,0,41128,0:0:0:0:
256,192,41299,12,0,43699,0:0:0:0:
204,286,44042,5,0,0:0:0:0:
302,275,44385,1,0,0:0:0:0:
318,150,44728,1,0,0:0:0:0:
453,261,45242,5,0,0:0:0:0:
267,340,45757,5,0,0:0:0:0:
512,384,46271,6,0,L|507:328,1,50
329,251,46785,5,0,0:0:0:0:
146,300,47128,1,0,0:0:0:0:
292,103,47471,1,0,0:0:0:0:
494,175,47985,5,0,0:0:0:0:
232,1,48499,5,0,0:0:0:0:
440,46,48842,2,0,L|433:125,1,75.0000028610231
424,252,49185,1,0,0:0:0:0:
102,30,49528,5,0,0:0:0:0:
373,86,49871,1,0,0:0:0:0:
6,181,50214,2,0,B|50:213|50:213|108:199,1,100
209,177,50557,1,0,0:0:0:0:
228,287,50728,2,0,B|281:278|281:278|312:227,1,100
354,148,51071,1,0,0:0:0:0:
493,163,51242,2,0,B|484:109|484:109|433:78,1,100
344,32,51585,2,0,L|224:42,2,100
511,21,52099,1,0,0:0:0:0:
297,135,52271,6,0,L|145:148,1,125
367,226,52614,2,0,L|518:212,1,125
316,316,52957,1,0,0:0:0:0:
176,314,53128,2,0,B|192:245|192:245|246:216,1,125
392,145,53471,1,0,0:0:0:0:
482,33,53642,2,0,B|421:-4|421:-4|363:13,1,125
206,67,53985,1,0,0:0:0:0:
98,2,54157,1,0,0:0:0:0:
97,2,55014,6,0,L|132:36,1,25
61,67,55185,2,0,L|106:86,1,25
51,141,55357,2,0,L|100:141,1,25
66,213,55528,2,0,L|111:193,1,25
107,276,55699,2,0,L|141:241,1,25
167,320,55871,2,0,L|185:274,1,25
239,340,56042,2,0,L|238:291,1,25
313,334,56214,2,0,L|293:288,1,25
360,277,56385,6,0,L|379:295,1,25
302,306,56557,2,0,L|313:329,1,25
238,314,56728,2,0,L|239:339,1,25
176,298,56899,2,0,L|167:322,1,25
121,261,57071,2,0,L|104:280,1,25
85,209,57242,2,0,L|62:219,1,25
67,146,57414,2,0,L|43:147,1,25
74,82,57585,2,0,L|51:73,1,25
103,27,57757,5,0,0:0:0:0:
139,57,57842,1,0,0:0:0:0:
178,85,57928,1,0,0:0:0:0:
219,108,58014,1,0,0:0:0:0:
263,126,58099,1,0,0:0:0:0:
309,137,58185,1,0,0:0:0:0:
356,133,58271,1,0,0:0:0:0:
386,99,58357,1,0,0:0:0:0:
370,57,58442,5,0,0:0:0:0:
325,51,58528,1,0,0:0:0:0:
291,82,58614,1,0,0:0:0:0:
265,122,58699,1,0,0:0:0:0:
238,161,58785,1,0,0:0:0:0:
213,201,58871,1,0,0:0:0:0:
181,236,58957,1,0,0:0:0:0:
138,252,59042,1,0,0:0:0:0:
100,227,59128,5,0,0:0:0:0:
104,182,59214,1,0,0:0:0:0:
145,162,59299,1,0,0:0:0:0:
191,173,59385,1,0,0:0:0:0:
232,197,59471,1,0,0:0:0:0:
264,231,59557,1,0,0:0:0:0:
295,267,59642,1,0,0:0:0:0:
337,285,59728,1,0,0:0:0:0:
375,260,59814,5,0,0:0:0:0:
371,215,59899,1,0,0:0:0:0:
329,197,59985,1,0,0:0:0:0:
285,213,60071,1,0,0:0:0:0:
251,246,60157,1,0,0:0:0:0:
228,287,60242,1,0,0:0:0:0:
193,319,60328,1,0,0:0:0:0:
148,332,60414,1,0,0:0:0:0:
101,327,60499,5,0,0:0:0:0:
390,244,60842,2,0,L|274:233,1,100
158,223,61185,1,0,0:0:0:0:
384,97,61357,6,0,L|268:86,1,100
152,76,61699,1,0,0:0:0:0:
232,155,61871,6,0,L|116:144,1,100
0,134,62214,1,0,0:0:0:0:
326,237,62385,6,0,L|210:226,1,100
94,216,62728,1,0,0:0:0:0:
448,146,62899,6,0,L|332:135,1,100
250,106,63157,6,0,L|255:160,1,44.999998626709
264,230,63328,1,0,0:0:0:0:
245,228,63414,1,0,0:0:0:0:
226,227,63499,1,0,0:0:0:0:
208,225,63585,2,0,L|205:198,6,18.7500007152558
205,303,63928,5,0,0:0:0:0:
238,318,64014,1,0,0:0:0:0:
275,326,64099,1,0,0:0:0:0:
312,327,64185,1,0,0:0:0:0:
349,318,64271,1,0,0:0:0:0:
383,303,64357,1,0,0:0:0:0:
413,280,64442,1,0,0:0:0:0:
437,252,64528,1,0,0:0:0:0:
458,216,64614,5,0,0:0:0:0:
423,177,64699,1,0,0:0:0:0:
386,154,64785,1,0,0:0:0:0:
342,136,64871,1,0,0:0:0:0:
295,130,64957,1,0,0:0:0:0:
248,134,65042,1,0,0:0:0:0:
197,143,65128,5,0,0:0:0:0:
228,108,65214,1,0,0:0:0:0:
268,81,65299,1,0,0:0:0:0:
312,63,65385,1,0,0:0:0:0:
359,57,65471,1,0,0:0:0:0:
406,61,65557,1,0,0:0:0:0:
457,71,65642,6,0,L|442:237,1,119.999996337891
237,18,65985,5,0,0:0:0:0:
301,142,66157,1,0,0:0:0:0:
102,21,66328,1,0,0:0:0:0:
157,164,66499,2,0,L|224:169,1,59.9999981689454
137,250,66671,2,0,L|17:239,1,119.999996337891
0,381,67014,2,0,B|64:400|64:400|131:380,1,119.999996337891
357,329,67357,6,0,B|323:310|323:310|310:270,1,59.9999981689454
242,171,67528,2,0,B|261:205|261:205|301:218,1,59.9999981689454
427,231,67699,2,0,B|403:164|403:164|347:130,1,119.999996337891
242,291,68042,2,0,B|265:357|265:357|321:391,1,119.999996337891
361,138,68385,2,0,P|329:85|352:148,1,179.999994506836
448,186,68728,5,0,0:0:0:0:
250,193,68899,1,0,0:0:0:0:
512,338,69071,1,0,0:0:0:0:
249,265,69242,2,0,L|182:258,1,59.9999981689454
253,353,69414,2,0,L|373:363,1,119.999996337891
512,206,69757,2,0,B|480:147|480:147|418:114,1,119.999996337891
248,171,70099,6,0,B|267:205|267:205|307:218,1,59.9999981689454
422,285,70271,2,0,B|386:301|386:301|346:289,1,59.9999981689454
174,236,70442,1,0,0:0:0:0:
174,236,70785,6,0,B|155:270|155:270|115:283,1,59.9999981689454
0,350,70957,2,0,B|36:366|36:366|76:354,1,59.9999981689454
248,301,71128,1,0,0:0:0:0:
512,74,71471,5,0,0:0:0:0:
360,0,71642,1,0,0:0:0:0:
512,216,71814,1,0,0:0:0:0:
250,187,71985,2,0,L|182:182,1,59.9999981689454
269,101,72157,2,0,L|388:111,1,119.999996337891
401,312,72499,2,0,B|350:356|350:356|281:366,1,119.999996337891
106,288,72842,6,0,B|140:269|140:269|153:229,1,59.9999981689454
221,130,73014,2,0,B|202:164|202:164|162:177,1,59.9999981689454
36,190,73185,2,0,B|60:123|60:123|116:89,1,119.999996337891
221,250,73528,2,0,B|198:316|198:316|142:350,1,119.999996337891
102,97,73871,2,0,P|150:63|160:116,1,119.999996337891
157,194,74128,6,0,L|153:248,1,44.999998626709
471,82,74557,5,0,0:0:0:0:
289,86,74728,1,0,0:0:0:0:
269,87,74814,1,0,0:0:0:0:
250,93,74899,1,0,0:0:0:0:
232,103,74985,1,0,0:0:0:0:
218,117,75071,1,0,0:0:0:0:
475,150,75242,5,0,0:0:0:0:
241,181,75414,1,0,0:0:0:0:
221,186,75499,1,0,0:0:0:0:
204,196,75585,1,0,0:0:0:0:
189,210,75671,1,0,0:0:0:0:
178,227,75757,1,0,0:0:0:0:
479,218,75928,5,0,0:0:0:0:
224,281,76099,1,0,0:0:0:0:
207,293,76185,1,0,0:0:0:0:
194,308,76271,1,0,0:0:0:0:
185,326,76357,1,0,0:0:0:0:
180,346,76442,1,0,0:0:0:0:
483,286,76614,5,0,0:0:0:0:
258,345,76785,1,0,0:0:0:0:
415,38,76957,5,0,0:0:0:0:
247,36,77128,1,0,0:0:0:0:
512,164,77299,1,0,0:0:0:0:
178,108,77471,2,0,B|54:97,1,119.999996337891
391,212,77814,1,0,0:0:0:0:
116,184,77985,2,0,B|48:177|48:177|-9:200,1,119.999996337891
190,341,78328,6,0,B|231:331|231:331|282:288,1,59.9999981689454
329,161,78499,2,0,B|315:201|315:201|327:267,1,59.9999981689454
415,372,78671,2,0,B|371:321|371:321|313:297,1,119.999996337891
0,267,79014,2,0,B|44:318|44:318|102:342,1,119.999996337891
239,198,79357,2,0,P|192:156|233:210,1,179.999994506836
303,256,79699,5,0,0:0:0:0:
423,157,79871,1,0,0:0:0:0:
276,384,80042,1,0,0:0:0:0:
242,119,80214,2,0,B|231:-5,1,119.999996337891
172,226,80557,1,0,0:0:0:0:
488,124,80728,2,0,B|511:188|511:188|503:250,1,119.999996337891
276,247,81071,6,0,B|234:251|234:251|171:228,1,59.9999981689454,0|0,0:0|0:0,0:0:0:0:
83,125,81242,2,0,B|109:157|109:157|121:223,1,59.9999981689454
75,353,81414,1,0,0:0:0:0:
75,353,81757,6,0,B|116:343|116:343|167:300,1,59.9999981689454,0|0,0:0|0:0,0:0:0:0:
214,173,81928,2,0,B|200:213|200:213|212:279,1,59.9999981689454,0|0,0:0|0:0,0:0:0:0:
300,384,82099,1,0,0:0:0:0:
0,54,82442,5,0,0:0:0:0:
189,0,82614,1,0,0:0:0:0:
0,229,82785,1,0,0:0:0:0:
296,165,82957,2,0,B|420:154,1,119.999996337891
229,231,83299,1,0,0:0:0:0:
307,45,83471,2,0,B|243:68|243:68|201:114,1,119.999996337891
315,265,83814,6,0,B|356:271|356:271|420:252,1,59.9999981689454
512,153,83985,2,0,B|483:184|483:184|468:249,1,59.9999981689454
509,380,84157,2,0,B|488:315|488:315|444:271,1,119.999996337891
164,275,84499,2,0,B|207:326|207:326|264:351,1,119.999996337891
398,212,84842,2,0,P|359:162|390:222,1,179.999994506836
474,279,85185,1,0,0:0:0:0:
246,295,85528,6,0,L|354:305,1,100
171,288,85871,1,0,0:0:0:0:
353,206,86042,6,0,L|460:215,1,100
277,199,86385,1,0,0:0:0:0:
413,376,86557,6,0,L|520:385,1,100
337,369,86900,1,0,0:0:0:0:
192,271,87071,6,0,L|299:280,1,100
116,264,87414,1,0,0:0:0:0:
318,198,87585,6,0,L|425:207,1,100
138,175,87928,6,0,B|63:204|63:204|29:257,1,139.999995727539
374,209,88271,2,0,B|449:180|449:180|483:127,1,139.999995727539
182,254,88614,1,0,0:0:0:0:
330,130,88785,1,0,0:0:0:0:
512,384,88957,1,0,0:0:0:0:
394,272,89128,6,0,L|382:132,1,139.999995727539
296,0,89471,2,0,L|309:139,1,139.999995727539
250,368,89814,2,0,L|231:148,1,209.999993591309
221,33,90157,1,0,0:0:0:0:
150,222,90328,1,0,0:0:0:0:
221,33,90671,6,0,B|108:74|108:74|33:160,1,209.999993591309
25,280,91014,2,0,B|137:238|137:238|194:173,1,139.999995727539
150,222,91357,5,0,0:0:0:0:
374,239,91528,2,0,L|229:226,1,139.999995727539
423,166,91871,5,0,0:0:0:0:
198,148,92042,2,0,L|337:159,1,139.999995727539
24,54,92385,5,0,0:0:0:0:
249,72,92556,2,0,L|105:59,1,139.999995727539
512,18,92899,5,0,0:0:0:0:
287,0,93070,2,0,L|426:11,1,139.999995727539
472,222,93414,6,0,B|453:220|453:220|429:210|429:210|405:216|405:216|382:206|382:206|357:211|357:211|334:201|334:201|309:207|309:207,1,139.999995727539
100,181,93757,1,0,0:0:0:0:
184,280,93928,1,0,0:0:0:0:
8,78,94099,2,0,B|28:79|28:79|52:89|52:89|76:83|76:83|99:93|99:93|124:88|124:88|147:98|147:98|172:92|172:92,1,139.999995727539
366,121,94442,1,0,0:0:0:0:
100,159,94614,6,0,B|120:160|120:160|144:170|144:170|168:164|168:164|191:174|191:174|216:169|216:169|239:179|239:179|264:173|264:173,1,139.999995727539
512,265,94957,2,0,B|493:263|493:263|469:253|469:253|445:259|445:259|422:249|422:249|397:254|397:254|374:244|374:244|349:250|349:250,1,139.999995727539
37,289,95299,2,0,B|45:289|45:289|69:299|69:299|93:293|93:293|116:303|116:303|141:298|141:298|164:308|164:308|189:302|189:302|212:312|212:312|237:306|237:306,1,209.999993591309
379,320,95642,1,0,0:0:0:0:
145,384,95814,1,0,0:0:0:0:
224,160,96071,6,0,L|219:108,1,44.999998626709
431,312,96499,5,0,0:0:0:0:
249,330,96671,1,0,0:0:0:0:
229,329,96757,1,0,0:0:0:0:
210,323,96842,1,0,0:0:0:0:
192,313,96928,1,0,0:0:0:0:
178,299,97014,1,0,0:0:0:0:
512,178,97185,5,0,0:0:0:0:
323,255,97357,1,0,0:0:0:0:
304,262,97443,1,0,0:0:0:0:
285,265,97528,1,0,0:0:0:0:
264,263,97614,1,0,0:0:0:0:
245,257,97700,1,0,0:0:0:0:
512,19,97871,5,0,0:0:0:0:
351,158,98043,1,0,0:0:0:0:
337,173,98129,1,0,0:0:0:0:
321,183,98214,1,0,0:0:0:0:
301,191,98300,1,0,0:0:0:0:
281,193,98386,1,0,0:0:0:0:
364,0,98557,5,0,0:0:0:0:
512,216,98728,1,0,0:0:0:0:
257,0,98899,6,0,B|182:29|182:29|148:82,1,139.999995727539
0,262,99242,2,0,B|75:233|75:233|109:180,1,139.999995727539
231,88,99585,1,0,0:0:0:0:
26,174,99757,1,0,0:0:0:0:
257,0,99928,1,0,0:0:0:0:
0,96,100099,6,0,L|147:108,1,139.999995727539
420,200,100442,2,0,L|272:187,1,139.999995727539
0,258,100785,2,0,L|215:276,1,209.999993591309
326,286,101128,1,0,0:0:0:0:
154,189,101299,2,0,B|206:128|206:128|268:114,1,139.999995727539
85,263,101642,6,0,B|37:328|37:328|38:391,1,139.999995727539
346,317,101985,1,0,0:0:0:0:
178,281,102157,1,0,0:0:0:0:
383,217,102328,2,0,B|443:269|443:269|457:331,1,139.999995727539
155,384,102671,1,0,0:0:0:0:
184,139,102842,6,0,L|198:-32,1,139.999995727539
243,197,103185,2,0,L|228:368,1,139.999995727539
307,150,103528,2,0,L|321:-21,1,139.999995727539
362,207,103871,1,0,0:0:0:0:
119,186,104042,1,0,0:0:0:0:
362,207,104385,5,0,0:0:0:0:
80,283,104728,2,0,L|231:269,1,139.999995727539
0,289,105071,1,0,0:0:0:0:
253,128,105242,6,0,L|404:114,1,139.999995727539
173,134,105585,1,0,0:0:0:0:
83,12,105757,6,0,L|234:-1,1,139.999995727539
3,18,106100,1,0,0:0:0:0:
147,213,106271,6,0,L|298:199,1,139.999995727539
67,219,106614,1,0,0:0:0:0:
261,59,106785,6,0,L|412:46,1,139.999995727539
482,66,107042,6,0,L|487:120,1,44.999998626709
484,182,107214,1,0,0:0:0:0:
448,195,107299,1,0,0:0:0:0:
412,203,107385,1,0,0:0:0:0:
375,203,107471,1,0,0:0:0:0:
339,192,107556,1,0,0:0:0:0:
314,165,107642,1,0,0:0:0:0:
313,128,107728,1,0,0:0:0:0:
334,98,107814,1,0,0:0:0:0:
370,88,107899,1,0,0:0:0:0:
404,102,107985,1,0,0:0:0:0:
421,134,108071,1,0,0:0:0:0:
415,170,108156,1,0,0:0:0:0:
388,195,108242,1,0,0:0:0:0:
352,206,108328,1,0,0:0:0:0:
315,211,108414,1,0,0:0:0:0:
278,206,108499,5,0,0:0:0:0:
295,249,108584,1,0,0:0:0:0:
325,286,108670,1,0,0:0:0:0:
366,311,108756,1,0,0:0:0:0:
412,322,108841,1,0,0:0:0:0:
459,318,108927,1,0,0:0:0:0:
506,306,109014,5,0,0:0:0:0:
474,341,109099,1,0,0:0:0:0:
435,367,109185,1,0,0:0:0:0:
390,382,109271,1,0,0:0:0:0:
343,384,109356,1,0,0:0:0:0:
296,374,109442,1,0,0:0:0:0:
253,353,109528,6,0,L|268:187,1,119.999996337891
288,12,109871,2,0,B|286:31|286:31|277:56|277:56|283:79|283:79|273:103|273:103|278:128|278:128|267:151|267:151|273:176|273:176,1,119.999996337891
257,291,110214,2,0,B|258:271|258:271|268:247|268:247|261:223|261:223|272:200|272:200,1,59.9999981689454
222,88,110385,6,0,L|281:93,1,59.9999981689454
335,168,110557,2,0,L|275:162,1,59.9999981689454
346,356,110899,2,0,B|344:336|344:336|349:310|349:310|339:288|339:288|344:263|344:263|335:240|335:240|341:215|341:215|331:192|331:192,1,119.999996337891
275,72,111242,2,0,B|252:72|252:72|228:64|228:64|204:72|204:72|170:101|132:95|91:59|91:59|104:91|115:121,1,239.999992675781
199,337,112099,5,0,0:0:0:0:
91,59,112271,1,0,0:0:0:0:
81,350,112442,1,0,0:0:0:0:
212,111,112614,5,0,0:0:0:0:
0,143,112785,1,0,0:0:0:0:
189,224,112957,1,0,0:0:0:0:
367,138,113127,2,0,L|371:205,1,59.9999981689454
452,119,113299,2,0,L|441:0,1,119.999996337891
83,0,113642,2,0,B|24:31|24:31|-8:93,1,119.999996337891
172,171,113985,2,0,B|191:171|191:171|228:154,1,59.9999981689454
348,34,114156,2,0,B|344:51|344:51|317:84,1,59.9999981689454
285,249,114328,1,0,0:0:0:0:
285,249,114671,6,0,B|298:263|298:263|336:277,1,59.9999981689454
506,276,114842,2,0,B|491:285|491:285|449:290,1,59.9999981689454
309,384,115014,1,0,0:0:0:0:
465,0,115357,5,0,0:0:0:0:
512,150,115528,1,0,0:0:0:0:
323,0,115699,1,0,0:0:0:0:
400,237,115871,2,0,L|467:244,1,59.9999981689454
396,149,116043,2,0,L|276:139,1,119.999996337891
512,180,116385,2,0,B|497:115|497:115|458:66,1,119.999996337891
321,270,116728,6,0,B|303:278|303:278|263:274,1,59.9999981689454
109,203,116899,2,0,B|119:219|119:219|155:240,1,59.9999981689454
242,384,117071,2,0,B|307:369|307:369|356:330,1,119.999996337891
109,341,117414,2,0,B|63:289|63:289|47:229,1,119.999996337891
241,160,117757,2,0,P|193:126|183:179,1,119.999996337891
192,243,118014,6,0,L|197:296,1,44.999998626709
332,28,118442,5,0,0:0:0:0:
169,55,118614,1,0,0:0:0:0:
178,73,118700,1,0,0:0:0:0:
191,88,118785,1,0,0:0:0:0:
207,100,118871,1,0,0:0:0:0:
226,108,118957,1,0,0:0:0:0:
26,86,119128,5,0,0:0:0:0:
302,128,119300,1,0,0:0:0:0:
293,146,119386,1,0,0:0:0:0:
280,161,119471,1,0,0:0:0:0:
264,173,119557,1,0,0:0:0:0:
245,181,119643,1,0,0:0:0:0:
512,149,119814,5,0,0:0:0:0:
172,201,119986,1,0,0:0:0:0:
181,219,120072,1,0,0:0:0:0:
194,234,120157,1,0,0:0:0:0:
210,246,120243,1,0,0:0:0:0:
229,254,120329,1,0,0:0:0:0:
0,217,120499,5,0,0:0:0:0:
134,66,120671,1,0,0:0:0:0:
83,384,120842,5,0,0:0:0:0:
78,249,121014,1,0,0:0:0:0:
262,352,121185,1,0,0:0:0:0:
276,173,121357,2,0,L|286:49,1,119.999996337891
422,158,121699,1,0,0:0:0:0:
144,121,121871,2,0,B|78:141|78:141|35:184,1,119.999996337891
313,326,122214,6,0,B|308:287|308:287|275:260,1,59.9999981689454
179,205,122385,2,0,B|216:214|216:214|253:195,1,59.9999981689454
350,149,122557,2,0,B|381:88|381:88|381:27,1,119.999996337891
123,128,122899,2,0,B|91:188|91:188|91:249,1,119.999996337891
258,122,123242,2,0,P|254:59|245:126,1,179.999994506836
292,203,123585,5,0,0:0:0:0:
462,101,123757,1,0,0:0:0:0:
390,336,123928,1,0,0:0:0:0:
374,152,124099,2,0,L|363:32,1,119.999996337891
268,254,124442,1,0,0:0:0:0:
500,38,124614,2,0,B|520:103|520:103|510:163,1,119.999996337891
268,254,124957,6,0,B|273:215|273:215|306:188,1,59.9999981689454
402,133,125128,2,0,B|365:142|365:142|328:123,1,59.9999981689454
231,77,125299,1,0,0:0:0:0:
231,77,125642,6,0,B|226:116|226:116|193:143,1,59.9999981689454
97,198,125813,2,0,B|134:189|134:189|171:208,1,59.9999981689454
268,254,125984,1,0,0:0:0:0:
