osu file format v14

[General]
AudioFilename: audio.mp3
AudioLeadIn: 0
PreviewTime: 326406
Countdown: 0
SampleSet: Normal
StackLeniency: 0.7
Mode: 3
LetterboxInBreaks: 0
SpecialStyle: 0
WidescreenStoryboard: 1

[Editor]
Bookmarks: 133035,142635,161149,168692,169206,204349,316035
DistanceSpacing: 1.1
BeatDivisor: 4
GridSize: 4
TimelineZoom: 1.5

[Metadata]
Title:Endgame
TitleUnicode:Endgame
Artist:Muzzy
ArtistUnicode:Muzzy
Creator:Nysrogh
Version:Pause
Source:
Tags:drum and bass dnb neurofunk hydria staravia fastyoshi
BeatmapID:1247415
BeatmapSetID:589302

[Difficulty]
HPDrainRate:8.7
CircleSize:4
OverallDifficulty:8.2
ApproachRate:5
SliderMultiplier:1.4
SliderTickRate:1

[Events]
//Background and Video events
0,0,"2d97d91603.jpg",0,0
//Break Periods
2,153806,159263
//Storyboard Layer 0 (Background)
//Storyboard Layer 1 (Fail)
//Storyboard Layer 2 (Pass)
//Storyboard Layer 3 (Foreground)
//Storyboard Sound Samples

[TimingPoints]
37035,342.857142857143,4,1,0,20,1,0
65835,-100,4,1,0,40,0,1
74063,-100,4,1,0,40,0,0
76806,-100,4,1,0,40,0,1
85035,-100,4,1,0,30,0,0
89149,-100,4,1,0,40,0,1
96177,-100,4,1,0,40,0,0
98749,-100,4,1,0,40,0,1
106977,-100,4,1,0,40,0,0
134406,-125,4,1,0,20,0,0
135777,-142.857142857143,4,1,0,20,0,0
137149,-166.666666666667,4,1,0,20,0,0
137835,-181.818181818182,4,1,0,20,0,0
138520,-200,4,1,0,20,0,0
139206,-222.222222222222,4,1,0,20,0,0
139892,-250,4,1,0,20,0,0
140577,-285.714285714286,4,1,0,20,0,0
141263,-333.333333333333,4,1,0,20,0,0
141606,-400,4,1,0,20,0,0
142292,-100,4,1,0,20,0,0
144006,-95.2380952380952,4,1,0,20,0,0
145377,-90.9090909090909,4,1,0,20,0,0
146749,-86.9565217391304,4,1,0,20,0,0
148120,-80,4,1,0,20,0,0
149492,-74.0740740740741,4,1,0,20,0,0
150863,-68.9655172413793,4,1,0,20,0,0
157726,-76.9230769230769,4,1,0,20,0,0
159092,-100,4,1,0,10,0,0
161149,-133.333333333333,4,1,0,10,0,0
165949,-153.846153846153,4,1,0,10,0,0
168692,-181.818181818181,4,1,0,10,0,0
201606,-125,4,1,0,10,0,0
207092,-111.111111111111,4,1,0,15,0,0
209835,-100,4,1,0,20,0,0
248235,-1000,4,1,0,20,0,0
249520,-38.4615384615385,4,1,0,20,0,0
249606,-100,4,1,0,20,0,0
293492,-100,4,1,0,40,0,1
326406,-100,4,1,0,40,0,0
359320,-100,4,1,0,70,0,1
370635,-100,4,1,0,30,0,0

[HitObjects]
64,192,37035,5,0,0:0:0:0:
320,192,37206,1,0,0:0:0:0:
448,192,37377,1,0,0:0:0:0:
192,192,37377,1,0,0:0:0:0:
64,192,37635,1,0,0:0:0:0:
320,192,37635,1,0,0:0:0:0:
192,192,37806,1,0,0:0:0:0:
448,192,37806,1,0,0:0:0:0:
320,192,37892,1,0,0:0:0:0:
64,192,38063,1,0,0:0:0:0:
448,192,38063,1,0,0:0:0:0:
192,192,38235,1,0,0:0:0:0:
320,192,38320,1,0,0:0:0:0:
448,192,38320,1,0,0:0:0:0:
192,192,38406,1,0,0:0:0:0:
64,192,38492,1,0,0:0:0:0:
448,192,38492,1,0,0:0:0:0:
320,192,38577,1,0,0:0:0:0:
192,192,38577,1,0,0:0:0:0:
64,192,38749,1,0,0:0:0:0:
448,192,38749,1,0,0:0:0:0:
64,192,39006,1,0,0:0:0:0:
448,192,39006,1,0,0:0:0:0:
320,192,39092,1,0,0:0:0:0:
192,192,39177,1,0,0:0:0:0:
64,192,39177,1,0,0:0:0:0:
320,192,39263,1,0,0:0:0:0:
448,192,39263,1,0,0:0:0:0:
448,192,39435,1,0,0:0:0:0:
64,192,39435,1,0,0:0:0:0:
320,192,39606,1,0,0:0:0:0:
64,192,39692,1,0,0:0:0:0:
192,192,39692,1,0,0:0:0:0:
320,192,39777,1,0,0:0:0:0:
448,192,39777,128,0,43549:0:0:0:0:
64,192,42777,128,0,43120:0:0:0:0:
320,192,43206,128,0,43549:0:0:0:0:
64,192,43549,128,0,43892:0:0:0:0:
448,192,43892,1,0,0:0:0:0:
192,192,43892,1,0,0:0:0:0:
64,192,44235,1,0,0:0:0:0:
448,192,44235,1,0,0:0:0:0:
64,192,45263,1,0,0:0:0:0:
320,192,45263,1,0,0:0:0:0:
64,192,45606,1,0,0:0:0:0:
448,192,45606,1,0,0:0:0:0:
64,192,46292,1,0,0:0:0:0:
320,192,46463,1,0,0:0:0:0:
448,192,46635,1,0,0:0:0:0:
64,192,46635,1,0,0:0:0:0:
320,192,46806,1,0,0:0:0:0:
64,192,46977,1,0,0:0:0:0:
448,192,46977,1,0,0:0:0:0:
192,192,47149,1,0,0:0:0:0:
64,192,47320,1,0,0:0:0:0:
320,192,47492,1,0,0:0:0:0:
192,192,47663,1,0,0:0:0:0:
320,192,47835,1,0,0:0:0:0:
192,192,48006,1,0,0:0:0:0:
448,192,48006,1,0,0:0:0:0:
448,192,48177,1,0,0:0:0:0:
64,192,48349,1,0,0:0:0:0:
320,192,48349,1,0,0:0:0:0:
320,192,48520,1,0,0:0:0:0:
64,192,48692,1,0,0:0:0:0:
448,192,48692,1,0,0:0:0:0:
448,192,48863,1,0,0:0:0:0:
320,192,49035,1,0,0:0:0:0:
192,192,49035,1,0,0:0:0:0:
192,192,49206,1,0,0:0:0:0:
64,192,49377,1,0,0:0:0:0:
448,192,49377,1,0,0:0:0:0:
448,192,49549,1,0,0:0:0:0:
64,192,49720,1,0,0:0:0:0:
192,192,49720,1,0,0:0:0:0:
192,192,49892,1,0,0:0:0:0:
448,192,50063,1,0,0:0:0:0:
64,192,50063,1,0,0:0:0:0:
448,192,50235,1,0,0:0:0:0:
320,192,50406,1,0,0:0:0:0:
64,192,50406,1,0,0:0:0:0:
320,192,50577,1,0,0:0:0:0:
448,192,50749,1,0,0:0:0:0:
192,192,50749,1,0,0:0:0:0:
448,192,50920,1,0,0:0:0:0:
320,192,51092,1,0,0:0:0:0:
192,192,51092,1,0,0:0:0:0:
64,192,51263,1,0,0:0:0:0:
448,192,51435,1,0,0:0:0:0:
192,192,51435,1,0,0:0:0:0:
64,192,51606,1,0,0:0:0:0:
192,192,51777,1,0,0:0:0:0:
320,192,51777,1,0,0:0:0:0:
448,192,51949,1,0,0:0:0:0:
320,192,52120,1,0,0:0:0:0:
64,192,52120,1,0,0:0:0:0:
192,192,52292,1,0,0:0:0:0:
448,192,52463,1,0,0:0:0:0:
320,192,52463,1,0,0:0:0:0:
64,192,52635,1,0,0:0:0:0:
320,192,52806,1,0,0:0:0:0:
64,192,52977,1,0,0:0:0:0:
320,192,53149,1,0,0:0:0:0:
448,192,53320,1,0,0:0:0:0:
192,192,53492,1,0,0:0:0:0:
64,192,53492,1,0,0:0:0:0:
320,192,53492,1,0,0:0:0:0:
192,192,53835,1,0,0:0:0:0:
448,192,53835,1,0,0:0:0:0:
320,192,53835,1,0,0:0:0:0:
192,192,54177,1,0,0:0:0:0:
64,192,54177,1,0,0:0:0:0:
448,192,54349,1,0,0:0:0:0:
192,192,54520,1,0,0:0:0:0:
448,192,54520,1,0,0:0:0:0:
320,192,54692,1,0,0:0:0:0:
64,192,54692,1,0,0:0:0:0:
192,192,54863,1,0,0:0:0:0:
448,192,54863,1,0,0:0:0:0:
64,192,54863,1,0,0:0:0:0:
320,192,55035,1,0,0:0:0:0:
64,192,55206,1,0,0:0:0:0:
448,192,55206,1,0,0:0:0:0:
192,192,55206,1,0,0:0:0:0:
192,192,55377,1,0,0:0:0:0:
320,192,55549,1,0,0:0:0:0:
448,192,55549,1,0,0:0:0:0:
64,192,55720,1,0,0:0:0:0:
192,192,55720,1,0,0:0:0:0:
448,192,55892,1,0,0:0:0:0:
320,192,55892,1,0,0:0:0:0:
192,192,56063,1,0,0:0:0:0:
448,192,56063,1,0,0:0:0:0:
64,192,56235,1,0,0:0:0:0:
192,192,56235,1,0,0:0:0:0:
320,192,56235,1,0,0:0:0:0:
320,192,56406,1,0,0:0:0:0:
448,192,56406,1,0,0:0:0:0:
192,192,56577,1,0,0:0:0:0:
64,192,56577,1,0,0:0:0:0:
448,192,56577,1,0,0:0:0:0:
320,192,56749,1,0,0:0:0:0:
448,192,56749,1,0,0:0:0:0:
192,192,56920,1,0,0:0:0:0:
64,192,56920,1,0,0:0:0:0:
320,192,57092,1,0,0:0:0:0:
448,192,57092,1,0,0:0:0:0:
192,192,57263,1,0,0:0:0:0:
64,192,57263,1,0,0:0:0:0:
320,192,57435,1,0,0:0:0:0:
448,192,57435,1,0,0:0:0:0:
64,192,57606,1,0,0:0:0:0:
192,192,57606,1,0,0:0:0:0:
448,192,57606,1,0,0:0:0:0:
192,192,57777,1,0,0:0:0:0:
320,192,57777,1,0,0:0:0:0:
448,192,57949,1,0,0:0:0:0:
320,192,57949,1,0,0:0:0:0:
64,192,57949,1,0,0:0:0:0:
64,192,58120,1,0,0:0:0:0:
320,192,58120,1,0,0:0:0:0:
192,192,58292,1,0,0:0:0:0:
448,192,58292,1,0,0:0:0:0:
320,192,58463,1,0,0:0:0:0:
64,192,58463,1,0,0:0:0:0:
448,192,58635,1,0,0:0:0:0:
320,192,58635,1,0,0:0:0:0:
320,192,58806,1,0,0:0:0:0:
192,192,58806,1,0,0:0:0:0:
192,192,58977,1,0,0:0:0:0:
64,192,58977,1,0,0:0:0:0:
448,192,58977,1,0,0:0:0:0:
64,192,59149,1,0,0:0:0:0:
320,192,59149,1,0,0:0:0:0:
192,192,59320,1,0,0:0:0:0:
448,192,59320,1,0,0:0:0:0:
64,192,59320,1,0,0:0:0:0:
448,192,59492,1,0,0:0:0:0:
192,192,59492,1,0,0:0:0:0:
64,192,59663,1,0,0:0:0:0:
320,192,59663,1,0,0:0:0:0:
64,192,59835,1,0,0:0:0:0:
320,192,59835,1,0,0:0:0:0:
192,192,60006,1,0,0:0:0:0:
448,192,60006,1,0,0:0:0:0:
192,192,60177,1,0,0:0:0:0:
448,192,60177,1,0,0:0:0:0:
64,192,60349,1,0,0:0:0:0:
192,192,60349,1,0,0:0:0:0:
320,192,60435,1,0,0:0:0:0:
448,192,60435,1,0,0:0:0:0:
192,192,60520,1,0,0:0:0:0:
64,192,60520,1,0,0:0:0:0:
320,192,60606,1,0,0:0:0:0:
448,192,60606,1,0,0:0:0:0:
64,192,60692,1,0,0:0:0:0:
192,192,60692,1,0,0:0:0:0:
320,192,60777,1,0,0:0:0:0:
448,192,60777,1,0,0:0:0:0:
192,192,60863,1,0,0:0:0:0:
64,192,60863,1,0,0:0:0:0:
320,192,60949,1,0,0:0:0:0:
448,192,60949,1,0,0:0:0:0:
192,192,61035,1,0,0:0:0:0:
64,192,61035,1,0,0:0:0:0:
320,192,61120,1,0,0:0:0:0:
448,192,61120,1,0,0:0:0:0:
64,192,61206,1,0,0:0:0:0:
192,192,61206,1,0,0:0:0:0:
320,192,61292,1,0,0:0:0:0:
448,192,61292,1,0,0:0:0:0:
64,192,61377,1,0,0:0:0:0:
192,192,61377,1,0,0:0:0:0:
448,192,61463,1,0,0:0:0:0:
320,192,61463,1,0,0:0:0:0:
64,192,61549,1,0,0:0:0:0:
192,192,61549,1,0,0:0:0:0:
320,192,61635,1,0,0:0:0:0:
448,192,61635,1,0,0:0:0:0:
64,192,61720,1,0,0:0:0:0:
192,192,61720,1,0,0:0:0:0:
320,192,61806,1,0,0:0:0:0:
448,192,61806,1,0,0:0:0:0:
192,192,61892,1,0,0:0:0:0:
64,192,61892,1,0,0:0:0:0:
320,192,61977,1,0,0:0:0:0:
448,192,61977,1,0,0:0:0:0:
64,192,62063,1,0,0:0:0:0:
192,192,62063,1,0,0:0:0:0:
448,192,62149,1,0,0:0:0:0:
320,192,62149,1,0,0:0:0:0:
192,192,62235,1,0,0:0:0:0:
64,192,62235,1,0,0:0:0:0:
320,192,62320,1,0,0:0:0:0:
448,192,62320,1,0,0:0:0:0:
192,192,62406,1,0,0:0:0:0:
64,192,62406,1,0,0:0:0:0:
448,192,62492,1,0,0:0:0:0:
320,192,62577,1,0,0:0:0:0:
192,192,62577,1,0,0:0:0:0:
64,192,62663,1,0,0:0:0:0:
448,192,62749,1,0,0:0:0:0:
320,192,62749,1,0,0:0:0:0:
192,192,62835,1,0,0:0:0:0:
64,192,62920,1,0,0:0:0:0:
448,192,62920,1,0,0:0:0:0:
320,192,63006,1,0,0:0:0:0:
192,192,63092,1,0,0:0:0:0:
64,192,63092,1,0,0:0:0:0:
448,192,63177,1,0,0:0:0:0:
320,192,63263,1,0,0:0:0:0:
192,192,63263,1,0,0:0:0:0:
64,192,63349,1,0,0:0:0:0:
320,192,63435,1,0,0:0:0:0:
448,192,63435,1,0,0:0:0:0:
192,192,63520,1,0,0:0:0:0:
320,192,63606,1,0,0:0:0:0:
64,192,63606,1,0,0:0:0:0:
192,192,63692,1,0,0:0:0:0:
320,192,63777,1,0,0:0:0:0:
192,192,63863,1,0,0:0:0:0:
320,192,63949,1,0,0:0:0:0:
192,192,64035,1,0,0:0:0:0:
320,192,64120,1,0,0:0:0:0:
192,192,64206,1,0,0:0:0:0:
320,192,64292,1,0,0:0:0:0:
192,192,64377,1,0,0:0:0:0:
448,192,64463,128,0,64635:0:0:0:0:
192,192,64635,128,0,64977:0:0:0:0:
448,192,64977,128,0,65149:0:0:0:0:
64,192,65149,128,0,65320:0:0:0:0:
320,192,65320,128,0,65492:0:0:0:0:
64,192,65492,1,0,0:0:0:0:
192,192,65492,1,0,0:0:0:0:
448,192,65492,128,0,65835:0:0:0:0:
64,192,65835,128,0,66006:0:0:0:0:
192,192,65835,1,0,0:0:0:0:
320,192,66006,128,0,66177:0:0:0:0:
448,192,66006,1,0,0:0:0:0:
64,192,66177,128,0,66349:0:0:0:0:
448,192,66177,1,0,0:0:0:0:
192,192,66177,1,0,0:0:0:0:
448,192,66349,128,0,66520:0:0:0:0:
320,192,66349,1,0,0:0:0:0:
192,192,66520,128,0,66692:0:0:0:0:
64,192,66520,1,0,0:0:0:0:
448,192,66692,128,0,66863:0:0:0:0:
320,192,66692,1,0,0:0:0:0:
320,192,66863,128,0,67035:0:0:0:0:
192,192,66863,1,0,0:0:0:0:
64,192,66863,1,0,0:0:0:0:
64,192,67035,128,0,67206:0:0:0:0:
448,192,67206,128,0,67377:0:0:0:0:
192,192,67206,1,0,0:0:0:0:
64,192,67377,128,0,67549:0:0:0:0:
320,192,67377,1,0,0:0:0:0:
448,192,67549,128,0,67720:0:0:0:0:
192,192,67549,1,0,0:0:0:0:
320,192,67549,1,0,0:0:0:0:
64,192,67720,128,0,67892:0:0:0:0:
192,192,67720,1,0,0:0:0:0:
448,192,67892,128,0,68063:0:0:0:0:
320,192,67892,1,0,0:0:0:0:
320,192,68063,128,0,68235:0:0:0:0:
192,192,68063,1,0,0:0:0:0:
192,192,68235,128,0,68406:0:0:0:0:
64,192,68235,1,0,0:0:0:0:
448,192,68235,1,0,0:0:0:0:
320,192,68406,128,0,68577:0:0:0:0:
64,192,68406,1,0,0:0:0:0:
448,192,68577,128,0,68749:0:0:0:0:
192,192,68577,1,0,0:0:0:0:
64,192,68749,128,0,68920:0:0:0:0:
320,192,68749,1,0,0:0:0:0:
192,192,68920,128,0,69092:0:0:0:0:
448,192,68920,1,0,0:0:0:0:
320,192,68920,1,0,0:0:0:0:
320,192,69092,128,0,69263:0:0:0:0:
64,192,69092,1,0,0:0:0:0:
448,192,69263,128,0,69435:0:0:0:0:
192,192,69263,1,0,0:0:0:0:
192,192,69435,128,0,69606:0:0:0:0:
64,192,69435,1,0,0:0:0:0:
448,192,69606,128,0,69777:0:0:0:0:
64,192,69606,1,0,0:0:0:0:
320,192,69606,1,0,0:0:0:0:
192,192,69777,128,0,69949:0:0:0:0:
320,192,69777,1,0,0:0:0:0:
64,192,69949,128,0,70120:0:0:0:0:
448,192,69949,1,0,0:0:0:0:
320,192,70120,128,0,70292:0:0:0:0:
192,192,70120,1,0,0:0:0:0:
64,192,70292,128,0,70463:0:0:0:0:
448,192,70292,1,0,0:0:0:0:
192,192,70292,1,0,0:0:0:0:
320,192,70463,128,0,70635:0:0:0:0:
448,192,70463,1,0,0:0:0:0:
448,192,70635,128,0,70806:0:0:0:0:
64,192,70635,1,0,0:0:0:0:
320,192,70806,128,0,70977:0:0:0:0:
192,192,70806,1,0,0:0:0:0:
192,192,70977,128,0,71149:0:0:0:0:
448,192,70977,1,0,0:0:0:0:
64,192,70977,1,0,0:0:0:0:
64,192,71149,128,0,71320:0:0:0:0:
320,192,71149,1,0,0:0:0:0:
448,192,71320,128,0,71492:0:0:0:0:
320,192,71320,1,0,0:0:0:0:
192,192,71492,128,0,71663:0:0:0:0:
64,192,71492,1,0,0:0:0:0:
448,192,71663,128,0,71835:0:0:0:0:
320,192,71663,1,0,0:0:0:0:
64,192,71663,1,0,0:0:0:0:
64,192,71835,128,0,72006:0:0:0:0:
192,192,71835,1,0,0:0:0:0:
320,192,72006,128,0,72177:0:0:0:0:
448,192,72006,1,0,0:0:0:0:
64,192,72177,128,0,72349:0:0:0:0:
192,192,72177,1,0,0:0:0:0:
192,192,72349,128,0,72520:0:0:0:0:
448,192,72349,1,0,0:0:0:0:
320,192,72349,1,0,0:0:0:0:
320,192,72520,128,0,72692:0:0:0:0:
64,192,72520,1,0,0:0:0:0:
448,192,72692,128,0,72863:0:0:0:0:
192,192,72692,1,0,0:0:0:0:
192,192,72863,128,0,73035:0:0:0:0:
64,192,72863,1,0,0:0:0:0:
448,192,73035,128,0,73206:0:0:0:0:
320,192,73035,1,0,0:0:0:0:
64,192,73035,1,0,0:0:0:0:
64,192,73206,128,0,73377:0:0:0:0:
192,192,73206,1,0,0:0:0:0:
320,192,73377,128,0,73549:0:0:0:0:
448,192,73377,1,0,0:0:0:0:
64,192,73549,128,0,73720:0:0:0:0:
192,192,73549,1,0,0:0:0:0:
192,192,73720,128,0,73892:0:0:0:0:
320,192,73720,1,0,0:0:0:0:
448,192,73720,1,0,0:0:0:0:
448,192,73892,128,0,74063:0:0:0:0:
64,192,73892,1,0,0:0:0:0:
192,192,74063,1,0,0:0:0:0:
320,192,74063,1,0,0:0:0:0:
64,192,74063,128,0,76806:0:0:0:0:
320,192,74235,1,0,0:0:0:0:
192,192,74406,1,0,0:0:0:0:
448,192,74406,1,0,0:0:0:0:
320,192,74577,1,0,0:0:0:0:
448,192,74749,1,0,0:0:0:0:
192,192,74920,1,0,0:0:0:0:
320,192,74920,1,0,0:0:0:0:
192,192,75092,1,0,0:0:0:0:
448,192,75092,128,0,75263:0:0:0:0:
320,192,75263,128,0,75435:0:0:0:0:
448,192,75435,128,0,76120:0:0:0:0:
192,192,75435,1,0,0:0:0:0:
320,192,75606,1,0,0:0:0:0:
192,192,75777,1,0,0:0:0:0:
320,192,75777,1,0,0:0:0:0:
192,192,75949,1,0,0:0:0:0:
320,192,76120,128,0,76292:0:0:0:0:
192,192,76292,128,0,76463:0:0:0:0:
448,192,76292,1,0,0:0:0:0:
448,192,76463,128,0,76635:0:0:0:0:
320,192,76463,1,0,0:0:0:0:
320,192,76635,128,0,76806:0:0:0:0:
448,192,76806,1,0,0:0:0:0:
192,192,76806,128,0,76977:0:0:0:0:
448,192,76977,128,0,77149:0:0:0:0:
64,192,76977,1,0,0:0:0:0:
64,192,77149,128,0,77320:0:0:0:0:
192,192,77149,1,0,0:0:0:0:
320,192,77149,1,0,0:0:0:0:
320,192,77320,128,0,77492:0:0:0:0:
448,192,77320,1,0,0:0:0:0:
192,192,77492,128,0,77663:0:0:0:0:
64,192,77492,1,0,0:0:0:0:
320,192,77663,128,0,77835:0:0:0:0:
448,192,77663,1,0,0:0:0:0:
448,192,77835,128,0,78006:0:0:0:0:
192,192,77835,1,0,0:0:0:0:
64,192,77835,1,0,0:0:0:0:
64,192,78006,128,0,78177:0:0:0:0:
320,192,78006,1,0,0:0:0:0:
448,192,78177,128,0,78349:0:0:0:0:
192,192,78177,1,0,0:0:0:0:
192,192,78349,128,0,78520:0:0:0:0:
320,192,78349,1,0,0:0:0:0:
320,192,78520,128,0,78692:0:0:0:0:
64,192,78520,1,0,0:0:0:0:
448,192,78520,1,0,0:0:0:0:
448,192,78692,128,0,78863:0:0:0:0:
192,192,78692,1,0,0:0:0:0:
64,192,78863,128,0,79035:0:0:0:0:
320,192,78863,1,0,0:0:0:0:
320,192,79035,128,0,79206:0:0:0:0:
192,192,79035,1,0,0:0:0:0:
192,192,79206,128,0,79377:0:0:0:0:
448,192,79206,1,0,0:0:0:0:
64,192,79206,1,0,0:0:0:0:
320,192,79377,128,0,79549:0:0:0:0:
448,192,79377,1,0,0:0:0:0:
64,192,79549,128,0,79720:0:0:0:0:
192,192,79549,1,0,0:0:0:0:
448,192,79720,128,0,79892:0:0:0:0:
320,192,79720,1,0,0:0:0:0:
192,192,79892,128,0,80063:0:0:0:0:
64,192,79892,1,0,0:0:0:0:
320,192,79892,1,0,0:0:0:0:
448,192,80063,128,0,80235:0:0:0:0:
64,192,80063,1,0,0:0:0:0:
320,192,80235,128,0,80406:0:0:0:0:
192,192,80235,1,0,0:0:0:0:
192,192,80406,128,0,80577:0:0:0:0:
64,192,80406,1,0,0:0:0:0:
320,192,80577,1,0,0:0:0:0:
448,192,80577,1,0,0:0:0:0:
64,192,80577,128,0,80749:0:0:0:0:
320,192,80749,128,0,80920:0:0:0:0:
192,192,80749,1,0,0:0:0:0:
448,192,80920,128,0,81092:0:0:0:0:
64,192,80920,1,0,0:0:0:0:
320,192,81092,128,0,81263:0:0:0:0:
192,192,81092,1,0,0:0:0:0:
448,192,81263,1,0,0:0:0:0:
192,192,81263,1,0,0:0:0:0:
64,192,81263,128,0,81435:0:0:0:0:
192,192,81435,128,0,81606:0:0:0:0:
320,192,81435,1,0,0:0:0:0:
64,192,81606,128,0,81777:0:0:0:0:
448,192,81606,1,0,0:0:0:0:
320,192,81777,128,0,81949:0:0:0:0:
192,192,81777,1,0,0:0:0:0:
192,192,81949,128,0,82120:0:0:0:0:
448,192,81949,1,0,0:0:0:0:
64,192,81949,1,0,0:0:0:0:
320,192,82120,128,0,82292:0:0:0:0:
64,192,82120,1,0,0:0:0:0:
448,192,82292,128,0,82463:0:0:0:0:
192,192,82292,1,0,0:0:0:0:
320,192,82463,1,0,0:0:0:0:
64,192,82463,128,0,82635:0:0:0:0:
192,192,82635,1,0,0:0:0:0:
448,192,82635,1,0,0:0:0:0:
320,192,82635,128,0,82806:0:0:0:0:
64,192,82806,128,0,82977:0:0:0:0:
192,192,82806,1,0,0:0:0:0:
448,192,82977,128,0,83149:0:0:0:0:
320,192,82977,1,0,0:0:0:0:
192,192,83149,128,0,83320:0:0:0:0:
64,192,83149,1,0,0:0:0:0:
320,192,83320,128,0,83492:0:0:0:0:
448,192,83320,1,0,0:0:0:0:
64,192,83320,1,0,0:0:0:0:
192,192,83492,128,0,83663:0:0:0:0:
448,192,83492,1,0,0:0:0:0:
320,192,83663,1,0,0:0:0:0:
64,192,83663,128,0,83835:0:0:0:0:
192,192,83835,1,0,0:0:0:0:
448,192,83835,128,0,84006:0:0:0:0:
320,192,84006,1,0,0:0:0:0:
64,192,84006,1,0,0:0:0:0:
192,192,84006,128,0,84177:0:0:0:0:
448,192,84177,128,0,84349:0:0:0:0:
320,192,84177,1,0,0:0:0:0:
64,192,84349,128,0,84520:0:0:0:0:
192,192,84349,1,0,0:0:0:0:
320,192,84520,128,0,84692:0:0:0:0:
448,192,84520,1,0,0:0:0:0:
64,192,84692,1,0,0:0:0:0:
192,192,84692,1,0,0:0:0:0:
448,192,84692,128,0,85035:0:0:0:0:
192,192,84863,128,0,85035:0:0:0:0:
320,192,85035,1,0,0:0:0:0:
64,192,85035,1,0,0:0:0:0:
64,192,85206,1,0,0:0:0:0:
192,192,85206,1,0,0:0:0:0:
448,192,85206,1,0,0:0:0:0:
448,192,85377,1,0,0:0:0:0:
320,192,85377,1,0,0:0:0:0:
64,192,85377,1,0,0:0:0:0:
192,192,85549,1,0,0:0:0:0:
320,192,85549,1,0,0:0:0:0:
192,192,85720,1,0,0:0:0:0:
64,192,85720,1,0,0:0:0:0:
448,192,85720,1,0,0:0:0:0:
192,192,85892,1,0,0:0:0:0:
64,192,85892,1,0,0:0:0:0:
448,192,85892,1,0,0:0:0:0:
64,192,86063,1,0,0:0:0:0:
320,192,86063,1,0,0:0:0:0:
320,192,86235,1,0,0:0:0:0:
448,192,86235,1,0,0:0:0:0:
192,192,86235,1,0,0:0:0:0:
64,192,86406,1,0,0:0:0:0:
192,192,86406,1,0,0:0:0:0:
448,192,86492,1,0,0:0:0:0:
320,192,86492,1,0,0:0:0:0:
192,192,86577,1,0,0:0:0:0:
64,192,86577,1,0,0:0:0:0:
320,192,86663,1,0,0:0:0:0:
448,192,86663,1,0,0:0:0:0:
64,192,86749,1,0,0:0:0:0:
192,192,86749,1,0,0:0:0:0:
320,192,86835,1,0,0:0:0:0:
448,192,86835,1,0,0:0:0:0:
64,192,86920,1,0,0:0:0:0:
192,192,86920,1,0,0:0:0:0:
320,192,87006,1,0,0:0:0:0:
448,192,87006,1,0,0:0:0:0:
192,192,87092,1,0,0:0:0:0:
64,192,87092,1,0,0:0:0:0:
320,192,87177,1,0,0:0:0:0:
448,192,87177,1,0,0:0:0:0:
192,192,87263,1,0,0:0:0:0:
64,192,87263,1,0,0:0:0:0:
320,192,87349,1,0,0:0:0:0:
448,192,87349,1,0,0:0:0:0:
64,192,87435,128,0,87606:0:0:0:0:
192,192,87435,1,0,0:0:0:0:
320,192,87606,128,0,87777:0:0:0:0:
448,192,87777,128,0,88120:0:0:0:0:
64,192,87777,128,0,87949:0:0:0:0:
192,192,88120,128,0,88463:0:0:0:0:
448,192,88292,128,0,88463:0:0:0:0:
64,192,88463,128,0,88806:0:0:0:0:
320,192,88463,128,0,88635:0:0:0:0:
192,192,88635,1,0,0:0:0:0:
448,192,88635,1,0,0:0:0:0:
320,192,88806,1,0,0:0:0:0:
192,192,88806,1,0,0:0:0:0:
448,192,88806,128,0,88977:0:0:0:0:
64,192,88977,128,0,89149:0:0:0:0:
320,192,89149,128,0,89320:0:0:0:0:
192,192,89149,1,0,0:0:0:0:
448,192,89320,128,0,89492:0:0:0:0:
320,192,89492,1,0,0:0:0:0:
64,192,89492,128,0,89835:0:0:0:0:
192,192,89492,128,0,89663:0:0:0:0:
448,192,89835,128,0,90006:0:0:0:0:
320,192,90006,128,0,90177:0:0:0:0:
64,192,90006,1,0,0:0:0:0:
448,192,90177,128,0,90520:0:0:0:0:
64,192,90177,128,0,90349:0:0:0:0:
192,192,90177,1,0,0:0:0:0:
192,192,90520,128,0,90863:0:0:0:0:
320,192,90520,128,0,90692:0:0:0:0:
64,192,90863,128,0,91035:0:0:0:0:
448,192,90863,1,0,0:0:0:0:
320,192,90863,1,0,0:0:0:0:
192,192,91035,128,0,91206:0:0:0:0:
448,192,91035,1,0,0:0:0:0:
320,192,91206,128,0,91377:0:0:0:0:
64,192,91206,1,0,0:0:0:0:
192,192,91377,128,0,91549:0:0:0:0:
448,192,91377,1,0,0:0:0:0:
320,192,91549,1,0,0:0:0:0:
64,192,91549,128,0,91892:0:0:0:0:
448,192,91549,128,0,91720:0:0:0:0:
192,192,91720,128,0,91892:0:0:0:0:
320,192,91892,1,0,0:0:0:0:
448,192,91892,128,0,92063:0:0:0:0:
192,192,92063,128,0,92235:0:0:0:0:
320,192,92235,128,0,92577:0:0:0:0:
448,192,92235,1,0,0:0:0:0:
64,192,92235,1,0,0:0:0:0:
64,192,92406,128,0,92577:0:0:0:0:
192,192,92577,128,0,92749:0:0:0:0:
448,192,92749,128,0,92920:0:0:0:0:
64,192,92749,1,0,0:0:0:0:
192,192,92920,1,0,0:0:0:0:
320,192,92920,128,0,93263:0:0:0:0:
64,192,92920,128,0,93092:0:0:0:0:
192,192,93092,128,0,93263:0:0:0:0:
448,192,93263,128,0,93606:0:0:0:0:
64,192,93263,128,0,93435:0:0:0:0:
320,192,93435,128,0,93606:0:0:0:0:
64,192,93606,1,0,0:0:0:0:
192,192,93606,128,0,93777:0:0:0:0:
448,192,93777,128,0,93949:0:0:0:0:
64,192,93949,128,0,94120:0:0:0:0:
192,192,93949,1,0,0:0:0:0:
320,192,94120,128,0,94292:0:0:0:0:
448,192,94120,1,0,0:0:0:0:
64,192,94292,1,0,0:0:0:0:
192,192,94292,128,0,94635:0:0:0:0:
448,192,94292,128,0,94463:0:0:0:0:
64,192,94463,128,0,94635:0:0:0:0:
320,192,94635,1,0,0:0:0:0:
448,192,94635,128,0,94806:0:0:0:0:
64,192,94806,128,0,94977:0:0:0:0:
192,192,94806,1,0,0:0:0:0:
320,192,94977,128,0,95320:0:0:0:0:
192,192,94977,1,0,0:0:0:0:
448,192,94977,1,0,0:0:0:0:
448,192,95149,128,0,95320:0:0:0:0:
64,192,95320,128,0,95492:0:0:0:0:
192,192,95492,128,0,95663:0:0:0:0:
320,192,95492,1,0,0:0:0:0:
320,192,95663,128,0,95835:0:0:0:0:
64,192,95663,1,0,0:0:0:0:
448,192,95663,128,0,96006:0:0:0:0:
64,192,96006,1,0,0:0:0:0:
64,192,96177,1,0,0:0:0:0:
192,192,96177,1,0,0:0:0:0:
448,192,96177,1,0,0:0:0:0:
320,192,96349,1,0,0:0:0:0:
64,192,96349,1,0,0:0:0:0:
448,192,96349,1,0,0:0:0:0:
64,192,96692,1,0,0:0:0:0:
448,192,96692,1,0,0:0:0:0:
320,192,96692,1,0,0:0:0:0:
448,192,96863,1,0,0:0:0:0:
192,192,96863,1,0,0:0:0:0:
64,192,96863,128,0,97206:0:0:0:0:
320,192,97206,1,0,0:0:0:0:
192,192,97206,1,0,0:0:0:0:
320,192,97377,1,0,0:0:0:0:
192,192,97377,1,0,0:0:0:0:
448,192,97377,128,0,97720:0:0:0:0:
320,192,97720,1,0,0:0:0:0:
64,192,97720,1,0,0:0:0:0:
192,192,97720,1,0,0:0:0:0:
448,192,97892,1,0,0:0:0:0:
320,192,97892,1,0,0:0:0:0:
64,192,97892,128,0,98235:0:0:0:0:
192,192,98235,128,0,98406:0:0:0:0:
320,192,98235,1,0,0:0:0:0:
448,192,98406,128,0,98577:0:0:0:0:
64,192,98406,1,0,0:0:0:0:
320,192,98406,1,0,0:0:0:0:
320,192,98577,128,0,98749:0:0:0:0:
64,192,98749,128,0,99092:0:0:0:0:
192,192,98749,128,0,98920:0:0:0:0:
448,192,98749,1,0,0:0:0:0:
192,192,99092,1,0,0:0:0:0:
320,192,99092,1,0,0:0:0:0:
448,192,99092,128,0,99263:0:0:0:0:
192,192,99263,128,0,99435:0:0:0:0:
448,192,99435,128,0,99606:0:0:0:0:
64,192,99435,1,0,0:0:0:0:
192,192,99606,1,0,0:0:0:0:
320,192,99606,128,0,99777:0:0:0:0:
64,192,99777,1,0,0:0:0:0:
448,192,99777,1,0,0:0:0:0:
192,192,99777,128,0,99949:0:0:0:0:
64,192,99949,128,0,100120:0:0:0:0:
320,192,100120,128,0,100292:0:0:0:0:
448,192,100120,1,0,0:0:0:0:
192,192,100292,128,0,100463:0:0:0:0:
64,192,100292,1,0,0:0:0:0:
320,192,100463,128,0,100635:0:0:0:0:
64,192,100463,1,0,0:0:0:0:
448,192,100463,128,0,100806:0:0:0:0:
64,192,100806,128,0,100977:0:0:0:0:
192,192,100806,1,0,0:0:0:0:
320,192,100977,128,0,101149:0:0:0:0:
448,192,100977,1,0,0:0:0:0:
64,192,101149,128,0,101320:0:0:0:0:
448,192,101149,1,0,0:0:0:0:
192,192,101149,128,0,101492:0:0:0:0:
448,192,101492,128,0,101663:0:0:0:0:
320,192,101492,128,0,101835:0:0:0:0:
64,192,101492,1,0,0:0:0:0:
64,192,101835,128,0,102006:0:0:0:0:
192,192,101835,1,0,0:0:0:0:
448,192,102006,128,0,102177:0:0:0:0:
192,192,102177,128,0,102349:0:0:0:0:
320,192,102177,1,0,0:0:0:0:
448,192,102349,128,0,102520:0:0:0:0:
64,192,102349,1,0,0:0:0:0:
320,192,102520,128,0,102692:0:0:0:0:
64,192,102520,1,0,0:0:0:0:
192,192,102520,1,0,0:0:0:0:
64,192,102692,128,0,102863:0:0:0:0:
192,192,102863,128,0,103035:0:0:0:0:
448,192,102863,1,0,0:0:0:0:
320,192,103035,1,0,0:0:0:0:
448,192,103035,128,0,103206:0:0:0:0:
64,192,103206,128,0,103549:0:0:0:0:
192,192,103206,128,0,103377:0:0:0:0:
320,192,103206,1,0,0:0:0:0:
448,192,103549,128,0,103720:0:0:0:0:
192,192,103720,128,0,103892:0:0:0:0:
320,192,103720,1,0,0:0:0:0:
320,192,103892,1,0,0:0:0:0:
448,192,103892,128,0,104235:0:0:0:0:
64,192,103892,128,0,104063:0:0:0:0:
320,192,104235,128,0,104406:0:0:0:0:
192,192,104235,1,0,0:0:0:0:
64,192,104235,128,0,104577:0:0:0:0:
192,192,104577,128,0,104749:0:0:0:0:
448,192,104577,1,0,0:0:0:0:
320,192,104577,1,0,0:0:0:0:
448,192,104749,128,0,104920:0:0:0:0:
320,192,104920,128,0,105092:0:0:0:0:
64,192,104920,1,0,0:0:0:0:
64,192,105092,128,0,105263:0:0:0:0:
192,192,105092,1,0,0:0:0:0:
448,192,105263,128,0,105435:0:0:0:0:
320,192,105263,1,0,0:0:0:0:
192,192,105263,1,0,0:0:0:0:
192,192,105435,128,0,105606:0:0:0:0:
448,192,105606,128,0,105777:0:0:0:0:
320,192,105606,1,0,0:0:0:0:
64,192,105777,128,0,105949:0:0:0:0:
192,192,105777,1,0,0:0:0:0:
320,192,105949,128,0,106120:0:0:0:0:
448,192,105949,1,0,0:0:0:0:
192,192,105949,128,0,106292:0:0:0:0:
448,192,106292,128,0,106463:0:0:0:0:
64,192,106292,1,0,0:0:0:0:
320,192,106463,128,0,106635:0:0:0:0:
192,192,106463,1,0,0:0:0:0:
192,192,106635,128,0,106806:0:0:0:0:
448,192,106635,1,0,0:0:0:0:
64,192,106635,128,0,106977:0:0:0:0:
448,192,106977,1,0,0:0:0:0:
320,192,106977,1,0,0:0:0:0:
192,192,107063,1,0,0:0:0:0:
64,192,107149,1,0,0:0:0:0:
192,192,107235,1,0,0:0:0:0:
320,192,107320,1,0,0:0:0:0:
448,192,107320,1,0,0:0:0:0:
192,192,107406,1,0,0:0:0:0:
64,192,107492,1,0,0:0:0:0:
448,192,107577,1,0,0:0:0:0:
320,192,107663,1,0,0:0:0:0:
192,192,107663,1,0,0:0:0:0:
64,192,107749,1,0,0:0:0:0:
448,192,107835,1,0,0:0:0:0:
320,192,107835,1,0,0:0:0:0:
192,192,107920,1,0,0:0:0:0:
64,192,108006,1,0,0:0:0:0:
320,192,108006,1,0,0:0:0:0:
448,192,108092,1,0,0:0:0:0:
192,192,108177,1,0,0:0:0:0:
320,192,108263,1,0,0:0:0:0:
448,192,108349,1,0,0:0:0:0:
64,192,108349,1,0,0:0:0:0:
192,192,108435,1,0,0:0:0:0:
320,192,108520,1,0,0:0:0:0:
448,192,108520,1,0,0:0:0:0:
192,192,108606,1,0,0:0:0:0:
64,192,108692,1,0,0:0:0:0:
320,192,108692,1,0,0:0:0:0:
448,192,108777,1,0,0:0:0:0:
192,192,108863,1,0,0:0:0:0:
320,192,108863,1,0,0:0:0:0:
448,192,108949,1,0,0:0:0:0:
192,192,109035,1,0,0:0:0:0:
64,192,109035,128,0,109206:0:0:0:0:
320,192,109120,1,0,0:0:0:0:
192,192,109206,1,0,0:0:0:0:
448,192,109206,128,0,109377:0:0:0:0:
64,192,109292,1,0,0:0:0:0:
192,192,109377,1,0,0:0:0:0:
320,192,109377,128,0,109549:0:0:0:0:
192,192,109549,128,0,109720:0:0:0:0:
64,192,109549,1,0,0:0:0:0:
64,192,109720,1,0,0:0:0:0:
320,192,109720,1,0,0:0:0:0:
448,192,109720,128,0,115206:0:0:0:0:
192,192,109892,1,0,0:0:0:0:
64,192,110063,1,0,0:0:0:0:
192,192,110063,1,0,0:0:0:0:
320,192,110063,1,0,0:0:0:0:
64,192,110235,1,0,0:0:0:0:
320,192,110406,1,0,0:0:0:0:
320,192,110577,1,0,0:0:0:0:
192,192,110577,1,0,0:0:0:0:
64,192,110749,1,0,0:0:0:0:
192,192,110749,1,0,0:0:0:0:
320,192,110749,1,0,0:0:0:0:
64,192,111092,1,0,0:0:0:0:
192,192,111092,1,0,0:0:0:0:
64,192,111263,1,0,0:0:0:0:
64,192,111435,1,0,0:0:0:0:
192,192,111435,1,0,0:0:0:0:
320,192,111435,1,0,0:0:0:0:
192,192,111606,1,0,0:0:0:0:
320,192,111777,1,0,0:0:0:0:
64,192,111949,1,0,0:0:0:0:
192,192,111949,1,0,0:0:0:0:
192,192,112120,1,0,0:0:0:0:
64,192,112120,1,0,0:0:0:0:
320,192,112120,1,0,0:0:0:0:
320,192,112292,1,0,0:0:0:0:
192,192,112463,1,0,0:0:0:0:
64,192,112463,1,0,0:0:0:0:
64,192,112635,1,0,0:0:0:0:
320,192,112806,1,0,0:0:0:0:
192,192,112806,1,0,0:0:0:0:
64,192,112806,1,0,0:0:0:0:
192,192,112977,1,0,0:0:0:0:
320,192,113149,1,0,0:0:0:0:
64,192,113320,1,0,0:0:0:0:
192,192,113320,1,0,0:0:0:0:
192,192,113492,1,0,0:0:0:0:
320,192,113492,1,0,0:0:0:0:
64,192,113492,1,0,0:0:0:0:
192,192,113663,1,0,0:0:0:0:
64,192,113835,1,0,0:0:0:0:
320,192,113835,1,0,0:0:0:0:
192,192,114006,1,0,0:0:0:0:
320,192,114177,1,0,0:0:0:0:
192,192,114177,1,0,0:0:0:0:
64,192,114177,1,0,0:0:0:0:
64,192,114349,1,0,0:0:0:0:
320,192,114520,1,0,0:0:0:0:
320,192,114692,1,0,0:0:0:0:
192,192,114692,1,0,0:0:0:0:
320,192,114863,1,0,0:0:0:0:
192,192,114863,1,0,0:0:0:0:
64,192,114863,1,0,0:0:0:0:
64,192,115035,1,0,0:0:0:0:
192,192,115206,1,0,0:0:0:0:
320,192,115206,1,0,0:0:0:0:
64,192,115377,1,0,0:0:0:0:
448,192,115549,128,0,116235:0:0:0:0:
192,192,115549,1,0,0:0:0:0:
320,192,115549,128,0,115720:0:0:0:0:
64,192,115720,128,0,115892:0:0:0:0:
192,192,115892,128,0,116063:0:0:0:0:
320,192,116063,128,0,116235:0:0:0:0:
64,192,116063,1,0,0:0:0:0:
64,192,116235,128,0,116920:0:0:0:0:
192,192,116235,128,0,116406:0:0:0:0:
448,192,116406,128,0,116577:0:0:0:0:
320,192,116577,128,0,116749:0:0:0:0:
192,192,116577,1,0,0:0:0:0:
192,192,116749,128,0,116920:0:0:0:0:
320,192,116920,128,0,117606:0:0:0:0:
448,192,116920,128,0,117092:0:0:0:0:
64,192,117092,128,0,117263:0:0:0:0:
192,192,117263,128,0,117435:0:0:0:0:
64,192,117435,128,0,117606:0:0:0:0:
448,192,117435,1,0,0:0:0:0:
448,192,117606,128,0,118292:0:0:0:0:
192,192,117606,128,0,117777:0:0:0:0:
320,192,117777,128,0,117949:0:0:0:0:
64,192,117949,128,0,118120:0:0:0:0:
192,192,117949,1,0,0:0:0:0:
320,192,118120,128,0,118292:0:0:0:0:
192,192,118292,128,0,118977:0:0:0:0:
64,192,118292,128,0,118463:0:0:0:0:
448,192,118463,128,0,118635:0:0:0:0:
320,192,118635,128,0,118806:0:0:0:0:
64,192,118806,128,0,118977:0:0:0:0:
448,192,118806,1,0,0:0:0:0:
448,192,118977,128,0,119663:0:0:0:0:
320,192,118977,128,0,119149:0:0:0:0:
192,192,119149,128,0,119320:0:0:0:0:
64,192,119320,128,0,120692:0:0:0:0:
320,192,119320,1,0,0:0:0:0:
320,192,119492,128,0,119663:0:0:0:0:
192,192,119663,1,0,0:0:0:0:
448,192,119835,1,0,0:0:0:0:
320,192,120006,1,0,0:0:0:0:
192,192,120177,1,0,0:0:0:0:
448,192,120177,1,0,0:0:0:0:
448,192,120349,1,0,0:0:0:0:
320,192,120349,1,0,0:0:0:0:
192,192,120349,1,0,0:0:0:0:
320,192,120520,1,0,0:0:0:0:
192,192,120692,1,0,0:0:0:0:
448,192,120692,1,0,0:0:0:0:
320,192,120863,1,0,0:0:0:0:
64,192,121035,1,0,0:0:0:0:
192,192,121035,1,0,0:0:0:0:
448,192,121035,1,0,0:0:0:0:
448,192,121206,1,0,0:0:0:0:
192,192,121377,1,0,0:0:0:0:
320,192,121549,1,0,0:0:0:0:
64,192,121549,1,0,0:0:0:0:
448,192,121720,128,0,122063:0:0:0:0:
64,192,121720,128,0,121892:0:0:0:0:
192,192,121720,1,0,0:0:0:0:
192,192,122063,1,0,0:0:0:0:
320,192,122063,1,0,0:0:0:0:
64,192,122235,1,0,0:0:0:0:
448,192,122406,1,0,0:0:0:0:
320,192,122406,1,0,0:0:0:0:
192,192,122406,1,0,0:0:0:0:
64,192,122577,1,0,0:0:0:0:
192,192,122749,1,0,0:0:0:0:
320,192,122920,1,0,0:0:0:0:
448,192,122920,1,0,0:0:0:0:
448,192,123092,1,0,0:0:0:0:
320,192,123092,1,0,0:0:0:0:
64,192,123092,1,0,0:0:0:0:
192,192,123263,1,0,0:0:0:0:
64,192,123435,1,0,0:0:0:0:
192,192,123435,1,0,0:0:0:0:
448,192,123520,1,0,0:0:0:0:
320,192,123606,1,0,0:0:0:0:
192,192,123606,1,0,0:0:0:0:
64,192,123692,1,0,0:0:0:0:
192,192,123777,1,0,0:0:0:0:
320,192,123777,1,0,0:0:0:0:
448,192,123777,1,0,0:0:0:0:
64,192,123863,1,0,0:0:0:0:
320,192,123949,1,0,0:0:0:0:
448,192,124035,1,0,0:0:0:0:
192,192,124120,1,0,0:0:0:0:
64,192,124206,1,0,0:0:0:0:
448,192,124292,1,0,0:0:0:0:
320,192,124292,1,0,0:0:0:0:
192,192,124377,1,0,0:0:0:0:
64,192,124463,1,0,0:0:0:0:
448,192,124463,1,0,0:0:0:0:
320,192,124463,1,0,0:0:0:0:
192,192,124549,1,0,0:0:0:0:
448,192,124635,1,0,0:0:0:0:
64,192,124720,1,0,0:0:0:0:
192,192,124806,1,0,0:0:0:0:
320,192,124806,1,0,0:0:0:0:
448,192,124892,1,0,0:0:0:0:
64,192,124977,1,0,0:0:0:0:
320,192,124977,1,0,0:0:0:0:
192,192,125063,1,0,0:0:0:0:
64,192,125149,1,0,0:0:0:0:
320,192,125149,1,0,0:0:0:0:
448,192,125149,1,0,0:0:0:0:
192,192,125235,1,0,0:0:0:0:
320,192,125320,1,0,0:0:0:0:
448,192,125406,1,0,0:0:0:0:
64,192,125492,1,0,0:0:0:0:
192,192,125492,1,0,0:0:0:0:
320,192,125577,1,0,0:0:0:0:
192,192,125663,1,0,0:0:0:0:
448,192,125663,1,0,0:0:0:0:
64,192,125749,1,0,0:0:0:0:
192,192,125835,1,0,0:0:0:0:
320,192,125835,1,0,0:0:0:0:
448,192,125835,1,0,0:0:0:0:
64,192,125920,1,0,0:0:0:0:
192,192,126006,1,0,0:0:0:0:
320,192,126092,1,0,0:0:0:0:
448,192,126177,1,0,0:0:0:0:
192,192,126177,1,0,0:0:0:0:
64,192,126263,1,0,0:0:0:0:
192,192,126349,1,0,0:0:0:0:
320,192,126349,1,0,0:0:0:0:
448,192,126435,1,0,0:0:0:0:
320,192,126520,1,0,0:0:0:0:
64,192,126520,1,0,0:0:0:0:
192,192,126520,1,0,0:0:0:0:
448,192,126606,1,0,0:0:0:0:
192,192,126692,1,0,0:0:0:0:
64,192,126692,1,0,0:0:0:0:
320,192,126777,1,0,0:0:0:0:
448,192,126863,1,0,0:0:0:0:
192,192,126863,1,0,0:0:0:0:
64,192,126949,1,0,0:0:0:0:
192,192,127035,1,0,0:0:0:0:
320,192,127035,1,0,0:0:0:0:
448,192,127120,1,0,0:0:0:0:
192,192,127206,1,0,0:0:0:0:
320,192,127206,1,0,0:0:0:0:
64,192,127206,1,0,0:0:0:0:
448,192,127292,1,0,0:0:0:0:
320,192,127377,1,0,0:0:0:0:
192,192,127377,1,0,0:0:0:0:
64,192,127463,1,0,0:0:0:0:
448,192,127549,1,0,0:0:0:0:
320,192,127549,1,0,0:0:0:0:
192,192,127635,1,0,0:0:0:0:
64,192,127720,1,0,0:0:0:0:
448,192,127720,1,0,0:0:0:0:
192,192,127806,1,0,0:0:0:0:
448,192,127892,1,0,0:0:0:0:
320,192,127892,1,0,0:0:0:0:
64,192,127892,1,0,0:0:0:0:
192,192,127977,1,0,0:0:0:0:
64,192,128063,1,0,0:0:0:0:
448,192,128149,1,0,0:0:0:0:
320,192,128235,1,0,0:0:0:0:
64,192,128320,1,0,0:0:0:0:
192,192,128406,1,0,0:0:0:0:
320,192,128406,1,0,0:0:0:0:
448,192,128492,1,0,0:0:0:0:
192,192,128577,1,0,0:0:0:0:
320,192,128577,1,0,0:0:0:0:
64,192,128577,128,0,128920:0:0:0:0:
320,192,128749,128,0,128920:0:0:0:0:
192,192,128920,1,0,0:0:0:0:
448,192,128920,1,0,0:0:0:0:
448,192,129092,1,0,0:0:0:0:
192,192,129092,1,0,0:0:0:0:
64,192,129092,1,0,0:0:0:0:
320,192,129263,1,0,0:0:0:0:
448,192,129263,1,0,0:0:0:0:
64,192,129263,1,0,0:0:0:0:
192,192,129435,1,0,0:0:0:0:
64,192,129435,1,0,0:0:0:0:
320,192,129606,1,0,0:0:0:0:
192,192,129606,1,0,0:0:0:0:
448,192,129606,1,0,0:0:0:0:
320,192,129777,1,0,0:0:0:0:
448,192,129777,1,0,0:0:0:0:
64,192,129777,1,0,0:0:0:0:
64,192,129949,1,0,0:0:0:0:
192,192,129949,1,0,0:0:0:0:
448,192,130120,1,0,0:0:0:0:
320,192,130120,1,0,0:0:0:0:
64,192,130292,1,0,0:0:0:0:
192,192,130292,1,0,0:0:0:0:
320,192,130377,1,0,0:0:0:0:
448,192,130377,1,0,0:0:0:0:
192,192,130463,1,0,0:0:0:0:
64,192,130463,1,0,0:0:0:0:
320,192,130549,1,0,0:0:0:0:
448,192,130549,1,0,0:0:0:0:
64,192,130635,1,0,0:0:0:0:
192,192,130635,1,0,0:0:0:0:
320,192,130720,1,0,0:0:0:0:
448,192,130720,1,0,0:0:0:0:
64,192,130806,1,0,0:0:0:0:
192,192,130806,1,0,0:0:0:0:
320,192,130892,1,0,0:0:0:0:
448,192,130892,1,0,0:0:0:0:
64,192,130977,1,0,0:0:0:0:
192,192,130977,1,0,0:0:0:0:
320,192,131063,1,0,0:0:0:0:
448,192,131063,1,0,0:0:0:0:
64,192,131149,1,0,0:0:0:0:
192,192,131149,1,0,0:0:0:0:
320,192,131235,1,0,0:0:0:0:
448,192,131235,1,0,0:0:0:0:
192,192,131320,1,0,0:0:0:0:
64,192,131320,1,0,0:0:0:0:
64,192,131492,1,0,0:0:0:0:
448,192,131492,1,0,0:0:0:0:
320,192,131492,1,0,0:0:0:0:
192,192,131663,1,0,0:0:0:0:
448,192,131663,1,0,0:0:0:0:
320,192,131663,1,0,0:0:0:0:
64,192,131835,1,0,0:0:0:0:
320,192,131835,1,0,0:0:0:0:
192,192,132006,5,0,0:0:0:0:
448,192,132006,1,0,0:0:0:0:
64,192,132177,1,0,0:0:0:0:
192,192,132177,1,0,0:0:0:0:
320,192,132177,1,0,0:0:0:0:
320,192,132349,1,0,0:0:0:0:
448,192,132349,1,0,0:0:0:0:
64,192,132520,1,0,0:0:0:0:
192,192,132520,1,0,0:0:0:0:
320,192,132692,1,0,0:0:0:0:
448,192,132692,1,0,0:0:0:0:
192,192,132692,1,0,0:0:0:0:
64,192,132863,1,0,0:0:0:0:
448,192,132863,1,0,0:0:0:0:
320,192,133035,128,0,142292:0:0:0:0:
192,192,133035,128,0,142292:0:0:0:0:
448,192,142292,128,0,153606:0:0:0:0:
64,192,142292,128,0,153606:0:0:0:0:
448,192,160463,5,0,0:0:0:0:
64,192,160806,128,0,168692:0:0:0:0:
320,192,165949,1,0,0:0:0:0:
192,192,168692,1,0,0:0:0:0:
448,192,169035,128,0,170749:0:0:0:0:
320,192,170749,128,0,171777:0:0:0:0:
64,192,171777,128,0,172977:0:0:0:0:
448,192,172977,128,0,174349:0:0:0:0:
192,192,174349,128,0,175720:0:0:0:0:
64,192,175720,128,0,177092:0:0:0:0:
192,192,177092,128,0,178463:0:0:0:0:
320,192,178463,128,0,179835:0:0:0:0:
448,192,179835,128,0,181377:0:0:0:0:
320,192,181377,128,0,182577:0:0:0:0:
64,192,182577,128,0,183949:0:0:0:0:
448,192,183949,128,0,185320:0:0:0:0:
320,192,185320,128,0,186692:0:0:0:0:
448,192,186692,128,0,188063:0:0:0:0:
64,192,188063,128,0,188749:0:0:0:0:
192,192,188749,128,0,189435:0:0:0:0:
320,192,189435,128,0,190013:0:0:0:0:
448,192,190013,128,0,190870:0:0:0:0:
64,192,190870,128,0,192520:0:0:0:0:
192,192,192520,128,0,193549:0:0:0:0:
448,192,193549,128,0,196292:0:0:0:0:
192,192,196292,128,0,199035:0:0:0:0:
320,192,199035,128,0,201606:0:0:0:0:
64,192,200406,128,0,201606:0:0:0:0:
64,192,204349,5,0,0:0:0:0:
192,192,204349,1,0,0:0:0:0:
192,192,204520,1,0,0:0:0:0:
320,192,204692,1,0,0:0:0:0:
448,192,204863,1,0,0:0:0:0:
192,192,205206,1,0,0:0:0:0:
320,192,205377,1,0,0:0:0:0:
448,192,205549,1,0,0:0:0:0:
192,192,205892,1,0,0:0:0:0:
320,192,206063,1,0,0:0:0:0:
448,192,206235,1,0,0:0:0:0:
192,192,206577,1,0,0:0:0:0:
320,192,206749,1,0,0:0:0:0:
448,192,206920,1,0,0:0:0:0:
64,192,207092,1,0,0:0:0:0:
192,192,207263,1,0,0:0:0:0:
320,192,207435,1,0,0:0:0:0:
448,192,207606,1,0,0:0:0:0:
192,192,207777,1,0,0:0:0:0:
64,192,207949,1,0,0:0:0:0:
320,192,208120,1,0,0:0:0:0:
448,192,208292,1,0,0:0:0:0:
192,192,208463,1,0,0:0:0:0:
64,192,208635,1,0,0:0:0:0:
192,192,208806,1,0,0:0:0:0:
320,192,208977,1,0,0:0:0:0:
64,192,209149,1,0,0:0:0:0:
320,192,209320,1,0,0:0:0:0:
192,192,209492,1,0,0:0:0:0:
448,192,209663,1,0,0:0:0:0:
320,192,209835,1,0,0:0:0:0:
192,192,210006,1,0,0:0:0:0:
64,192,210177,1,0,0:0:0:0:
320,192,210349,1,0,0:0:0:0:
448,192,210520,1,0,0:0:0:0:
192,192,210692,1,0,0:0:0:0:
320,192,210863,1,0,0:0:0:0:
64,192,211035,1,0,0:0:0:0:
192,192,211206,1,0,0:0:0:0:
448,192,211377,1,0,0:0:0:0:
320,192,211549,1,0,0:0:0:0:
64,192,211720,1,0,0:0:0:0:
192,192,211892,1,0,0:0:0:0:
320,192,212063,1,0,0:0:0:0:
448,192,212235,1,0,0:0:0:0:
192,192,212406,1,0,0:0:0:0:
320,192,212577,1,0,0:0:0:0:
64,192,212749,1,0,0:0:0:0:
192,192,212920,1,0,0:0:0:0:
448,192,213092,1,0,0:0:0:0:
64,192,213263,1,0,0:0:0:0:
320,192,213435,1,0,0:0:0:0:
192,192,213606,1,0,0:0:0:0:
448,192,213777,1,0,0:0:0:0:
320,192,213949,1,0,0:0:0:0:
192,192,214120,1,0,0:0:0:0:
64,192,214292,1,0,0:0:0:0:
448,192,214463,1,0,0:0:0:0:
192,192,214635,1,0,0:0:0:0:
320,192,214806,1,0,0:0:0:0:
64,192,214977,1,0,0:0:0:0:
448,192,215149,1,0,0:0:0:0:
192,192,215320,1,0,0:0:0:0:
64,192,215492,1,0,0:0:0:0:
320,192,215663,1,0,0:0:0:0:
448,192,215835,1,0,0:0:0:0:
64,192,216006,1,0,0:0:0:0:
192,192,216177,1,0,0:0:0:0:
320,192,216349,1,0,0:0:0:0:
448,192,216520,1,0,0:0:0:0:
192,192,216692,1,0,0:0:0:0:
64,192,216863,1,0,0:0:0:0:
192,192,217035,1,0,0:0:0:0:
448,192,217206,1,0,0:0:0:0:
320,192,217377,1,0,0:0:0:0:
64,192,217549,1,0,0:0:0:0:
192,192,217720,1,0,0:0:0:0:
448,192,217892,1,0,0:0:0:0:
64,192,218063,1,0,0:0:0:0:
320,192,218235,1,0,0:0:0:0:
192,192,218406,1,0,0:0:0:0:
448,192,218577,1,0,0:0:0:0:
320,192,218749,1,0,0:0:0:0:
64,192,218920,1,0,0:0:0:0:
192,192,219092,1,0,0:0:0:0:
448,192,219263,1,0,0:0:0:0:
64,192,219435,1,0,0:0:0:0:
192,192,219606,1,0,0:0:0:0:
320,192,219777,1,0,0:0:0:0:
448,192,219949,1,0,0:0:0:0:
192,192,220120,1,0,0:0:0:0:
320,192,220292,1,0,0:0:0:0:
192,192,220463,1,0,0:0:0:0:
448,192,220635,1,0,0:0:0:0:
320,192,220806,1,0,0:0:0:0:
192,192,220977,1,0,0:0:0:0:
64,192,221149,1,0,0:0:0:0:
448,192,221320,1,0,0:0:0:0:
192,192,221492,1,0,0:0:0:0:
320,192,221663,1,0,0:0:0:0:
64,192,221835,1,0,0:0:0:0:
448,192,222006,1,0,0:0:0:0:
64,192,222177,1,0,0:0:0:0:
192,192,222349,1,0,0:0:0:0:
320,192,222520,1,0,0:0:0:0:
448,192,222692,1,0,0:0:0:0:
192,192,222863,1,0,0:0:0:0:
320,192,223035,1,0,0:0:0:0:
192,192,223206,1,0,0:0:0:0:
448,192,223377,1,0,0:0:0:0:
64,192,223549,1,0,0:0:0:0:
192,192,223549,1,0,0:0:0:0:
192,192,223720,1,0,0:0:0:0:
320,192,223892,1,0,0:0:0:0:
448,192,224063,1,0,0:0:0:0:
64,192,224235,1,0,0:0:0:0:
320,192,224406,1,0,0:0:0:0:
192,192,224577,1,0,0:0:0:0:
448,192,224749,1,0,0:0:0:0:
320,192,224920,1,0,0:0:0:0:
192,192,225092,1,0,0:0:0:0:
64,192,225263,1,0,0:0:0:0:
448,192,225435,1,0,0:0:0:0:
192,192,225606,1,0,0:0:0:0:
64,192,225777,1,0,0:0:0:0:
192,192,225949,1,0,0:0:0:0:
320,192,226120,1,0,0:0:0:0:
64,192,226292,1,0,0:0:0:0:
448,192,226292,1,0,0:0:0:0:
448,192,226463,1,0,0:0:0:0:
64,192,226463,1,0,0:0:0:0:
192,192,226635,1,0,0:0:0:0:
448,192,226806,1,0,0:0:0:0:
320,192,226977,1,0,0:0:0:0:
192,192,227149,1,0,0:0:0:0:
64,192,227320,1,0,0:0:0:0:
320,192,227492,1,0,0:0:0:0:
192,192,227663,1,0,0:0:0:0:
448,192,227835,1,0,0:0:0:0:
64,192,228006,1,0,0:0:0:0:
320,192,228177,1,0,0:0:0:0:
64,192,228349,1,0,0:0:0:0:
192,192,228520,1,0,0:0:0:0:
320,192,228692,1,0,0:0:0:0:
448,192,228863,1,0,0:0:0:0:
192,192,229035,1,0,0:0:0:0:
64,192,229206,1,0,0:0:0:0:
320,192,229377,1,0,0:0:0:0:
448,192,229549,1,0,0:0:0:0:
192,192,229720,1,0,0:0:0:0:
64,192,229892,1,0,0:0:0:0:
192,192,230063,1,0,0:0:0:0:
320,192,230235,1,0,0:0:0:0:
192,192,230406,1,0,0:0:0:0:
448,192,230406,1,0,0:0:0:0:
448,192,230577,1,0,0:0:0:0:
192,192,230577,1,0,0:0:0:0:
64,192,230749,1,0,0:0:0:0:
320,192,230920,1,0,0:0:0:0:
192,192,231092,1,0,0:0:0:0:
64,192,231263,1,0,0:0:0:0:
192,192,231435,1,0,0:0:0:0:
320,192,231606,1,0,0:0:0:0:
64,192,231777,1,0,0:0:0:0:
448,192,231777,1,0,0:0:0:0:
448,192,231949,1,0,0:0:0:0:
64,192,231949,1,0,0:0:0:0:
320,192,232120,1,0,0:0:0:0:
448,192,232292,128,0,232463:0:0:0:0:
192,192,232463,1,0,0:0:0:0:
320,192,232635,1,0,0:0:0:0:
64,192,232806,1,0,0:0:0:0:
448,192,232977,128,0,233149:0:0:0:0:
192,192,233149,1,0,0:0:0:0:
64,192,233320,1,0,0:0:0:0:
192,192,233492,1,0,0:0:0:0:
320,192,233663,128,0,233835:0:0:0:0:
64,192,233835,1,0,0:0:0:0:
192,192,234006,1,0,0:0:0:0:
320,192,234177,1,0,0:0:0:0:
448,192,234349,128,0,234520:0:0:0:0:
64,192,234520,1,0,0:0:0:0:
320,192,234692,1,0,0:0:0:0:
192,192,234863,1,0,0:0:0:0:
320,192,235035,128,0,235377:0:0:0:0:
64,192,235206,1,0,0:0:0:0:
192,192,235377,1,0,0:0:0:0:
320,192,235549,1,0,0:0:0:0:
448,192,235720,128,0,236063:0:0:0:0:
192,192,235892,1,0,0:0:0:0:
64,192,235892,1,0,0:0:0:0:
64,192,236063,1,0,0:0:0:0:
192,192,236063,1,0,0:0:0:0:
320,192,236235,1,0,0:0:0:0:
192,192,236406,128,0,236749:0:0:0:0:
64,192,236577,1,0,0:0:0:0:
320,192,236749,1,0,0:0:0:0:
64,192,236920,1,0,0:0:0:0:
320,192,237092,128,0,237435:0:0:0:0:
192,192,237263,1,0,0:0:0:0:
448,192,237263,1,0,0:0:0:0:
192,192,237435,1,0,0:0:0:0:
448,192,237435,1,0,0:0:0:0:
64,192,237606,128,0,237949:0:0:0:0:
192,192,237777,128,0,238120:0:0:0:0:
448,192,237949,128,0,238292:0:0:0:0:
320,192,238120,1,0,0:0:0:0:
64,192,238292,1,0,0:0:0:0:
192,192,238463,128,0,238806:0:0:0:0:
64,192,238635,128,0,238977:0:0:0:0:
448,192,238806,128,0,239149:0:0:0:0:
320,192,238977,1,0,0:0:0:0:
192,192,239149,1,0,0:0:0:0:
64,192,239320,128,0,239663:0:0:0:0:
320,192,239492,128,0,239835:0:0:0:0:
192,192,239663,128,0,240006:0:0:0:0:
448,192,239835,128,0,240177:0:0:0:0:
64,192,240006,1,0,0:0:0:0:
320,192,240006,1,0,0:0:0:0:
192,192,240177,128,0,240520:0:0:0:0:
64,192,240349,128,0,240692:0:0:0:0:
320,192,240520,128,0,240863:0:0:0:0:
448,192,240692,128,0,241035:0:0:0:0:
192,192,240863,1,0,0:0:0:0:
64,192,241035,1,0,0:0:0:0:
448,192,241206,1,0,0:0:0:0:
64,192,241377,1,0,0:0:0:0:
320,192,241377,1,0,0:0:0:0:
192,192,241377,128,0,241720:0:0:0:0:
320,192,241549,1,0,0:0:0:0:
64,192,241549,1,0,0:0:0:0:
64,192,241720,128,0,242063:0:0:0:0:
320,192,241892,128,0,242235:0:0:0:0:
448,192,242063,128,0,242406:0:0:0:0:
192,192,242235,1,0,0:0:0:0:
64,192,242406,128,0,242749:0:0:0:0:
320,192,242577,128,0,242920:0:0:0:0:
192,192,242749,128,0,243092:0:0:0:0:
64,192,242920,128,0,243263:0:0:0:0:
320,192,243092,128,0,243435:0:0:0:0:
192,192,243263,128,0,243606:0:0:0:0:
448,192,243435,128,0,243777:0:0:0:0:
320,192,243606,128,0,243949:0:0:0:0:
64,192,243777,128,0,244120:0:0:0:0:
192,192,243949,128,0,244292:0:0:0:0:
448,192,244120,128,0,244463:0:0:0:0:
320,192,244292,128,0,244635:0:0:0:0:
64,192,244463,128,0,244806:0:0:0:0:
192,192,244635,128,0,244977:0:0:0:0:
448,192,244806,128,0,245149:0:0:0:0:
320,192,244977,128,0,245320:0:0:0:0:
64,192,245149,128,0,245492:0:0:0:0:
192,192,245320,128,0,245663:0:0:0:0:
448,192,245492,1,0,0:0:0:0:
320,192,245492,1,0,0:0:0:0:
320,192,245663,1,0,0:0:0:0:
448,192,245663,128,0,248235:0:0:0:0:
320,192,245835,128,0,249606:0:0:0:0:
192,192,246177,128,0,248235:0:0:0:0:
64,192,246520,128,0,248235:0:0:0:0:
64,192,249606,1,0,0:0:0:0:
448,192,249606,1,0,0:0:0:0:
192,192,249606,128,0,252349:0:0:0:0:
64,192,249777,1,0,0:0:0:0:
448,192,249949,1,0,0:0:0:0:
448,192,250120,1,0,0:0:0:0:
64,192,250292,1,0,0:0:0:0:
320,192,250292,1,0,0:0:0:0:
320,192,250463,1,0,0:0:0:0:
64,192,250635,1,0,0:0:0:0:
64,192,250806,1,0,0:0:0:0:
320,192,250977,1,0,0:0:0:0:
448,192,250977,1,0,0:0:0:0:
448,192,251149,1,0,0:0:0:0:
320,192,251320,1,0,0:0:0:0:
320,192,251492,1,0,0:0:0:0:
448,192,251663,1,0,0:0:0:0:
64,192,251663,1,0,0:0:0:0:
64,192,251835,1,0,0:0:0:0:
320,192,252006,1,0,0:0:0:0:
320,192,252177,1,0,0:0:0:0:
448,192,252349,128,0,253720:0:0:0:0:
64,192,252349,1,0,0:0:0:0:
64,192,252520,1,0,0:0:0:0:
192,192,252692,1,0,0:0:0:0:
192,192,252863,1,0,0:0:0:0:
64,192,253035,1,0,0:0:0:0:
320,192,253035,1,0,0:0:0:0:
320,192,253206,1,0,0:0:0:0:
192,192,253377,1,0,0:0:0:0:
192,192,253549,1,0,0:0:0:0:
64,192,253720,128,0,255092:0:0:0:0:
320,192,253720,1,0,0:0:0:0:
320,192,253892,1,0,0:0:0:0:
448,192,254063,1,0,0:0:0:0:
448,192,254235,1,0,0:0:0:0:
320,192,254406,1,0,0:0:0:0:
192,192,254406,1,0,0:0:0:0:
192,192,254577,1,0,0:0:0:0:
448,192,254749,1,0,0:0:0:0:
448,192,254920,1,0,0:0:0:0:
320,192,255092,128,0,257835:0:0:0:0:
192,192,255092,1,0,0:0:0:0:
192,192,255263,1,0,0:0:0:0:
448,192,255435,1,0,0:0:0:0:
448,192,255606,1,0,0:0:0:0:
64,192,255777,1,0,0:0:0:0:
192,192,255777,1,0,0:0:0:0:
64,192,255949,1,0,0:0:0:0:
192,192,256120,1,0,0:0:0:0:
192,192,256292,1,0,0:0:0:0:
448,192,256463,1,0,0:0:0:0:
64,192,256463,1,0,0:0:0:0:
64,192,256635,1,0,0:0:0:0:
448,192,256806,1,0,0:0:0:0:
448,192,256977,1,0,0:0:0:0:
64,192,257149,1,0,0:0:0:0:
192,192,257149,1,0,0:0:0:0:
64,192,257320,1,0,0:0:0:0:
192,192,257492,1,0,0:0:0:0:
192,192,257663,1,0,0:0:0:0:
448,192,257835,128,0,259206:0:0:0:0:
64,192,257835,1,0,0:0:0:0:
64,192,258006,1,0,0:0:0:0:
192,192,258177,1,0,0:0:0:0:
320,192,258177,1,0,0:0:0:0:
320,192,258349,1,0,0:0:0:0:
192,192,258520,1,0,0:0:0:0:
64,192,258520,1,0,0:0:0:0:
64,192,258692,1,0,0:0:0:0:
192,192,258863,1,0,0:0:0:0:
192,192,259035,1,0,0:0:0:0:
64,192,259206,128,0,260577:0:0:0:0:
320,192,259206,1,0,0:0:0:0:
320,192,259377,1,0,0:0:0:0:
192,192,259549,1,0,0:0:0:0:
192,192,259720,1,0,0:0:0:0:
320,192,259892,1,0,0:0:0:0:
448,192,259892,1,0,0:0:0:0:
448,192,260063,1,0,0:0:0:0:
320,192,260235,1,0,0:0:0:0:
320,192,260406,1,0,0:0:0:0:
192,192,260577,128,0,263320:0:0:0:0:
448,192,260577,1,0,0:0:0:0:
448,192,260749,1,0,0:0:0:0:
64,192,260920,1,0,0:0:0:0:
64,192,261092,1,0,0:0:0:0:
448,192,261263,1,0,0:0:0:0:
320,192,261263,1,0,0:0:0:0:
320,192,261435,1,0,0:0:0:0:
64,192,261606,1,0,0:0:0:0:
64,192,261777,1,0,0:0:0:0:
320,192,261949,1,0,0:0:0:0:
448,192,261949,1,0,0:0:0:0:
448,192,262120,1,0,0:0:0:0:
320,192,262292,1,0,0:0:0:0:
320,192,262463,1,0,0:0:0:0:
64,192,262635,1,0,0:0:0:0:
448,192,262635,1,0,0:0:0:0:
64,192,262806,1,0,0:0:0:0:
320,192,262977,1,0,0:0:0:0:
320,192,263149,1,0,0:0:0:0:
448,192,263320,128,0,264692:0:0:0:0:
64,192,263320,1,0,0:0:0:0:
64,192,263492,1,0,0:0:0:0:
320,192,263663,1,0,0:0:0:0:
320,192,263835,1,0,0:0:0:0:
64,192,264006,1,0,0:0:0:0:
192,192,264006,1,0,0:0:0:0:
64,192,264177,1,0,0:0:0:0:
192,192,264349,1,0,0:0:0:0:
192,192,264520,1,0,0:0:0:0:
64,192,264692,128,0,266063:0:0:0:0:
320,192,264692,1,0,0:0:0:0:
320,192,264863,1,0,0:0:0:0:
448,192,265035,1,0,0:0:0:0:
448,192,265206,1,0,0:0:0:0:
320,192,265377,1,0,0:0:0:0:
192,192,265377,1,0,0:0:0:0:
192,192,265549,1,0,0:0:0:0:
448,192,265720,1,0,0:0:0:0:
448,192,265892,1,0,0:0:0:0:
320,192,266063,128,0,268806:0:0:0:0:
192,192,266063,1,0,0:0:0:0:
192,192,266235,1,0,0:0:0:0:
64,192,266406,1,0,0:0:0:0:
64,192,266577,1,0,0:0:0:0:
192,192,266749,1,0,0:0:0:0:
448,192,266749,1,0,0:0:0:0:
448,192,266920,1,0,0:0:0:0:
64,192,267092,1,0,0:0:0:0:
64,192,267263,1,0,0:0:0:0:
192,192,267435,1,0,0:0:0:0:
448,192,267435,1,0,0:0:0:0:
192,192,267606,1,0,0:0:0:0:
448,192,267777,1,0,0:0:0:0:
448,192,267949,1,0,0:0:0:0:
64,192,268120,1,0,0:0:0:0:
192,192,268120,1,0,0:0:0:0:
192,192,268292,1,0,0:0:0:0:
64,192,268463,1,0,0:0:0:0:
64,192,268635,1,0,0:0:0:0:
448,192,268806,128,0,270177:0:0:0:0:
192,192,268806,1,0,0:0:0:0:
192,192,268977,1,0,0:0:0:0:
320,192,269149,1,0,0:0:0:0:
320,192,269320,1,0,0:0:0:0:
64,192,269492,1,0,0:0:0:0:
192,192,269492,1,0,0:0:0:0:
64,192,269663,1,0,0:0:0:0:
320,192,269835,1,0,0:0:0:0:
320,192,270006,1,0,0:0:0:0:
64,192,270177,128,0,271549:0:0:0:0:
192,192,270177,1,0,0:0:0:0:
192,192,270349,1,0,0:0:0:0:
448,192,270520,1,0,0:0:0:0:
448,192,270692,1,0,0:0:0:0:
192,192,270863,1,0,0:0:0:0:
320,192,270863,1,0,0:0:0:0:
192,192,271035,1,0,0:0:0:0:
448,192,271206,1,0,0:0:0:0:
448,192,271377,1,0,0:0:0:0:
192,192,271549,128,0,274292:0:0:0:0:
320,192,271549,1,0,0:0:0:0:
320,192,271720,1,0,0:0:0:0:
64,192,271892,1,0,0:0:0:0:
64,192,272063,1,0,0:0:0:0:
320,192,272235,1,0,0:0:0:0:
448,192,272235,1,0,0:0:0:0:
448,192,272406,1,0,0:0:0:0:
64,192,272577,1,0,0:0:0:0:
64,192,272749,1,0,0:0:0:0:
320,192,272920,1,0,0:0:0:0:
448,192,272920,1,0,0:0:0:0:
320,192,273092,1,0,0:0:0:0:
448,192,273263,1,0,0:0:0:0:
448,192,273435,1,0,0:0:0:0:
64,192,273606,1,0,0:0:0:0:
320,192,273606,1,0,0:0:0:0:
64,192,273777,1,0,0:0:0:0:
320,192,273949,1,0,0:0:0:0:
320,192,274120,1,0,0:0:0:0:
64,192,274292,128,0,277035:0:0:0:0:
448,192,274292,1,0,0:0:0:0:
448,192,274463,1,0,0:0:0:0:
320,192,274635,1,0,0:0:0:0:
320,192,274806,1,0,0:0:0:0:
192,192,274977,1,0,0:0:0:0:
448,192,274977,1,0,0:0:0:0:
192,192,275149,1,0,0:0:0:0:
448,192,275320,1,0,0:0:0:0:
448,192,275492,1,0,0:0:0:0:
192,192,275663,1,0,0:0:0:0:
320,192,275663,1,0,0:0:0:0:
320,192,275835,1,0,0:0:0:0:
192,192,276006,1,0,0:0:0:0:
192,192,276177,1,0,0:0:0:0:
320,192,276349,1,0,0:0:0:0:
448,192,276349,1,0,0:0:0:0:
448,192,276520,1,0,0:0:0:0:
192,192,276692,1,0,0:0:0:0:
192,192,276863,1,0,0:0:0:0:
320,192,277035,128,0,279777:0:0:0:0:
448,192,277035,1,0,0:0:0:0:
448,192,277206,1,0,0:0:0:0:
64,192,277377,1,0,0:0:0:0:
64,192,277549,1,0,0:0:0:0:
192,192,277720,1,0,0:0:0:0:
448,192,277720,1,0,0:0:0:0:
192,192,277892,1,0,0:0:0:0:
64,192,278063,1,0,0:0:0:0:
64,192,278235,1,0,0:0:0:0:
192,192,278406,1,0,0:0:0:0:
448,192,278406,1,0,0:0:0:0:
448,192,278577,1,0,0:0:0:0:
192,192,278749,1,0,0:0:0:0:
192,192,278920,1,0,0:0:0:0:
64,192,279092,1,0,0:0:0:0:
448,192,279092,1,0,0:0:0:0:
64,192,279263,1,0,0:0:0:0:
192,192,279435,1,0,0:0:0:0:
192,192,279606,1,0,0:0:0:0:
448,192,279777,128,0,282520:0:0:0:0:
64,192,279777,1,0,0:0:0:0:
64,192,279949,1,0,0:0:0:0:
320,192,280120,1,0,0:0:0:0:
320,192,280292,1,0,0:0:0:0:
64,192,280463,1,0,0:0:0:0:
192,192,280463,1,0,0:0:0:0:
192,192,280635,1,0,0:0:0:0:
320,192,280806,1,0,0:0:0:0:
320,192,280977,1,0,0:0:0:0:
192,192,281149,1,0,0:0:0:0:
64,192,281149,1,0,0:0:0:0:
64,192,281320,1,0,0:0:0:0:
192,192,281492,1,0,0:0:0:0:
192,192,281663,1,0,0:0:0:0:
64,192,281835,1,0,0:0:0:0:
320,192,281835,1,0,0:0:0:0:
320,192,282006,1,0,0:0:0:0:
64,192,282177,1,0,0:0:0:0:
64,192,282349,1,0,0:0:0:0:
320,192,282520,128,0,285263:0:0:0:0:
192,192,282520,1,0,0:0:0:0:
192,192,282692,1,0,0:0:0:0:
64,192,282863,1,0,0:0:0:0:
64,192,283035,1,0,0:0:0:0:
192,192,283206,1,0,0:0:0:0:
448,192,283206,1,0,0:0:0:0:
448,192,283377,1,0,0:0:0:0:
192,192,283549,1,0,0:0:0:0:
192,192,283720,1,0,0:0:0:0:
448,192,283892,1,0,0:0:0:0:
64,192,283892,1,0,0:0:0:0:
64,192,284063,1,0,0:0:0:0:
192,192,284235,1,0,0:0:0:0:
192,192,284406,1,0,0:0:0:0:
64,192,284577,1,0,0:0:0:0:
448,192,284577,1,0,0:0:0:0:
448,192,284749,1,0,0:0:0:0:
64,192,284920,1,0,0:0:0:0:
64,192,285092,1,0,0:0:0:0:
192,192,285263,128,0,286635:0:0:0:0:
448,192,285263,1,0,0:0:0:0:
448,192,285435,1,0,0:0:0:0:
64,192,285606,1,0,0:0:0:0:
64,192,285777,1,0,0:0:0:0:
320,192,285949,1,0,0:0:0:0:
448,192,285949,1,0,0:0:0:0:
320,192,286120,1,0,0:0:0:0:
448,192,286292,1,0,0:0:0:0:
448,192,286463,1,0,0:0:0:0:
64,192,286635,128,0,288006:0:0:0:0:
320,192,286635,1,0,0:0:0:0:
320,192,286806,1,0,0:0:0:0:
192,192,286977,1,0,0:0:0:0:
192,192,287149,1,0,0:0:0:0:
448,192,287320,1,0,0:0:0:0:
320,192,287320,1,0,0:0:0:0:
448,192,287492,1,0,0:0:0:0:
192,192,287663,1,0,0:0:0:0:
192,192,287835,1,0,0:0:0:0:
320,192,288006,128,0,290749:0:0:0:0:
448,192,288006,1,0,0:0:0:0:
448,192,288177,1,0,0:0:0:0:
64,192,288349,1,0,0:0:0:0:
64,192,288520,1,0,0:0:0:0:
192,192,288692,1,0,0:0:0:0:
448,192,288692,1,0,0:0:0:0:
192,192,288863,1,0,0:0:0:0:
448,192,289035,1,0,0:0:0:0:
448,192,289206,1,0,0:0:0:0:
64,192,289377,1,0,0:0:0:0:
192,192,289377,1,0,0:0:0:0:
64,192,289549,1,0,0:0:0:0:
192,192,289720,1,0,0:0:0:0:
192,192,289892,1,0,0:0:0:0:
448,192,290063,1,0,0:0:0:0:
64,192,290063,1,0,0:0:0:0:
448,192,290235,1,0,0:0:0:0:
64,192,290406,1,0,0:0:0:0:
64,192,290577,1,0,0:0:0:0:
448,192,290749,128,0,293492:0:0:0:0:
192,192,290749,1,0,0:0:0:0:
320,192,290920,1,0,0:0:0:0:
320,192,291092,1,0,0:0:0:0:
320,192,291263,1,0,0:0:0:0:
64,192,291606,1,0,0:0:0:0:
64,192,291777,1,0,0:0:0:0:
64,192,291949,1,0,0:0:0:0:
192,192,292292,1,0,0:0:0:0:
192,192,292463,1,0,0:0:0:0:
192,192,292635,1,0,0:0:0:0:
320,192,292977,1,0,0:0:0:0:
192,192,293149,1,0,0:0:0:0:
64,192,293320,1,0,0:0:0:0:
320,192,293492,128,0,296235:0:0:0:0:
64,192,293492,1,0,0:0:0:0:
64,192,293835,1,0,0:0:0:0:
192,192,294177,1,0,0:0:0:0:
64,192,294520,1,0,0:0:0:0:
448,192,294863,1,0,0:0:0:0:
64,192,295206,1,0,0:0:0:0:
448,192,295549,1,0,0:0:0:0:
192,192,295892,1,0,0:0:0:0:
192,192,296235,128,0,297606:0:0:0:0:
448,192,296577,1,0,0:0:0:0:
320,192,296920,1,0,0:0:0:0:
448,192,297263,1,0,0:0:0:0:
64,192,297606,128,0,298977:0:0:0:0:
320,192,298977,128,0,301720:0:0:0:0:
192,192,299320,1,0,0:0:0:0:
64,192,299663,1,0,0:0:0:0:
192,192,300006,1,0,0:0:0:0:
448,192,300349,1,0,0:0:0:0:
192,192,300692,1,0,0:0:0:0:
64,192,301035,1,0,0:0:0:0:
448,192,301377,1,0,0:0:0:0:
192,192,301720,128,0,303092:0:0:0:0:
448,192,302063,1,0,0:0:0:0:
320,192,302406,1,0,0:0:0:0:
64,192,302749,1,0,0:0:0:0:
448,192,303092,128,0,304463:0:0:0:0:
320,192,304463,128,0,307206:0:0:0:0:
64,192,304806,1,0,0:0:0:0:
192,192,305149,1,0,0:0:0:0:
64,192,305492,1,0,0:0:0:0:
448,192,305835,1,0,0:0:0:0:
64,192,306177,1,0,0:0:0:0:
448,192,306520,1,0,0:0:0:0:
192,192,306863,1,0,0:0:0:0:
192,192,307206,128,0,308577:0:0:0:0:
448,192,307549,1,0,0:0:0:0:
320,192,307892,1,0,0:0:0:0:
448,192,308235,1,0,0:0:0:0:
64,192,308577,128,0,309949:0:0:0:0:
320,192,309949,128,0,312692:0:0:0:0:
192,192,310292,1,0,0:0:0:0:
64,192,310635,1,0,0:0:0:0:
192,192,310977,1,0,0:0:0:0:
64,192,311320,1,0,0:0:0:0:
192,192,311663,1,0,0:0:0:0:
448,192,312006,1,0,0:0:0:0:
64,192,312349,1,0,0:0:0:0:
192,192,312692,128,0,314063:0:0:0:0:
448,192,313035,1,0,0:0:0:0:
320,192,313377,1,0,0:0:0:0:
64,192,313720,1,0,0:0:0:0:
448,192,314063,128,0,315435:0:0:0:0:
192,192,315435,1,0,0:0:0:0:
64,192,315435,1,0,0:0:0:0:
448,192,315606,1,0,0:0:0:0:
192,192,315777,1,0,0:0:0:0:
320,192,315777,1,0,0:0:0:0:
192,192,315949,1,0,0:0:0:0:
448,192,316120,1,0,0:0:0:0:
64,192,316120,1,0,0:0:0:0:
320,192,316292,1,0,0:0:0:0:
192,192,316463,1,0,0:0:0:0:
64,192,316463,1,0,0:0:0:0:
192,192,316635,1,0,0:0:0:0:
320,192,316806,1,0,0:0:0:0:
448,192,316806,1,0,0:0:0:0:
64,192,316977,1,0,0:0:0:0:
192,192,317149,1,0,0:0:0:0:
320,192,317149,1,0,0:0:0:0:
320,192,317320,1,0,0:0:0:0:
448,192,317492,1,0,0:0:0:0:
64,192,317492,1,0,0:0:0:0:
192,192,317663,1,0,0:0:0:0:
448,192,317835,1,0,0:0:0:0:
64,192,317835,1,0,0:0:0:0:
320,192,318006,1,0,0:0:0:0:
448,192,318006,1,0,0:0:0:0:
192,192,318177,1,0,0:0:0:0:
64,192,318177,1,0,0:0:0:0:
448,192,318349,1,0,0:0:0:0:
320,192,318520,1,0,0:0:0:0:
192,192,318520,1,0,0:0:0:0:
64,192,318692,1,0,0:0:0:0:
320,192,318863,1,0,0:0:0:0:
448,192,318863,1,0,0:0:0:0:
320,192,319035,1,0,0:0:0:0:
448,192,319206,1,0,0:0:0:0:
192,192,319206,1,0,0:0:0:0:
64,192,319377,1,0,0:0:0:0:
320,192,319549,1,0,0:0:0:0:
320,192,319720,1,0,0:0:0:0:
192,192,319892,1,0,0:0:0:0:
192,192,320063,1,0,0:0:0:0:
448,192,320235,1,0,0:0:0:0:
448,192,320406,1,0,0:0:0:0:
192,192,320577,1,0,0:0:0:0:
64,192,320577,1,0,0:0:0:0:
192,192,320749,1,0,0:0:0:0:
64,192,320749,1,0,0:0:0:0:
320,192,320920,1,0,0:0:0:0:
448,192,320920,1,0,0:0:0:0:
320,192,321092,1,0,0:0:0:0:
448,192,321263,1,0,0:0:0:0:
64,192,321263,1,0,0:0:0:0:
64,192,321435,1,0,0:0:0:0:
192,192,321606,1,0,0:0:0:0:
448,192,321606,1,0,0:0:0:0:
192,192,321777,1,0,0:0:0:0:
320,192,321949,1,0,0:0:0:0:
64,192,321949,1,0,0:0:0:0:
320,192,322120,1,0,0:0:0:0:
448,192,322292,1,0,0:0:0:0:
64,192,322292,1,0,0:0:0:0:
64,192,322463,1,0,0:0:0:0:
192,192,322635,1,0,0:0:0:0:
320,192,322635,1,0,0:0:0:0:
192,192,322806,1,0,0:0:0:0:
320,192,322977,1,0,0:0:0:0:
448,192,322977,1,0,0:0:0:0:
448,192,323149,1,0,0:0:0:0:
64,192,323320,1,0,0:0:0:0:
192,192,323320,1,0,0:0:0:0:
64,192,323492,1,0,0:0:0:0:
192,192,323492,1,0,0:0:0:0:
320,192,323663,1,0,0:0:0:0:
448,192,323663,1,0,0:0:0:0:
64,192,323749,1,0,0:0:0:0:
192,192,323835,1,0,0:0:0:0:
320,192,323920,1,0,0:0:0:0:
192,192,324006,1,0,0:0:0:0:
64,192,324006,1,0,0:0:0:0:
448,192,324092,1,0,0:0:0:0:
192,192,324177,1,0,0:0:0:0:
64,192,324263,1,0,0:0:0:0:
320,192,324349,1,0,0:0:0:0:
448,192,324349,1,0,0:0:0:0:
192,192,324435,1,0,0:0:0:0:
64,192,324520,1,0,0:0:0:0:
448,192,324606,1,0,0:0:0:0:
320,192,324692,1,0,0:0:0:0:
64,192,324692,1,0,0:0:0:0:
192,192,324777,1,0,0:0:0:0:
320,192,324863,1,0,0:0:0:0:
448,192,324949,1,0,0:0:0:0:
192,192,325035,1,0,0:0:0:0:
64,192,325035,1,0,0:0:0:0:
320,192,325120,1,0,0:0:0:0:
448,192,325120,1,0,0:0:0:0:
192,192,325206,1,0,0:0:0:0:
64,192,325206,1,0,0:0:0:0:
320,192,325292,1,0,0:0:0:0:
448,192,325292,1,0,0:0:0:0:
192,192,325377,1,0,0:0:0:0:
64,192,325377,1,0,0:0:0:0:
320,192,325463,1,0,0:0:0:0:
448,192,325463,1,0,0:0:0:0:
192,192,325549,1,0,0:0:0:0:
64,192,325549,1,0,0:0:0:0:
320,192,325635,1,0,0:0:0:0:
448,192,325635,1,0,0:0:0:0:
192,192,325720,1,0,0:0:0:0:
64,192,325720,1,0,0:0:0:0:
320,192,325806,1,0,0:0:0:0:
448,192,325806,1,0,0:0:0:0:
192,192,325892,1,0,0:0:0:0:
64,192,325892,1,0,0:0:0:0:
320,192,325977,1,0,0:0:0:0:
448,192,325977,1,0,0:0:0:0:
192,192,326063,1,0,0:0:0:0:
64,192,326063,1,0,0:0:0:0:
320,192,326149,1,0,0:0:0:0:
448,192,326149,1,0,0:0:0:0:
192,192,326235,1,0,0:0:0:0:
64,192,326235,1,0,0:0:0:0:
320,192,326320,1,0,0:0:0:0:
448,192,326320,1,0,0:0:0:0:
192,192,326406,1,0,0:0:0:0:
64,192,326406,128,0,326749:0:0:0:0:
448,192,326577,1,0,0:0:0:0:
320,192,326749,128,0,327092:0:0:0:0:
192,192,326749,1,0,0:0:0:0:
64,192,326920,1,0,0:0:0:0:
64,192,327092,1,0,0:0:0:0:
448,192,327092,128,0,327263:0:0:0:0:
192,192,327263,1,0,0:0:0:0:
320,192,327263,128,0,327606:0:0:0:0:
64,192,327435,1,0,0:0:0:0:
192,192,327435,1,0,0:0:0:0:
64,192,327606,128,0,327949:0:0:0:0:
448,192,327606,1,0,0:0:0:0:
320,192,327777,1,0,0:0:0:0:
320,192,327949,1,0,0:0:0:0:
192,192,327949,128,0,328120:0:0:0:0:
64,192,328120,128,0,328463:0:0:0:0:
448,192,328120,1,0,0:0:0:0:
320,192,328292,1,0,0:0:0:0:
448,192,328463,128,0,328635:0:0:0:0:
192,192,328463,1,0,0:0:0:0:
192,192,328635,1,0,0:0:0:0:
320,192,328635,128,0,329149:0:0:0:0:
64,192,328806,1,0,0:0:0:0:
448,192,328806,1,0,0:0:0:0:
192,192,328977,1,0,0:0:0:0:
64,192,329149,128,0,329492:0:0:0:0:
448,192,329149,1,0,0:0:0:0:
320,192,329320,1,0,0:0:0:0:
192,192,329492,128,0,329835:0:0:0:0:
320,192,329492,1,0,0:0:0:0:
448,192,329663,1,0,0:0:0:0:
448,192,329835,1,0,0:0:0:0:
64,192,329835,128,0,330006:0:0:0:0:
320,192,330006,128,0,330349:0:0:0:0:
192,192,330006,1,0,0:0:0:0:
448,192,330177,1,0,0:0:0:0:
64,192,330177,1,0,0:0:0:0:
192,192,330349,128,0,330692:0:0:0:0:
448,192,330349,1,0,0:0:0:0:
320,192,330520,1,0,0:0:0:0:
64,192,330692,128,0,330863:0:0:0:0:
448,192,330692,1,0,0:0:0:0:
192,192,330863,128,0,331206:0:0:0:0:
448,192,330863,1,0,0:0:0:0:
320,192,331035,1,0,0:0:0:0:
64,192,331206,1,0,0:0:0:0:
448,192,331206,128,0,331377:0:0:0:0:
320,192,331377,128,0,331892:0:0:0:0:
192,192,331377,1,0,0:0:0:0:
192,192,331549,1,0,0:0:0:0:
64,192,331549,1,0,0:0:0:0:
64,192,331720,1,0,0:0:0:0:
192,192,331892,128,0,332235:0:0:0:0:
448,192,331892,1,0,0:0:0:0:
320,192,332063,1,0,0:0:0:0:
448,192,332235,128,0,332577:0:0:0:0:
64,192,332235,1,0,0:0:0:0:
64,192,332406,1,0,0:0:0:0:
320,192,332577,128,0,332749:0:0:0:0:
192,192,332577,1,0,0:0:0:0:
448,192,332749,128,0,333092:0:0:0:0:
64,192,332749,1,0,0:0:0:0:
192,192,332920,1,0,0:0:0:0:
64,192,332920,1,0,0:0:0:0:
192,192,333092,128,0,333435:0:0:0:0:
320,192,333092,1,0,0:0:0:0:
320,192,333263,1,0,0:0:0:0:
448,192,333435,1,0,0:0:0:0:
64,192,333435,128,0,333606:0:0:0:0:
192,192,333606,128,0,333949:0:0:0:0:
448,192,333606,1,0,0:0:0:0:
320,192,333777,1,0,0:0:0:0:
448,192,333949,128,0,334120:0:0:0:0:
64,192,333949,1,0,0:0:0:0:
192,192,334120,1,0,0:0:0:0:
320,192,334120,128,0,334635:0:0:0:0:
192,192,334292,1,0,0:0:0:0:
64,192,334292,1,0,0:0:0:0:
64,192,334463,1,0,0:0:0:0:
192,192,334635,128,0,334977:0:0:0:0:
448,192,334635,1,0,0:0:0:0:
320,192,334806,1,0,0:0:0:0:
64,192,334977,1,0,0:0:0:0:
448,192,334977,128,0,335320:0:0:0:0:
192,192,335149,1,0,0:0:0:0:
320,192,335320,128,0,335492:0:0:0:0:
64,192,335320,1,0,0:0:0:0:
448,192,335492,128,0,335835:0:0:0:0:
192,192,335492,1,0,0:0:0:0:
192,192,335663,1,0,0:0:0:0:
64,192,335663,1,0,0:0:0:0:
64,192,335835,128,0,336177:0:0:0:0:
320,192,335835,1,0,0:0:0:0:
448,192,336006,1,0,0:0:0:0:
192,192,336177,128,0,336349:0:0:0:0:
320,192,336177,1,0,0:0:0:0:
64,192,336349,128,0,336692:0:0:0:0:
320,192,336349,1,0,0:0:0:0:
448,192,336520,1,0,0:0:0:0:
192,192,336692,1,0,0:0:0:0:
320,192,336692,128,0,336863:0:0:0:0:
64,192,336863,1,0,0:0:0:0:
448,192,336863,128,0,337377:0:0:0:0:
64,192,337035,1,0,0:0:0:0:
192,192,337035,1,0,0:0:0:0:
192,192,337206,1,0,0:0:0:0:
320,192,337377,1,0,0:0:0:0:
64,192,337377,128,0,337720:0:0:0:0:
448,192,337549,1,0,0:0:0:0:
320,192,337720,128,0,338063:0:0:0:0:
192,192,337720,1,0,0:0:0:0:
64,192,337892,1,0,0:0:0:0:
64,192,338063,1,0,0:0:0:0:
448,192,338063,128,0,338235:0:0:0:0:
192,192,338235,1,0,0:0:0:0:
320,192,338235,128,0,338577:0:0:0:0:
64,192,338406,1,0,0:0:0:0:
192,192,338406,1,0,0:0:0:0:
64,192,338577,128,0,338920:0:0:0:0:
448,192,338577,1,0,0:0:0:0:
320,192,338749,1,0,0:0:0:0:
320,192,338920,1,0,0:0:0:0:
192,192,338920,128,0,339092:0:0:0:0:
64,192,339092,128,0,339435:0:0:0:0:
448,192,339092,1,0,0:0:0:0:
320,192,339263,1,0,0:0:0:0:
448,192,339435,128,0,339606:0:0:0:0:
192,192,339435,1,0,0:0:0:0:
192,192,339606,1,0,0:0:0:0:
320,192,339606,128,0,340120:0:0:0:0:
64,192,339777,1,0,0:0:0:0:
448,192,339777,1,0,0:0:0:0:
192,192,339949,1,0,0:0:0:0:
64,192,340120,128,0,340463:0:0:0:0:
448,192,340120,1,0,0:0:0:0:
320,192,340292,1,0,0:0:0:0:
192,192,340463,128,0,340806:0:0:0:0:
320,192,340463,1,0,0:0:0:0:
448,192,340635,1,0,0:0:0:0:
448,192,340806,1,0,0:0:0:0:
64,192,340806,128,0,340977:0:0:0:0:
320,192,340977,128,0,341320:0:0:0:0:
192,192,340977,1,0,0:0:0:0:
448,192,341149,1,0,0:0:0:0:
64,192,341149,1,0,0:0:0:0:
192,192,341320,128,0,341663:0:0:0:0:
64,192,341320,1,0,0:0:0:0:
320,192,341492,1,0,0:0:0:0:
64,192,341663,128,0,341835:0:0:0:0:
448,192,341663,1,0,0:0:0:0:
192,192,341835,128,0,342177:0:0:0:0:
448,192,341835,1,0,0:0:0:0:
320,192,342006,1,0,0:0:0:0:
64,192,342177,1,0,0:0:0:0:
448,192,342177,128,0,342349:0:0:0:0:
320,192,342349,128,0,342863:0:0:0:0:
192,192,342349,1,0,0:0:0:0:
192,192,342520,1,0,0:0:0:0:
64,192,342520,1,0,0:0:0:0:
64,192,342692,1,0,0:0:0:0:
192,192,342863,128,0,343206:0:0:0:0:
448,192,342863,1,0,0:0:0:0:
320,192,343035,1,0,0:0:0:0:
448,192,343206,128,0,343549:0:0:0:0:
64,192,343206,1,0,0:0:0:0:
64,192,343377,1,0,0:0:0:0:
320,192,343549,128,0,343720:0:0:0:0:
192,192,343549,1,0,0:0:0:0:
448,192,343720,128,0,344063:0:0:0:0:
64,192,343720,1,0,0:0:0:0:
192,192,343892,1,0,0:0:0:0:
64,192,343892,1,0,0:0:0:0:
192,192,344063,128,0,344406:0:0:0:0:
320,192,344063,1,0,0:0:0:0:
320,192,344235,1,0,0:0:0:0:
448,192,344406,1,0,0:0:0:0:
64,192,344406,128,0,344577:0:0:0:0:
192,192,344577,128,0,344920:0:0:0:0:
448,192,344577,1,0,0:0:0:0:
320,192,344749,1,0,0:0:0:0:
448,192,344920,128,0,345092:0:0:0:0:
64,192,344920,1,0,0:0:0:0:
192,192,345092,1,0,0:0:0:0:
320,192,345092,128,0,345606:0:0:0:0:
192,192,345263,1,0,0:0:0:0:
64,192,345263,1,0,0:0:0:0:
64,192,345435,1,0,0:0:0:0:
192,192,345606,128,0,345949:0:0:0:0:
448,192,345606,1,0,0:0:0:0:
320,192,345777,1,0,0:0:0:0:
64,192,345949,1,0,0:0:0:0:
448,192,345949,128,0,346292:0:0:0:0:
192,192,346120,1,0,0:0:0:0:
320,192,346292,128,0,346463:0:0:0:0:
64,192,346292,1,0,0:0:0:0:
448,192,346463,128,0,346806:0:0:0:0:
192,192,346463,1,0,0:0:0:0:
192,192,346635,1,0,0:0:0:0:
64,192,346635,1,0,0:0:0:0:
64,192,346806,128,0,347149:0:0:0:0:
320,192,346806,1,0,0:0:0:0:
448,192,346977,1,0,0:0:0:0:
192,192,347149,128,0,347320:0:0:0:0:
320,192,347149,1,0,0:0:0:0:
64,192,347320,128,0,347663:0:0:0:0:
320,192,347320,1,0,0:0:0:0:
448,192,347492,1,0,0:0:0:0:
192,192,347663,1,0,0:0:0:0:
320,192,347663,128,0,347835:0:0:0:0:
64,192,347835,1,0,0:0:0:0:
448,192,347835,128,0,348349:0:0:0:0:
64,192,348006,1,0,0:0:0:0:
192,192,348006,1,0,0:0:0:0:
192,192,348177,1,0,0:0:0:0:
320,192,348349,1,0,0:0:0:0:
64,192,348349,128,0,348692:0:0:0:0:
448,192,348520,1,0,0:0:0:0:
320,192,348692,128,0,349035:0:0:0:0:
192,192,348692,1,0,0:0:0:0:
64,192,348863,1,0,0:0:0:0:
64,192,349035,1,0,0:0:0:0:
448,192,349035,128,0,349206:0:0:0:0:
192,192,349206,1,0,0:0:0:0:
320,192,349206,128,0,349549:0:0:0:0:
64,192,349377,1,0,0:0:0:0:
192,192,349377,1,0,0:0:0:0:
64,192,349549,128,0,349892:0:0:0:0:
448,192,349549,1,0,0:0:0:0:
320,192,349720,1,0,0:0:0:0:
320,192,349892,1,0,0:0:0:0:
192,192,349892,128,0,350063:0:0:0:0:
64,192,350063,128,0,350406:0:0:0:0:
448,192,350063,1,0,0:0:0:0:
320,192,350235,1,0,0:0:0:0:
448,192,350406,128,0,350577:0:0:0:0:
192,192,350406,1,0,0:0:0:0:
192,192,350577,1,0,0:0:0:0:
320,192,350577,128,0,351092:0:0:0:0:
64,192,350749,1,0,0:0:0:0:
448,192,350749,1,0,0:0:0:0:
192,192,350920,1,0,0:0:0:0:
192,192,351092,128,0,351435:0:0:0:0:
448,192,351092,1,0,0:0:0:0:
320,192,351263,1,0,0:0:0:0:
64,192,351435,128,0,351777:0:0:0:0:
448,192,351435,1,0,0:0:0:0:
320,192,351606,1,0,0:0:0:0:
448,192,351777,1,0,0:0:0:0:
192,192,351777,128,0,351949:0:0:0:0:
448,192,351949,1,0,0:0:0:0:
320,192,351949,128,0,352292:0:0:0:0:
192,192,352120,1,0,0:0:0:0:
64,192,352120,1,0,0:0:0:0:
192,192,352292,128,0,352635:0:0:0:0:
448,192,352292,1,0,0:0:0:0:
320,192,352463,1,0,0:0:0:0:
64,192,352635,128,0,352806:0:0:0:0:
448,192,352635,1,0,0:0:0:0:
192,192,352806,128,0,353149:0:0:0:0:
448,192,352806,1,0,0:0:0:0:
320,192,352977,1,0,0:0:0:0:
64,192,353149,1,0,0:0:0:0:
448,192,353149,128,0,353320:0:0:0:0:
320,192,353320,128,0,353835:0:0:0:0:
192,192,353320,1,0,0:0:0:0:
192,192,353492,1,0,0:0:0:0:
64,192,353492,1,0,0:0:0:0:
64,192,353663,1,0,0:0:0:0:
192,192,353835,128,0,354177:0:0:0:0:
448,192,353835,1,0,0:0:0:0:
320,192,354006,1,0,0:0:0:0:
448,192,354177,128,0,354520:0:0:0:0:
64,192,354177,1,0,0:0:0:0:
64,192,354349,1,0,0:0:0:0:
320,192,354520,128,0,354692:0:0:0:0:
192,192,354520,1,0,0:0:0:0:
448,192,354692,128,0,355035:0:0:0:0:
64,192,354692,1,0,0:0:0:0:
192,192,354863,1,0,0:0:0:0:
64,192,354863,1,0,0:0:0:0:
192,192,355035,128,0,355377:0:0:0:0:
320,192,355035,1,0,0:0:0:0:
320,192,355206,1,0,0:0:0:0:
448,192,355377,1,0,0:0:0:0:
64,192,355377,128,0,355549:0:0:0:0:
192,192,355549,128,0,355892:0:0:0:0:
448,192,355549,1,0,0:0:0:0:
320,192,355720,1,0,0:0:0:0:
448,192,355892,128,0,356063:0:0:0:0:
64,192,355892,1,0,0:0:0:0:
192,192,356063,1,0,0:0:0:0:
320,192,356063,128,0,356577:0:0:0:0:
192,192,356235,1,0,0:0:0:0:
64,192,356235,1,0,0:0:0:0:
64,192,356406,1,0,0:0:0:0:
192,192,356577,128,0,356920:0:0:0:0:
448,192,356577,1,0,0:0:0:0:
320,192,356749,1,0,0:0:0:0:
64,192,356920,1,0,0:0:0:0:
448,192,356920,128,0,357263:0:0:0:0:
192,192,357092,1,0,0:0:0:0:
320,192,357263,128,0,357435:0:0:0:0:
64,192,357263,1,0,0:0:0:0:
448,192,357435,128,0,357777:0:0:0:0:
192,192,357435,1,0,0:0:0:0:
192,192,357606,1,0,0:0:0:0:
64,192,357606,1,0,0:0:0:0:
320,192,357777,1,0,0:0:0:0:
320,192,357949,1,0,0:0:0:0:
64,192,357949,1,0,0:0:0:0:
192,192,357949,1,0,0:0:0:0:
448,192,358120,1,0,0:0:0:0:
192,192,358120,1,0,0:0:0:0:
320,192,358292,1,0,0:0:0:0:
448,192,358292,1,0,0:0:0:0:
64,192,358292,1,0,0:0:0:0:
192,192,358463,1,0,0:0:0:0:
64,192,358463,1,0,0:0:0:0:
192,192,358635,1,0,0:0:0:0:
448,192,358635,1,0,0:0:0:0:
320,192,358635,1,0,0:0:0:0:
320,192,358806,1,0,0:0:0:0:
448,192,358806,1,0,0:0:0:0:
192,192,358892,1,0,0:0:0:0:
64,192,358892,1,0,0:0:0:0:
64,192,358977,1,0,0:0:0:0:
448,192,358977,1,0,0:0:0:0:
320,192,358977,1,0,0:0:0:0:
320,192,359149,1,0,0:0:0:0:
192,192,359149,1,0,0:0:0:0:
64,192,359320,1,0,0:0:0:0:
192,192,359320,1,0,0:0:0:0:
448,192,359320,1,0,0:0:0:0:
320,192,359492,1,0,0:0:0:0:
448,192,359492,1,0,0:0:0:0:
192,192,359663,1,0,0:0:0:0:
64,192,359663,1,0,0:0:0:0:
320,192,359835,1,0,0:0:0:0:
448,192,359835,1,0,0:0:0:0:
64,192,359835,1,0,0:0:0:0:
448,192,360006,1,0,0:0:0:0:
192,192,360006,1,0,0:0:0:0:
448,192,360177,1,0,0:0:0:0:
192,192,360177,1,0,0:0:0:0:
320,192,360349,1,0,0:0:0:0:
192,192,360349,1,0,0:0:0:0:
64,192,360349,1,0,0:0:0:0:
448,192,360520,1,0,0:0:0:0:
64,192,360520,1,0,0:0:0:0:
320,192,360692,1,0,0:0:0:0:
448,192,360692,1,0,0:0:0:0:
192,192,360692,1,0,0:0:0:0:
320,192,360863,1,0,0:0:0:0:
64,192,360863,1,0,0:0:0:0:
64,192,361035,1,0,0:0:0:0:
320,192,361035,1,0,0:0:0:0:
64,192,361206,1,0,0:0:0:0:
448,192,361206,1,0,0:0:0:0:
192,192,361206,1,0,0:0:0:0:
448,192,361377,1,0,0:0:0:0:
320,192,361377,1,0,0:0:0:0:
64,192,361549,1,0,0:0:0:0:
192,192,361549,1,0,0:0:0:0:
320,192,361720,1,0,0:0:0:0:
192,192,361720,1,0,0:0:0:0:
64,192,361720,1,0,0:0:0:0:
192,192,361892,1,0,0:0:0:0:
320,192,362063,1,0,0:0:0:0:
448,192,362063,1,0,0:0:0:0:
64,192,362063,1,0,0:0:0:0:
192,192,362235,1,0,0:0:0:0:
448,192,362235,1,0,0:0:0:0:
320,192,362406,1,0,0:0:0:0:
448,192,362406,1,0,0:0:0:0:
192,192,362577,1,0,0:0:0:0:
64,192,362577,1,0,0:0:0:0:
448,192,362577,1,0,0:0:0:0:
320,192,362749,1,0,0:0:0:0:
64,192,362749,1,0,0:0:0:0:
320,192,362920,1,0,0:0:0:0:
64,192,362920,1,0,0:0:0:0:
192,192,363092,1,0,0:0:0:0:
320,192,363092,1,0,0:0:0:0:
448,192,363092,1,0,0:0:0:0:
64,192,363263,1,0,0:0:0:0:
448,192,363263,1,0,0:0:0:0:
320,192,363435,1,0,0:0:0:0:
192,192,363435,1,0,0:0:0:0:
64,192,363435,1,0,0:0:0:0:
192,192,363606,1,0,0:0:0:0:
448,192,363606,1,0,0:0:0:0:
192,192,363777,1,0,0:0:0:0:
448,192,363777,1,0,0:0:0:0:
64,192,363949,1,0,0:0:0:0:
320,192,363949,1,0,0:0:0:0:
448,192,363949,1,0,0:0:0:0:
64,192,364120,1,0,0:0:0:0:
192,192,364120,1,0,0:0:0:0:
448,192,364292,1,0,0:0:0:0:
320,192,364292,1,0,0:0:0:0:
192,192,364463,1,0,0:0:0:0:
320,192,364463,1,0,0:0:0:0:
448,192,364463,1,0,0:0:0:0:
64,192,364635,1,0,0:0:0:0:
448,192,364635,1,0,0:0:0:0:
64,192,364806,1,0,0:0:0:0:
192,192,364806,1,0,0:0:0:0:
320,192,364806,1,0,0:0:0:0:
320,192,364977,1,0,0:0:0:0:
448,192,364977,1,0,0:0:0:0:
192,192,365149,1,0,0:0:0:0:
64,192,365149,1,0,0:0:0:0:
320,192,365320,1,0,0:0:0:0:
448,192,365320,1,0,0:0:0:0:
64,192,365320,1,0,0:0:0:0:
448,192,365492,1,0,0:0:0:0:
192,192,365492,1,0,0:0:0:0:
448,192,365663,1,0,0:0:0:0:
192,192,365663,1,0,0:0:0:0:
320,192,365835,1,0,0:0:0:0:
192,192,365835,1,0,0:0:0:0:
64,192,365835,1,0,0:0:0:0:
448,192,366006,1,0,0:0:0:0:
64,192,366006,1,0,0:0:0:0:
320,192,366177,1,0,0:0:0:0:
448,192,366177,1,0,0:0:0:0:
192,192,366177,1,0,0:0:0:0:
320,192,366349,1,0,0:0:0:0:
64,192,366349,1,0,0:0:0:0:
64,192,366520,1,0,0:0:0:0:
320,192,366520,1,0,0:0:0:0:
64,192,366692,1,0,0:0:0:0:
448,192,366692,1,0,0:0:0:0:
192,192,366692,1,0,0:0:0:0:
448,192,366863,1,0,0:0:0:0:
320,192,366863,1,0,0:0:0:0:
64,192,367035,1,0,0:0:0:0:
192,192,367035,1,0,0:0:0:0:
320,192,367206,1,0,0:0:0:0:
192,192,367206,1,0,0:0:0:0:
64,192,367206,1,0,0:0:0:0:
192,192,367377,1,0,0:0:0:0:
320,192,367549,1,0,0:0:0:0:
448,192,367549,1,0,0:0:0:0:
64,192,367549,1,0,0:0:0:0:
192,192,367720,1,0,0:0:0:0:
448,192,367720,1,0,0:0:0:0:
64,192,367720,1,0,0:0:0:0:
320,192,367892,1,0,0:0:0:0:
192,192,367892,1,0,0:0:0:0:
64,192,367892,1,0,0:0:0:0:
192,192,368063,1,0,0:0:0:0:
448,192,368063,1,0,0:0:0:0:
320,192,368063,1,0,0:0:0:0:
320,192,368235,1,0,0:0:0:0:
64,192,368235,1,0,0:0:0:0:
448,192,368235,1,0,0:0:0:0:
64,192,368406,1,0,0:0:0:0:
192,192,368406,1,0,0:0:0:0:
448,192,368406,1,0,0:0:0:0:
192,192,368577,1,0,0:0:0:0:
320,192,368577,1,0,0:0:0:0:
64,192,368577,1,0,0:0:0:0:
448,192,368749,1,0,0:0:0:0:
192,192,368749,1,0,0:0:0:0:
320,192,368749,1,0,0:0:0:0:
192,192,368920,1,0,0:0:0:0:
64,192,368920,1,0,0:0:0:0:
320,192,369006,1,0,0:0:0:0:
448,192,369006,1,0,0:0:0:0:
192,192,369092,1,0,0:0:0:0:
64,192,369092,1,0,0:0:0:0:
320,192,369177,1,0,0:0:0:0:
448,192,369177,1,0,0:0:0:0:
192,192,369263,1,0,0:0:0:0:
64,192,369263,1,0,0:0:0:0:
320,192,369349,1,0,0:0:0:0:
448,192,369349,1,0,0:0:0:0:
192,192,369435,1,0,0:0:0:0:
64,192,369435,1,0,0:0:0:0:
320,192,369520,1,0,0:0:0:0:
448,192,369520,1,0,0:0:0:0:
64,192,369606,1,0,0:0:0:0:
192,192,369606,1,0,0:0:0:0:
320,192,369692,1,0,0:0:0:0:
448,192,369692,1,0,0:0:0:0:
192,192,369777,1,0,0:0:0:0:
64,192,369777,1,0,0:0:0:0:
320,192,369863,1,0,0:0:0:0:
448,192,369863,1,0,0:0:0:0:
192,192,369949,1,0,0:0:0:0:
64,192,369949,1,0,0:0:0:0:
320,192,370120,1,0,0:0:0:0:
448,192,370120,1,0,0:0:0:0:
64,192,370120,1,0,0:0:0:0:
192,192,370292,128,0,399777:0:0:0:0:
320,192,370292,128,0,370463:0:0:0:0:
320,192,370635,128,0,387435:0:0:0:0:
448,192,382635,128,0,387435:0:0:0:0:
64,192,382635,128,0,387435:0:0:0:0:
