osu file format v14

[General]
AudioFilename: audio.mp3
AudioLeadIn: 0
PreviewTime: 326404
Countdown: 0
SampleSet: Normal
StackLeniency: 0.7
Mode: 1
LetterboxInBreaks: 0
WidescreenStoryboard: 0

[Editor]
Bookmarks: 131661,209832,218061,223546,229032,244289,249604,290746,326404,370289,382632
DistanceSpacing: 0.3
BeatDivisor: 6
GridSize: 32
TimelineZoom: 2.5

[Metadata]
Title:Endgame
TitleUnicode:Endgame
Artist:Muzzy
ArtistUnicode:Muzzy
Creator:HEAVENLY MOON
Version:Inner Oni
Source:
Tags:electronic instrumental english neurofunk dnb drum and bass n' d&b & featured artist fa muzz mappers' guild mpg mg monstercat ginjani
BeatmapID:3695842
BeatmapSetID:1802360

[Difficulty]
HPDrainRate:5
CircleSize:5
OverallDifficulty:6.5
ApproachRate:5
SliderMultiplier:1.4
SliderTickRate:1

[Events]
//Background and Video events
0,0,"betterbg.jpg",0,96
//Break Periods
2,153804,158404
2,160661,164746
2,199404,203146
//Storyboard Layer 0 (Background)
//Storyboard Layer 1 (Fail)
//Storyboard Layer 2 (Pass)
//Storyboard Layer 3 (Foreground)
//Storyboard Layer 4 (Overlay)
//Storyboard Sound Samples

[TimingPoints]
4,342.857142857143,4,1,0,30,1,0
4,-133.333333333333,4,1,0,30,0,0
37032,-133.333333333333,4,1,0,30,0,0
43804,-133.333333333333,4,1,0,50,0,0
49289,-133.333333333333,4,1,0,60,0,0
50661,-133.333333333333,4,1,0,70,0,0
53404,-111.111111111111,4,1,0,80,0,0
58889,-111.111111111111,4,1,0,90,0,0
60346,-111.111111111111,4,1,0,90,0,0
60432,-110.329974888898,4,1,0,90,0,0
60518,-109.559865153718,4,1,0,90,0,0
60604,-108.800313344902,4,1,0,90,0,0
60689,-108.051220600614,4,1,0,90,0,0
60775,-107.312487524923,4,1,0,90,0,0
60861,-106.583673512891,4,1,0,90,0,0
60946,-105.86469221958,4,1,0,90,0,0
61032,-105.155456569219,4,1,0,90,0,0
61118,-104.455551551426,4,1,0,90,0,0
61204,-103.764901936979,4,1,0,90,0,0
61289,-103.083431606205,4,1,0,90,0,0
61375,-102.410749032218,4,1,0,90,0,0
61461,-101.746788871343,4,1,0,90,0,0
61546,-101.091382566185,4,1,0,90,0,0
61632,-100.444466765437,4,1,0,90,0,0
61718,-99.8056783442637,4,1,0,90,0,0
61804,-99.1749634788197,4,1,0,90,0,0
61889,-98.5522671949068,4,1,0,90,0,0
61975,-97.9372457304258,4,1,0,90,0,0
62061,-97.3298528177966,4,1,0,90,0,0
62146,-96.7300409651723,4,1,0,90,0,0
62232,-96.1374842935385,4,1,0,90,0,0
62318,-95.5521432823499,4,1,0,90,0,0
62404,-94.9739771302663,4,1,0,90,0,0
62489,-94.4026765046843,4,1,0,90,0,0
62575,-93.8382079154405,4,1,0,90,0,0
62661,-93.2805365496462,4,1,0,90,0,0
62746,-92.7293684109988,4,1,0,90,0,0
62832,-92.1846754039302,4,1,0,90,0,0
62918,-91.6464280804656,4,1,0,90,0,0
63004,-91.1143466828,4,1,0,90,0,0
63089,-90.5884079449657,4,1,0,90,0,0
63175,-90.068587229175,4,1,0,90,0,0
63261,-89.55461801821,4,1,0,90,0,0
63346,-89.0464813728118,4,1,0,90,0,0
63432,-88.5440785704736,4,1,0,90,0,0
63518,-88.0473906275314,4,1,0,90,0,0
63604,-87.556167281311,4,1,0,90,0,0
63689,-87.070394672685,4,1,0,90,0,0
63775,-86.5900575564113,4,1,0,90,0,0
63861,-86.1149169120224,4,1,0,90,0,0
63946,-85.6449622348539,4,1,0,90,0,0
64032,-85.1801816382193,4,1,0,90,0,0
64118,-84.7203466078821,4,1,0,90,0,0
64204,-84.2654496488659,4,1,0,90,0,0
64289,-83.8154818929224,4,1,0,90,0,0
64375,-83.3702246577444,4,1,0,90,0,0
64461,-100,4,1,0,90,0,0
65746,-100,4,1,0,100,0,0
66175,-95.2380952380952,4,1,0,100,0,0
66261,-96.1538461538461,4,1,0,100,0,0
66346,-97.0873786407767,4,1,0,100,0,0
66432,-98.0392156862745,4,1,0,100,0,0
66518,-99.009900990099,4,1,0,100,0,0
66689,-100,4,1,0,100,0,0
66861,-93.0232558139535,4,1,0,100,0,0
66946,-95.2380952380952,4,1,0,100,0,0
67032,-97.5609756097561,4,1,0,100,0,0
67204,-100,4,1,0,100,0,0
67546,-93.4579439252336,4,1,0,100,0,0
67632,-94.3396226415094,4,1,0,100,0,0
67718,-95.2380952380952,4,1,0,100,0,0
67804,-96.1538461538461,4,1,0,100,0,0
67889,-97.0873786407767,4,1,0,100,0,0
67975,-98.0392156862745,4,1,0,100,0,0
68061,-99.009900990099,4,1,0,100,0,0
68232,-93.0232558139535,4,1,0,100,0,0
68318,-95.2380952380952,4,1,0,100,0,0
68404,-97.5609756097561,4,1,0,100,0,0
68575,-100,4,1,0,100,0,0
68918,-95.2380952380952,4,1,0,100,0,0
69004,-96.1538461538461,4,1,0,100,0,0
69089,-97.0873786407767,4,1,0,100,0,0
69175,-98.0392156862745,4,1,0,100,0,0
69261,-99.009900990099,4,1,0,100,0,0
69432,-100,4,1,0,100,0,0
69604,-93.0232558139535,4,1,0,100,0,0
69689,-95.2380952380952,4,1,0,100,0,0
69775,-97.5609756097561,4,1,0,100,0,0
69946,-100,4,1,0,100,0,0
70289,-99.009900990099,4,1,0,100,0,0
70375,-98.0392156862745,4,1,0,100,0,0
70461,-97.0873786407767,4,1,0,100,0,0
70546,-96.1538461538461,4,1,0,100,0,0
70632,-95.2380952380952,4,1,0,100,0,0
70718,-94.3396226415094,4,1,0,100,0,0
70804,-93.4579439252336,4,1,0,100,0,0
70975,-86.9565217391304,4,1,0,100,0,0
71061,-88.8888888888889,4,1,0,100,0,0
71146,-90.9090909090909,4,1,0,100,0,0
71318,-100,4,1,0,100,0,0
71661,-95.2380952380952,4,1,0,100,0,0
71746,-96.1538461538461,4,1,0,100,0,0
71832,-97.0873786407767,4,1,0,100,0,0
72004,-96.1538461538461,4,1,0,100,0,0
72089,-95.2380952380952,4,1,0,100,0,0
72175,-94.3396226415094,4,1,0,100,0,0
72261,-93.4579439252336,4,1,0,100,0,0
72346,-92.5925925925926,4,1,0,100,0,0
72432,-91.743119266055,4,1,0,100,0,0
72518,-90.9090909090909,4,1,0,100,0,0
72689,-100,4,1,0,100,0,0
73032,-95.2380952380952,4,1,0,100,0,0
73118,-96.1538461538461,4,1,0,100,0,0
73204,-97.0873786407767,4,1,0,100,0,0
73375,-99.009900990099,4,1,0,100,0,0
73546,-97.0873786407767,4,1,0,100,0,0
73632,-96.1538461538461,4,1,0,100,0,0
73718,-95.2380952380952,4,1,0,100,0,0
73804,-94.3396226415094,4,1,0,100,0,0
73889,-93.4579439252336,4,1,0,100,0,0
74061,-86.9565217391304,4,1,0,100,0,0
74146,-87.719298245614,4,1,0,100,0,0
74232,-88.4955752212389,4,1,0,100,0,0
74404,-89.2857142857143,4,1,0,100,0,0
74489,-90.0900900900901,4,1,0,100,0,0
74575,-90.9090909090909,4,1,0,100,0,0
74746,-92.5925925925926,4,1,0,100,0,0
74918,-94.3396226415094,4,1,0,100,0,0
75089,-96.1538461538461,4,1,0,100,0,0
75261,-98.0392156862745,4,1,0,100,0,0
75432,-100,4,1,0,100,0,0
76118,-99.009900990099,4,1,0,100,0,0
76204,-98.0392156862745,4,1,0,100,0,0
76289,-97.0873786407767,4,1,0,100,0,0
76375,-96.1538461538461,4,1,0,100,0,0
76461,-95.2380952380952,4,1,0,100,0,0
76546,-94.3396226415094,4,1,0,100,0,0
76632,-93.4579439252336,4,1,0,100,0,0
76718,-92.5925925925926,4,1,0,100,0,0
76804,-91.743119266055,4,1,0,100,0,0
76975,-100,4,1,0,100,0,0
77146,-95.2380952380952,4,1,0,100,0,0
77232,-96.1538461538461,4,1,0,100,0,0
77318,-97.0873786407767,4,1,0,100,0,0
77404,-98.0392156862745,4,1,0,100,0,0
77489,-99.009900990099,4,1,0,100,0,0
77661,-100,4,1,0,100,0,0
77832,-93.0232558139535,4,1,0,100,0,0
77918,-95.2380952380952,4,1,0,100,0,0
78004,-97.5609756097561,4,1,0,100,0,0
78175,-100,4,1,0,100,0,0
78518,-93.4579439252336,4,1,0,100,0,0
78604,-94.3396226415094,4,1,0,100,0,0
78689,-95.2380952380952,4,1,0,100,0,0
78775,-96.1538461538461,4,1,0,100,0,0
78861,-97.0873786407767,4,1,0,100,0,0
78946,-98.0392156862745,4,1,0,100,0,0
79032,-99.009900990099,4,1,0,100,0,0
79204,-93.0232558139535,4,1,0,100,0,0
79289,-95.2380952380952,4,1,0,100,0,0
79375,-97.5609756097561,4,1,0,100,0,0
79546,-100,4,1,0,100,0,0
79889,-95.2380952380952,4,1,0,100,0,0
79975,-96.1538461538461,4,1,0,100,0,0
80061,-97.0873786407767,4,1,0,100,0,0
80146,-98.0392156862745,4,1,0,100,0,0
80232,-99.009900990099,4,1,0,100,0,0
80404,-100,4,1,0,100,0,0
80575,-93.0232558139535,4,1,0,100,0,0
80661,-95.2380952380952,4,1,0,100,0,0
80746,-97.5609756097561,4,1,0,100,0,0
80918,-100,4,1,0,100,0,0
81261,-93.4579439252336,4,1,0,100,0,0
81346,-94.3396226415094,4,1,0,100,0,0
81432,-95.2380952380952,4,1,0,100,0,0
81518,-96.1538461538461,4,1,0,100,0,0
81604,-97.0873786407767,4,1,0,100,0,0
81689,-98.0392156862745,4,1,0,100,0,0
81775,-99.009900990099,4,1,0,100,0,0
81946,-93.0232558139535,4,1,0,100,0,0
82032,-95.2380952380952,4,1,0,100,0,0
82118,-97.5609756097561,4,1,0,100,0,0
82289,-100,4,1,0,100,0,0
82632,-95.2380952380952,4,1,0,100,0,0
82718,-96.1538461538461,4,1,0,100,0,0
82804,-97.0873786407767,4,1,0,100,0,0
82975,-96.1538461538461,4,1,0,100,0,0
83061,-95.2380952380952,4,1,0,100,0,0
83146,-94.3396226415094,4,1,0,100,0,0
83232,-93.4579439252336,4,1,0,100,0,0
83318,-92.5925925925926,4,1,0,100,0,0
83404,-91.743119266055,4,1,0,100,0,0
83489,-90.9090909090909,4,1,0,100,0,0
83661,-100,4,1,0,100,0,0
84004,-93.0232558139535,4,1,0,100,0,0
84089,-95.2380952380952,4,1,0,100,0,0
84175,-97.5609756097561,4,1,0,100,0,0
84346,-100,4,1,0,100,0,0
84518,-98.0392156862745,4,1,0,100,0,0
84604,-96.1538461538461,4,1,0,100,0,0
84689,-94.3396226415094,4,1,0,100,0,0
84746,-93.0232558139535,4,1,0,100,0,0
84775,-91.743119266055,4,1,0,100,0,0
84861,-90.4977375565611,4,1,0,100,0,0
85032,-99.502487562189,4,1,0,100,0,0
85204,-99.009900990099,4,1,0,100,0,0
85375,-98.5221674876847,4,1,0,100,0,0
85546,-98.0392156862745,4,1,0,100,0,0
85718,-97.5609756097561,4,1,0,100,0,0
85889,-97.0873786407767,4,1,0,100,0,0
86061,-96.6183574879227,4,1,0,100,0,0
86232,-96.1538461538461,4,1,0,100,0,0
86399,-95.2380952380952,4,1,0,100,0,0
86484,-94.7867298578199,4,1,0,100,0,0
86570,-94.3396226415094,4,1,0,100,0,0
86656,-93.8967136150235,4,1,0,100,0,0
86742,-93.4579439252336,4,1,0,100,0,0
86828,-93.0232558139535,4,1,0,100,0,0
86915,-92.5925925925926,4,1,0,100,0,0
87001,-92.1658986175115,4,1,0,100,0,0
87086,-91.743119266055,4,1,0,100,0,0
87172,-91.324200913242,4,1,0,100,0,0
87258,-90.9090909090909,4,1,0,100,0,0
87343,-90.4977375565611,4,1,0,100,0,0
87429,-90.0900900900901,4,1,0,100,0,0
87515,-89.6860986547085,4,1,0,100,0,0
87601,-89.2857142857143,4,1,0,100,0,0
87686,-88.8888888888889,4,1,0,100,0,0
87772,-88.4955752212389,4,1,0,100,0,0
88118,-86.9565217391304,4,1,0,100,0,0
88289,-88.8888888888889,4,1,0,100,0,0
88461,-90.9090909090909,4,1,0,100,0,0
88632,-93.0232558139535,4,1,0,100,0,0
88804,-95.2380952380952,4,1,0,100,0,0
88975,-97.5609756097561,4,1,0,100,0,0
89146,-86.9565217391304,4,1,0,100,0,0
89232,-88.4955752212389,4,1,0,100,0,0
89318,-90.0900900900901,4,1,0,100,0,0
89404,-91.743119266055,4,1,0,100,0,0
89489,-93.4579439252336,4,1,0,100,0,0
89661,-95.2380952380952,4,1,0,100,0,0
89832,-86.9565217391304,4,1,0,100,0,0
89918,-88.4955752212389,4,1,0,100,0,0
90004,-90.0900900900901,4,1,0,100,0,0
90089,-91.743119266055,4,1,0,100,0,0
90175,-93.4579439252336,4,1,0,100,0,0
90346,-95.2380952380952,4,1,0,100,0,0
90518,-83.3333333333333,4,1,0,100,0,0
90575,-84.7457627118644,4,1,0,100,0,0
90632,-86.2068965517241,4,1,0,100,0,0
90689,-87.719298245614,4,1,0,100,0,0
90861,-86.9565217391304,4,1,0,100,0,0
90946,-88.4955752212389,4,1,0,100,0,0
91032,-90.0900900900901,4,1,0,100,0,0
91118,-91.743119266055,4,1,0,100,0,0
91204,-93.4579439252336,4,1,0,100,0,0
91375,-95.2380952380952,4,1,0,100,0,0
91546,-93.0232558139535,4,1,0,100,0,0
91632,-90.9090909090909,4,1,0,100,0,0
91718,-88.8888888888889,4,1,0,100,0,0
91889,-86.9565217391304,4,1,0,100,0,0
91975,-88.4955752212389,4,1,0,100,0,0
92061,-90.0900900900901,4,1,0,100,0,0
92146,-91.743119266055,4,1,0,100,0,0
92232,-93.4579439252336,4,1,0,100,0,0
92404,-95.2380952380952,4,1,0,100,0,0
92575,-86.9565217391304,4,1,0,100,0,0
92661,-88.4955752212389,4,1,0,100,0,0
92746,-90.0900900900901,4,1,0,100,0,0
92832,-91.743119266055,4,1,0,100,0,0
92918,-93.4579439252336,4,1,0,100,0,0
93089,-95.2380952380952,4,1,0,100,0,0
93261,-83.3333333333333,4,1,0,100,0,0
93318,-84.7457627118644,4,1,0,100,0,0
93375,-86.2068965517241,4,1,0,100,0,0
93432,-87.719298245614,4,1,0,100,0,0
93604,-86.9565217391304,4,1,0,100,0,0
93689,-88.4955752212389,4,1,0,100,0,0
93775,-90.0900900900901,4,1,0,100,0,0
93861,-91.743119266055,4,1,0,100,0,0
93946,-93.4579439252336,4,1,0,100,0,0
94118,-95.2380952380952,4,1,0,100,0,0
94289,-93.4579439252336,4,1,0,100,0,0
94375,-91.743119266055,4,1,0,100,0,0
94461,-90.0900900900901,4,1,0,100,0,0
94546,-88.4955752212389,4,1,0,100,0,0
94632,-86.9565217391304,4,1,0,100,0,0
94718,-88.4955752212389,4,1,0,100,0,0
94804,-90.0900900900901,4,1,0,100,0,0
94889,-91.743119266055,4,1,0,100,0,0
94975,-93.4579439252336,4,1,0,100,0,0
95146,-95.2380952380952,4,1,0,100,0,0
95318,-93.4579439252336,4,1,0,100,0,0
95404,-91.743119266055,4,1,0,100,0,0
95489,-90.0900900900901,4,1,0,100,0,0
95575,-88.4955752212389,4,1,0,100,0,0
95661,-86.9565217391304,4,1,0,100,0,0
95718,-85.4700854700855,4,1,0,100,0,0
95775,-84.0336134453781,4,1,0,100,0,0
95832,-82.6446280991736,4,1,0,100,0,0
95993,-100,4,1,0,100,0,0
98746,-83.3333333333333,4,1,0,100,0,0
98804,-84.7457627118644,4,1,0,100,0,0
98861,-86.2068965517241,4,1,0,100,0,0
98918,-87.719298245614,4,1,0,100,0,0
99089,-86.9565217391304,4,1,0,100,0,0
99175,-88.4955752212389,4,1,0,100,0,0
99261,-90.0900900900901,4,1,0,100,0,0
99346,-91.743119266055,4,1,0,100,0,0
99432,-93.4579439252336,4,1,0,100,0,0
99604,-95.2380952380952,4,1,0,100,0,0
99775,-93.4579439252336,4,1,0,100,0,0
99861,-91.743119266055,4,1,0,100,0,0
99946,-90.0900900900901,4,1,0,100,0,0
100032,-88.4955752212389,4,1,0,100,0,0
100118,-86.9565217391304,4,1,0,100,0,0
100204,-88.4955752212389,4,1,0,100,0,0
100289,-90.0900900900901,4,1,0,100,0,0
100375,-91.743119266055,4,1,0,100,0,0
100461,-93.4579439252336,4,1,0,100,0,0
100632,-95.2380952380952,4,1,0,100,0,0
100804,-86.9565217391304,4,1,0,100,0,0
100889,-88.4955752212389,4,1,0,100,0,0
100975,-90.0900900900901,4,1,0,100,0,0
101061,-91.743119266055,4,1,0,100,0,0
101146,-93.4579439252336,4,1,0,100,0,0
101318,-95.2380952380952,4,1,0,100,0,0
101489,-83.3333333333333,4,1,0,100,0,0
101546,-84.7457627118644,4,1,0,100,0,0
101604,-86.2068965517241,4,1,0,100,0,0
101661,-87.719298245614,4,1,0,100,0,0
101832,-86.9565217391304,4,1,0,100,0,0
101918,-88.4955752212389,4,1,0,100,0,0
102004,-90.0900900900901,4,1,0,100,0,0
102089,-91.743119266055,4,1,0,100,0,0
102175,-90.0900900900901,4,1,0,100,0,0
102232,-88.4955752212389,4,1,0,100,0,0
102289,-86.9565217391304,4,1,0,100,0,0
102346,-85.4700854700855,4,1,0,100,0,0
102518,-93.4579439252336,4,1,0,100,0,0
102604,-91.743119266055,4,1,0,100,0,0
102689,-90.0900900900901,4,1,0,100,0,0
102775,-88.4955752212389,4,1,0,100,0,0
102861,-86.9565217391304,4,1,0,100,0,0
102946,-88.4955752212389,4,1,0,100,0,0
103032,-90.0900900900901,4,1,0,100,0,0
103118,-91.743119266055,4,1,0,100,0,0
103204,-93.4579439252336,4,1,0,100,0,0
103375,-95.2380952380952,4,1,0,100,0,0
103546,-86.9565217391304,4,1,0,100,0,0
103632,-88.4955752212389,4,1,0,100,0,0
103718,-90.0900900900901,4,1,0,100,0,0
103804,-91.743119266055,4,1,0,100,0,0
103889,-93.4579439252336,4,1,0,100,0,0
104061,-95.2380952380952,4,1,0,100,0,0
104232,-83.3333333333333,4,1,0,100,0,0
104289,-84.7457627118644,4,1,0,100,0,0
104346,-86.2068965517241,4,1,0,100,0,0
104404,-87.719298245614,4,1,0,100,0,0
104575,-86.9565217391304,4,1,0,100,0,0
104661,-88.4955752212389,4,1,0,100,0,0
104746,-90.0900900900901,4,1,0,100,0,0
104832,-91.743119266055,4,1,0,100,0,0
104918,-90.0900900900901,4,1,0,100,0,0
104975,-88.4955752212389,4,1,0,100,0,0
105032,-86.9565217391304,4,1,0,100,0,0
105089,-85.4700854700855,4,1,0,100,0,0
105261,-93.4579439252336,4,1,0,100,0,0
105346,-91.743119266055,4,1,0,100,0,0
105432,-90.0900900900901,4,1,0,100,0,0
105518,-88.4955752212389,4,1,0,100,0,0
105604,-86.9565217391304,4,1,0,100,0,0
105689,-88.4955752212389,4,1,0,100,0,0
105775,-90.0900900900901,4,1,0,100,0,0
105861,-91.743119266055,4,1,0,100,0,0
105946,-93.4579439252336,4,1,0,100,0,0
106118,-95.2380952380952,4,1,0,100,0,0
106289,-96.1538461538461,4,1,0,100,0,0
106375,-97.0873786407767,4,1,0,100,0,0
106461,-98.0392156862745,4,1,0,100,0,0
106546,-99.009900990099,4,1,0,100,0,0
106632,-100,4,1,0,100,0,0
106804,-102.564102564103,4,1,0,100,0,0
106975,-105.263157894737,4,1,0,100,0,0
108346,-108.108108108108,4,1,0,100,0,0
109204,-100,4,1,0,100,0,0
109375,-99.009900990099,4,1,0,100,0,0
109546,-98.0392156862745,4,1,0,100,0,0
109718,-97.0873786407767,4,1,0,100,0,0
109804,-111.111111111111,4,1,0,90,0,0
120689,-111.111111111111,4,1,0,90,0,0
121032,-110.079179954141,4,1,0,90,0,0
121204,-109.570429132586,4,1,0,90,0,0
121375,-109.066359244955,4,1,0,90,0,0
121461,-108.816059509327,4,1,0,90,0,0
121546,-108.566788116714,4,1,0,90,0,0
121718,-108.071889420843,4,1,0,90,0,0
122061,-107.09539093566,4,1,0,90,0,0
122232,-106.613786228697,4,1,0,90,0,0
122404,-106.136493653568,4,1,0,90,0,0
122575,-105.663455554252,4,1,0,90,0,0
122746,-105.194504639078,4,1,0,90,0,0
122918,-104.729807569452,4,1,0,90,0,0
123004,-104.498995242161,4,1,0,90,0,0
123089,-104.269198044744,4,1,0,90,0,0
123432,-103.359920950332,4,1,0,90,0,0
123775,-102.466365415552,4,1,0,90,0,0
123946,-102.02540840771,4,1,0,90,0,0
124118,-101.588230393979,4,1,0,90,0,0
124204,-101.371043361464,4,1,0,90,0,0
124289,-101.154680679962,4,1,0,90,0,0
124461,-100.724917229299,4,1,0,90,0,0
124804,-99.8761535695737,4,1,0,90,0,0
124975,-99.4571628054081,4,1,0,90,0,0
125146,-99.0416727742365,4,1,0,90,0,0
125318,-98.6295425068671,4,1,0,90,0,0
125489,-98.2209243964079,4,1,0,90,0,0
125575,-98.0178823824619,4,1,0,90,0,0
125661,-97.815678092516,4,1,0,90,0,0
125832,-97.4137620318173,4,1,0,90,0,0
126175,-96.6196644205815,4,1,0,90,0,0
126518,-95.8384087757314,4,1,0,90,0,0
126689,-95.4525452898464,4,1,0,90,0,0
126861,-95.0697764624346,4,1,0,90,0,0
127032,-94.6899755510483,4,1,0,90,0,0
127118,-94.5012554491786,4,1,0,90,0,0
127204,-94.3132861012397,4,1,0,90,0,0
127546,-93.5687398068554,4,1,0,90,0,0
127718,-93.2009010663115,4,1,0,90,0,0
127889,-92.8359431064206,4,1,0,90,0,0
127975,-92.6545338643056,4,1,0,90,0,0
128061,-92.4737467033109,4,1,0,90,0,0
128232,-92.1144503622861,4,1,0,90,0,0
128404,-91.7579352262384,4,1,0,90,0,0
128575,-92.5925925925926,4,1,0,90,0,0
128661,-94.3396226415094,4,1,0,90,0,0
128746,-96.1538461538461,4,1,0,90,0,0
128832,-98.0392156862745,4,1,0,90,0,0
128918,-100,4,1,0,90,0,0
129089,-99.502487562189,4,1,0,90,0,0
129261,-99.009900990099,4,1,0,90,0,0
129432,-98.5221674876847,4,1,0,90,0,0
129604,-98.0392156862745,4,1,0,90,0,0
129775,-97.5609756097561,4,1,0,90,0,0
129946,-97.0873786407767,4,1,0,90,0,0
130118,-96.6183574879227,4,1,0,90,0,0
130289,-95.2380952380952,4,1,0,90,0,0
130375,-94.3396226415094,4,1,0,90,0,0
130461,-93.4579439252336,4,1,0,90,0,0
130546,-92.5925925925926,4,1,0,90,0,0
130632,-91.743119266055,4,1,0,90,0,0
130718,-90.9090909090909,4,1,0,90,0,0
130804,-90.0900900900901,4,1,0,90,0,0
130889,-89.2857142857143,4,1,0,90,0,0
130975,-88.4955752212389,4,1,0,90,0,0
131061,-87.719298245614,4,1,0,90,0,0
131146,-86.9565217391304,4,1,0,90,0,0
131232,-86.2068965517241,4,1,0,90,0,0
131318,-85.4700854700855,4,1,0,90,0,0
131489,-86.9565217391304,4,1,0,90,0,0
131661,-88.8888888888889,4,1,0,90,0,0
133118,-25,4,1,0,90,0,0
134398,-111.111111111111,4,1,0,90,0,0
135775,-125,4,1,0,90,0,0
137146,-142.857142857143,4,1,0,90,0,0
138518,-166.666666666667,4,1,0,90,0,0
139889,-250,4,1,0,90,0,0
141261,-500,4,1,0,90,0,0
142632,-333.333333333333,4,1,0,90,0,0
144004,-250,4,1,0,90,0,0
145375,-200,4,1,0,90,0,0
146746,-166.666666666667,4,1,0,90,0,0
148118,-142.857142857143,4,1,0,90,0,0
149489,-125,4,1,0,90,0,0
150861,-111.111111111111,4,1,0,90,0,0
152232,-100,4,1,0,90,0,0
153604,-90.9090909090909,4,1,0,90,0,0
154975,-200,4,1,0,20,0,0
169632,-200,4,1,0,40,0,0
179746,-200,4,1,0,50,0,0
204346,-133.333333333333,4,1,0,30,0,0
204689,-132.869706636975,4,1,0,30,0,0
204861,-132.639012316859,4,1,0,30,0,0
205204,-132.180193326751,4,1,0,30,0,0
205375,-131.95188506463,4,1,0,30,0,0
205718,-131.497799384327,4,1,0,30,0,0
206061,-131.046828273615,4,1,0,30,0,0
206232,-130.822415112605,4,1,0,30,0,0
206575,-130.37605669794,4,1,0,30,0,0
206746,-130.153933056626,4,1,0,30,0,0
207004,-133.333333333333,4,1,0,45,0,0
207089,-129.712116927691,4,1,0,45,0,0
207432,-129.273290199145,4,1,0,45,0,0
207604,-129.054905118834,4,1,0,45,0,0
207946,-128.62050648183,4,1,0,45,0,0
208118,-128.404319521309,4,1,0,45,0,0
208461,-127.974282288231,4,1,0,45,0,0
208804,-127.547115904615,4,1,0,45,0,0
208975,-127.334519242156,4,1,0,45,0,0
209318,-126.911606066375,4,1,0,45,0,0
209489,-126.701281456761,4,1,0,45,0,0
209746,-133.333333333333,4,1,0,60,0,0
209832,-126.282397749143,4,1,0,60,0,0
210175,-125.866433058567,4,1,0,60,0,0
210346,-125.659397689375,4,1,0,60,0,0
210518,-125.453199683858,4,1,0,60,0,0
210861,-125.042670811414,4,1,0,60,0,0
211032,-124.838334357008,4,1,0,60,0,0
211204,-124.634664639276,4,1,0,60,0,0
211375,-124.431813232826,4,1,0,60,0,0
211718,-124.027931090081,4,1,0,60,0,0
211889,-123.82689495393,4,1,0,60,0,0
212061,-123.626509479681,4,1,0,60,0,0
212232,-123.426923855462,4,1,0,60,0,0
212575,-123.029376954629,4,1,0,60,0,0
212746,-122.831713183036,4,1,0,60,0,0
212918,-122.634533148727,4,1,0,60,0,0
213089,-122.438135071302,4,1,0,60,0,0
213261,-122.24221561571,4,1,0,60,0,0
213604,-121.852400187653,4,1,0,60,0,0
213775,-121.658349290853,4,1,0,60,0,0
214118,-121.272242845241,4,1,0,60,0,0
214289,-121.080033902409,4,1,0,60,0,0
214461,-120.888579414126,4,1,0,60,0,0
214632,-120.697583755071,4,1,0,60,0,0
214975,-120.317542056997,4,1,0,60,0,0
215146,-120.12834512393,4,1,0,60,0,0
215489,-119.75187411683,4,1,0,60,0,0
215661,-119.564450619284,4,1,0,60,0,0
215832,-119.377755387817,4,1,0,60,0,0
216004,-119.191500215737,4,1,0,60,0,0
216175,-119.005966959183,4,1,0,60,0,0
216346,-118.820869222187,4,1,0,60,0,0
216518,-118.636346380168,4,1,0,60,0,0
216861,-118.269154576602,4,1,0,60,0,0
217032,-118.086340008361,4,1,0,60,0,0
217204,-117.904228753068,4,1,0,60,0,0
217546,-117.541547998679,4,1,0,60,0,0
217718,-117.360974189975,4,1,0,60,0,0
217889,-117.180954345128,4,1,0,60,0,0
218061,-117.001622812508,4,1,0,60,0,0
218232,-116.822702856782,4,1,0,60,0,0
218404,-116.644465336764,4,1,0,60,0,0
218575,-116.466635220675,4,1,0,60,0,0
218918,-116.112731528787,4,1,0,60,0,0
219089,-115.936517800313,4,1,0,60,0,0
219261,-115.760838108468,4,1,0,60,0,0
219432,-115.585823629903,4,1,0,60,0,0
219604,-115.411204350541,4,1,0,60,0,0
219775,-115.23724467748,4,1,0,60,0,0
219946,-115.06367623843,4,1,0,60,0,0
220289,-114.718234807577,4,1,0,60,0,0
220461,-114.546225129151,4,1,0,60,0,0
220632,-114.374861320481,4,1,0,60,0,0
220975,-114.033407226981,4,1,0,60,0,0
221146,-113.863573221109,4,1,0,60,0,0
221318,-113.694115078909,4,1,0,60,0,0
221489,-113.52516058134,4,1,0,60,0,0
221661,-113.356835983994,4,1,0,60,0,0
221832,-113.18888168253,4,1,0,60,0,0
222004,-113.021552079766,4,1,0,60,0,0
222346,-112.688118728202,4,1,0,60,0,0
222518,-112.522265343255,4,1,0,60,0,0
222689,-112.356773203359,4,1,0,60,0,0
223032,-112.027370527167,4,1,0,60,0,0
223204,-111.863329858113,4,1,0,60,0,0
223375,-111.699893661701,4,1,0,60,0,0
223718,-111.374201725409,4,1,0,65,0,0
223889,-111.212190635489,4,1,0,65,0,0
224061,-111.050526879225,4,1,0,65,0,0
224232,-110.889455410796,4,1,0,65,0,0
224404,-110.728727904082,4,1,0,65,0,0
224575,-110.568465652459,4,1,0,65,0,0
224746,-110.408788539568,4,1,0,65,0,0
224918,-110.24945040649,4,1,0,65,0,0
225089,-110.090692712657,4,1,0,65,0,0
225261,-109.932270728004,4,1,0,65,0,0
225432,-109.774304030912,4,1,0,65,0,0
225775,-109.459848485678,4,1,0,65,0,0
225946,-109.303355066484,4,1,0,65,0,0
226118,-109.147189350727,4,1,0,65,0,0
226289,-108.991469237703,4,1,0,65,0,0
226461,-108.836311276204,4,1,0,65,0,0
226632,-108.681476329174,4,1,0,65,0,0
226804,-108.527081305233,4,1,0,65,0,0
227146,-108.219720663257,4,1,0,65,0,0
227318,-108.066750670554,4,1,0,65,0,0
227489,-107.91409606297,4,1,0,65,0,0
227661,-107.761872125452,4,1,0,65,0,0
227832,-107.610192837466,4,1,0,65,0,0
228004,-107.458824464936,4,1,0,65,0,0
228175,-107.30799648459,4,1,0,65,0,0
228518,-107.007378158724,4,1,0,65,0,0
228689,-106.857813924214,4,1,0,65,0,0
228861,-106.708553330801,4,1,0,65,0,0
229032,-106.559709134618,4,1,0,75,0,0
229204,-106.411392829362,4,1,0,75,0,0
229375,-106.263375902442,4,1,0,75,0,0
229546,-106.115882788641,4,1,0,75,0,0
229718,-105.968686253212,4,1,0,75,0,0
229889,-105.821897513609,4,1,0,75,0,0
230061,-105.67562655079,4,1,0,75,0,0
230232,-105.529648026965,4,1,0,75,0,0
230404,-105.384183309464,4,1,0,75,0,0
230575,-105.239008311777,4,1,0,75,0,0
230746,-105.09423274379,4,1,0,75,0,0
230918,-104.949965104137,4,1,0,75,0,0
231089,-104.805983163967,4,1,0,75,0,0
231261,-104.662395743171,4,1,0,75,0,0
231432,-104.519310465205,4,1,0,75,0,0
231604,-104.376506935819,4,1,0,75,0,0
231775,-104.234201743213,4,1,0,75,0,0
231946,-104.092175703429,4,1,0,75,0,0
232118,-103.950536176866,4,1,0,75,0,0
232289,-103.809389351648,4,1,0,75,0,0
232461,-103.668517840834,4,1,0,75,0,0
232632,-103.528135323696,4,1,0,75,0,0
232804,-103.388025598875,4,1,0,75,0,0
232975,-103.248294596294,4,1,0,75,0,0
233146,-103.109047097119,4,1,0,75,0,0
233318,-102.970068660442,4,1,0,75,0,0
233489,-102.831464371468,4,1,0,75,0,0
233661,-102.693338180459,4,1,0,75,0,0
233832,-102.555477385492,4,1,0,75,0,0
234004,-102.418091131617,4,1,0,75,0,0
234175,-102.280967864343,4,1,0,75,0,0
234346,-102.144211283258,4,1,0,75,0,0
234518,-102.007923975534,4,1,0,75,0,0
234689,-101.871896090666,4,1,0,75,0,0
234861,-101.736334012593,4,1,0,75,0,0
235032,-101.601029015222,4,1,0,75,0,0
235204,-101.466083439619,4,1,0,75,0,0
235375,-101.331598536366,4,1,0,75,0,0
235546,-101.197367249294,4,1,0,75,0,0
235718,-101.063491117024,4,1,0,75,0,0
235889,-100.930070600584,4,1,0,75,0,0
236061,-100.796900293722,4,1,0,75,0,0
236232,-100.664182274648,4,1,0,75,0,0
236404,-100.531712225963,4,1,0,75,0,0
236575,-100.399590369671,4,1,0,75,0,0
236746,-100.267915871208,4,1,0,75,0,0
236918,-100.13648603046,4,1,0,75,0,0
237089,-100.005500302517,4,1,0,75,0,0
237261,-101.010101010101,4,1,0,75,0,0
237432,-101.483176626395,4,1,0,75,0,0
237604,-101.960808304504,4,1,0,75,0,0
237775,-102.44285225487,4,1,0,75,0,0
237946,-102.929581755937,4,1,0,75,0,0
238289,-103.916833279989,4,1,0,75,0,0
238461,-104.417704230588,4,1,0,75,0,0
238632,-104.923316793921,4,1,0,75,0,0
238804,-105.433849748329,4,1,0,75,0,0
239146,-106.470080310382,4,1,0,75,0,0
239318,-106.995928804909,4,1,0,75,0,0
239489,-107.52688172043,4,1,0,75,0,0
239661,-108.063130480827,4,1,0,75,0,0
240004,-109.151954802359,4,1,0,75,0,0
240175,-109.704696896893,4,1,0,75,0,0
240346,-110.262944042659,4,1,0,75,0,0
240518,-110.826901678806,4,1,0,75,0,0
240689,-111.396781969762,4,1,0,75,0,0
241032,-112.554054084474,4,1,0,75,0,0
241204,-113.141882183095,4,1,0,75,0,0
241375,-113.735753175218,4,1,0,75,0,0
241546,-114.336022135454,4,1,0,75,0,0
242061,-116.175187535796,4,1,0,75,0,0
242575,-118.074488471797,4,1,0,75,0,0
242746,-118.72141781866,4,1,0,75,0,0
243261,-120.705596635694,4,1,0,75,0,0
243432,-121.381908754792,4,1,0,75,0,0
243946,-123.456790123457,4,1,0,75,0,0
244118,-124.164219596839,4,1,0,75,0,0
244289,-124.879959139277,4,1,0,80,0,0
244632,-126.336322450723,4,1,0,80,0,0
244804,-127.077236273435,4,1,0,80,0,0
244975,-127.82689171017,4,1,0,90,0,0
245146,-128.585609727244,4,1,0,80,0,0
245489,-130.130051973943,4,1,0,80,0,0
245661,-130.916441272194,4,1,0,80,0,0
245832,-131.712219337725,4,1,0,80,0,0
246004,-132.517906482113,4,1,0,80,0,0
246175,-133.333333333333,4,1,0,80,0,0
249604,-100,4,1,0,90,0,0
289375,-102.040816326531,4,1,0,90,0,0
289461,-104.166666666667,4,1,0,90,0,0
289546,-106.382978723404,4,1,0,90,0,0
289718,-108.695652173913,4,1,0,90,0,0
289889,-111.111111111111,4,1,0,90,0,0
290061,-113.636363636364,4,1,0,90,0,0
290232,-116.279069767442,4,1,0,90,0,0
290404,-119.047619047619,4,1,0,90,0,0
290575,-121.951219512195,4,1,0,90,0,0
290746,-125,4,1,0,75,0,0
292118,-142.857142857143,4,1,0,75,0,0
315432,-111.111111111111,4,1,0,90,0,0
323661,-111.111111111111,4,1,0,90,0,0
323746,-110.157392882951,4,1,0,90,0,0
323832,-109.219907731022,4,1,0,90,0,0
323918,-108.298127417079,4,1,0,90,0,0
324004,-107.391891267858,4,1,0,90,0,0
324089,-106.500695982048,4,1,0,90,0,0
324175,-105.624170190113,4,1,0,90,0,0
324261,-104.76195464855,4,1,0,90,0,0
324346,-103.91359376851,4,1,0,90,0,0
324432,-103.078968797996,4,1,0,90,0,0
324518,-102.257644270197,4,1,0,90,0,0
324604,-101.449304767914,4,1,0,90,0,0
324689,-100.653644769131,4,1,0,90,0,0
324775,-99.870268521191,4,1,0,90,0,0
324861,-99.0990901712531,4,1,0,90,0,0
324946,-98.3397303327915,4,1,0,90,0,0
325032,-97.5919193890746,4,1,0,90,0,0
325118,-96.855302052945,4,1,0,90,0,0
325204,-96.1298137004211,4,1,0,90,0,0
325289,-95.4151129905768,4,1,0,90,0,0
325375,-94.7109610889488,4,1,0,90,0,0
325461,-94.0171261597012,4,1,0,90,0,0
325546,-93.3332960000149,4,1,0,90,0,0
325632,-92.6594274944613,4,1,0,90,0,0
325718,-91.9952199283725,4,1,0,90,0,0
325804,-91.3404670238079,4,1,0,90,0,0
325889,-90.6949683338518,4,1,0,90,0,0
325975,-90.0584479327083,4,1,0,90,0,0
326061,-89.4308797673366,4,1,0,90,0,0
326146,-88.8119974351095,4,1,0,90,0,0
326232,-88.2016218514226,4,1,0,90,0,0
326318,-87.599578821225,4,1,0,90,0,0
326404,-86.9565217391303,4,1,0,100,0,1
368918,-86.5800865800866,4,1,0,100,0,1
369004,-86.2068965517241,4,1,0,100,0,1
369089,-85.8369098712446,4,1,0,100,0,1
369175,-85.4700854700855,4,1,0,100,0,1
369261,-85.1063829787234,4,1,0,100,0,1
369346,-84.7457627118644,4,1,0,100,0,1
369432,-84.3881856540084,4,1,0,100,0,1
369518,-84.0336134453781,4,1,0,100,0,1
369604,-83.6820083682008,4,1,0,100,0,1
369689,-83.3333333333333,4,1,0,100,0,1
369775,-82.9875518672199,4,1,0,100,0,1
369861,-82.6446280991736,4,1,0,100,0,1
369946,-82.3045267489712,4,1,0,100,0,1
370118,-81.3008130081301,4,1,0,100,0,1
370289,-79.9999999999999,4,1,0,100,0,0
370632,-86.9565217391303,4,1,0,100,0,0
370718,-33.3333333333333,4,1,0,100,0,0
371661,-90.9090909090909,4,1,0,100,0,0
373032,-100,4,1,0,100,0,0
374404,-105.263157894737,4,1,0,100,0,0
375775,-111.111111111111,4,1,0,100,0,0
377146,-117.647058823529,4,1,0,100,0,0
378518,-125,4,1,0,100,0,0
379889,-133.333333333333,4,1,0,100,0,0
381261,-142.857142857143,4,1,0,100,0,0
382632,-153.846153846154,4,1,0,100,0,0
384004,-117.647058823529,4,1,0,100,0,0
385375,-95.238095238095,4,1,0,100,0,0
386746,-80.0000000000001,4,1,0,100,0,0
388118,-95.2380952380952,4,1,0,100,0,0
389489,-117.647058823529,4,1,0,100,0,0
390861,-153.846153846153,4,1,0,100,0,0

[HitObjects]
256,192,37032,5,0,0:0:0:0:
256,192,37204,1,0,0:0:0:0:
256,192,37375,1,2,0:0:0:0:
256,192,37632,1,2,0:0:0:0:
256,192,37804,1,0,0:0:0:0:
256,192,37889,1,0,0:0:0:0:
256,192,38061,1,2,0:0:0:0:
256,192,38318,1,2,0:0:0:0:
256,192,38404,1,0,0:0:0:0:
256,192,38489,1,2,0:0:0:0:
256,192,38575,1,0,0:0:0:0:
256,192,38746,1,2,0:0:0:0:
256,192,39004,1,2,0:0:0:0:
256,192,39089,1,2,0:0:0:0:
256,192,39175,1,0,0:0:0:0:
256,192,39261,1,0,0:0:0:0:
256,192,39432,1,2,0:0:0:0:
256,192,39604,1,2,0:0:0:0:
256,192,39689,1,0,0:0:0:0:
256,192,39775,1,0,0:0:0:0:
256,192,43889,1,2,0:0:0:0:
256,192,44232,1,0,0:0:0:0:
256,192,45261,1,2,0:0:0:0:
256,192,45604,1,0,0:0:0:0:
256,192,46632,1,2,0:0:0:0:
256,192,46975,1,2,0:0:0:0:
256,192,47146,1,2,0:0:0:0:
256,192,47318,1,0,0:0:0:0:
256,192,47489,1,0,0:0:0:0:
256,192,47661,1,2,0:0:0:0:
256,192,47832,1,2,0:0:0:0:
256,192,48004,1,2,0:0:0:0:
256,192,48175,1,0,0:0:0:0:
256,192,48346,1,2,0:0:0:0:
256,192,48518,1,0,0:0:0:0:
256,192,48689,1,2,0:0:0:0:
256,192,48861,1,2,0:0:0:0:
256,192,49032,1,0,0:0:0:0:
256,192,49204,1,0,0:0:0:0:
256,192,49375,1,2,0:0:0:0:
256,192,49546,1,0,0:0:0:0:
256,192,49718,1,2,0:0:0:0:
256,192,49889,1,0,0:0:0:0:
256,192,50061,1,2,0:0:0:0:
256,192,50232,1,2,0:0:0:0:
256,192,50404,1,2,0:0:0:0:
256,192,50575,1,0,0:0:0:0:
256,192,50746,1,2,0:0:0:0:
256,192,50918,1,0,0:0:0:0:
256,192,51089,1,2,0:0:0:0:
256,192,51261,1,0,0:0:0:0:
256,192,51432,1,0,0:0:0:0:
256,192,51775,1,0,0:0:0:0:
256,192,52118,1,2,0:0:0:0:
256,192,52461,1,2,0:0:0:0:
256,192,53489,1,4,0:0:0:0:
256,192,53832,1,0,0:0:0:0:
256,192,54175,1,2,0:0:0:0:
256,192,54518,1,0,0:0:0:0:
256,192,54689,1,0,0:0:0:0:
256,192,54861,1,2,0:0:0:0:
256,192,55032,1,2,0:0:0:0:
256,192,55204,1,0,0:0:0:0:
256,192,55375,1,2,0:0:0:0:
256,192,55546,1,0,0:0:0:0:
256,192,55889,1,2,0:0:0:0:
256,192,56061,1,2,0:0:0:0:
256,192,56232,1,0,0:0:0:0:
256,192,56575,1,0,0:0:0:0:
256,192,56918,1,2,0:0:0:0:
256,192,57261,1,0,0:0:0:0:
256,192,57432,1,0,0:0:0:0:
256,192,57604,1,2,0:0:0:0:
256,192,57775,1,0,0:0:0:0:
256,192,57946,1,2,0:0:0:0:
256,192,58118,1,2,0:0:0:0:
256,192,58289,1,0,0:0:0:0:
256,192,58632,1,2,0:0:0:0:
256,192,58804,1,2,0:0:0:0:
256,192,58975,1,0,0:0:0:0:
256,192,59146,1,0,0:0:0:0:
256,192,59318,1,2,0:0:0:0:
256,192,59489,1,0,0:0:0:0:
256,192,59661,1,2,0:0:0:0:
256,192,59832,1,0,0:0:0:0:
256,192,60004,1,2,0:0:0:0:
256,192,60175,1,2,0:0:0:0:
256,192,60346,1,0,0:0:0:0:
256,192,60432,1,2,0:0:0:0:
256,192,60518,1,0,0:0:0:0:
256,192,60604,1,0,0:0:0:0:
256,192,60689,1,2,0:0:0:0:
256,192,60775,1,2,0:0:0:0:
256,192,60861,1,0,0:0:0:0:
256,192,60946,1,2,0:0:0:0:
256,192,61032,1,0,0:0:0:0:
256,192,61118,1,0,0:0:0:0:
256,192,61204,1,2,0:0:0:0:
256,192,61289,1,0,0:0:0:0:
256,192,61375,1,2,0:0:0:0:
256,192,61461,1,2,0:0:0:0:
256,192,61546,1,2,0:0:0:0:
256,192,61632,1,0,0:0:0:0:
256,192,61718,1,2,0:0:0:0:
256,192,61804,1,2,0:0:0:0:
256,192,61889,1,0,0:0:0:0:
256,192,61975,1,0,0:0:0:0:
256,192,62061,1,2,0:0:0:0:
256,192,62146,1,0,0:0:0:0:
256,192,62232,1,2,0:0:0:0:
256,192,62318,1,0,0:0:0:0:
256,192,62404,1,2,0:0:0:0:
256,192,62489,1,2,0:0:0:0:
256,192,62575,1,2,0:0:0:0:
256,192,62661,1,0,0:0:0:0:
256,192,62746,1,2,0:0:0:0:
256,192,62832,1,0,0:0:0:0:
256,192,62918,1,0,0:0:0:0:
256,192,63004,1,0,0:0:0:0:
256,192,63089,1,2,0:0:0:0:
256,192,63175,1,2,0:0:0:0:
256,192,63261,1,2,0:0:0:0:
256,192,63346,1,2,0:0:0:0:
256,192,63432,1,0,0:0:0:0:
256,192,63518,1,0,0:0:0:0:
256,192,63604,1,2,0:0:0:0:
256,192,63689,1,0,0:0:0:0:
256,192,63775,1,2,0:0:0:0:
256,192,63861,1,2,0:0:0:0:
256,192,63946,1,0,0:0:0:0:
256,192,64032,1,0,0:0:0:0:
256,192,64118,1,2,0:0:0:0:
256,192,64204,1,2,0:0:0:0:
256,192,64289,1,2,0:0:0:0:
256,192,64375,1,0,0:0:0:0:
256,192,64632,12,0,65489,0:0:0:0:
256,192,65832,5,4,0:0:0:0:
256,192,66004,1,0,0:0:0:0:
256,192,66175,1,2,0:0:0:0:
256,192,66261,1,2,0:0:0:0:
256,192,66346,1,0,0:0:0:0:
256,192,66432,1,2,0:0:0:0:
256,192,66518,1,0,0:0:0:0:
256,192,66689,1,0,0:0:0:0:
256,192,66861,1,2,0:0:0:0:
256,192,66946,1,0,0:0:0:0:
256,192,67032,1,2,0:0:0:0:
256,192,67204,1,2,0:0:0:0:
256,192,67375,1,0,0:0:0:0:
256,192,67546,1,2,0:0:0:0:
256,192,67632,1,2,0:0:0:0:
256,192,67718,1,0,0:0:0:0:
256,192,67804,1,0,0:0:0:0:
256,192,67889,1,2,0:0:0:0:
256,192,67975,1,0,0:0:0:0:
256,192,68061,1,0,0:0:0:0:
256,192,68232,1,2,0:0:0:0:
256,192,68318,1,2,0:0:0:0:
256,192,68404,1,0,0:0:0:0:
256,192,68575,1,0,0:0:0:0:
256,192,68746,1,0,0:0:0:0:
256,192,68918,1,2,0:0:0:0:
256,192,69004,1,0,0:0:0:0:
256,192,69089,1,2,0:0:0:0:
256,192,69175,1,0,0:0:0:0:
256,192,69261,1,0,0:0:0:0:
256,192,69432,1,0,0:0:0:0:
256,192,69604,1,0,0:0:0:0:
256,192,69689,1,2,0:0:0:0:
256,192,69775,1,0,0:0:0:0:
256,192,69946,1,2,0:0:0:0:
256,192,70118,1,0,0:0:0:0:
256,192,70289,1,0,0:0:0:0:
256,192,70375,1,2,0:0:0:0:
256,192,70461,1,0,0:0:0:0:
256,192,70546,1,0,0:0:0:0:
256,192,70632,1,2,0:0:0:0:
256,192,70718,1,2,0:0:0:0:
256,192,70804,1,0,0:0:0:0:
256,192,70975,1,2,0:0:0:0:
256,192,71061,1,2,0:0:0:0:
256,192,71146,1,2,0:0:0:0:
256,192,71318,1,0,0:0:0:0:
256,192,71489,1,0,0:0:0:0:
256,192,71661,1,2,0:0:0:0:
256,192,71746,1,2,0:0:0:0:
256,192,71832,1,0,0:0:0:0:
256,192,72004,1,0,0:0:0:0:
256,192,72089,1,0,0:0:0:0:
256,192,72175,1,2,0:0:0:0:
256,192,72261,1,0,0:0:0:0:
256,192,72346,1,2,0:0:0:0:
256,192,72432,1,2,0:0:0:0:
256,192,72518,1,0,0:0:0:0:
256,192,72689,1,2,0:0:0:0:
256,192,72861,1,0,0:0:0:0:
256,192,73032,1,2,0:0:0:0:
256,192,73118,1,0,0:0:0:0:
256,192,73204,1,0,0:0:0:0:
256,192,73375,1,2,0:0:0:0:
256,192,73546,1,0,0:0:0:0:
256,192,73632,1,2,0:0:0:0:
256,192,73718,1,2,0:0:0:0:
256,192,73804,1,2,0:0:0:0:
256,192,73889,1,0,0:0:0:0:
256,192,74061,1,2,0:0:0:0:
256,192,74146,1,2,0:0:0:0:
256,192,74232,1,0,0:0:0:0:
256,192,74404,1,2,0:0:0:0:
256,192,74489,1,0,0:0:0:0:
256,192,74575,1,0,0:0:0:0:
256,192,74746,1,2,0:0:0:0:
256,192,74918,1,2,0:0:0:0:
256,192,75089,1,0,0:0:0:0:
256,192,75261,1,0,0:0:0:0:
256,192,75432,1,2,0:0:0:0:
256,192,75518,1,0,0:0:0:0:
256,192,75604,1,0,0:0:0:0:
256,192,75775,1,2,0:0:0:0:
256,192,75946,1,0,0:0:0:0:
256,192,76118,1,2,0:0:0:0:
256,192,76204,1,0,0:0:0:0:
256,192,76289,1,2,0:0:0:0:
256,192,76375,1,0,0:0:0:0:
256,192,76461,1,2,0:0:0:0:
256,192,76546,1,2,0:0:0:0:
256,192,76632,1,2,0:0:0:0:
256,192,76718,1,2,0:0:0:0:
256,192,76804,1,4,0:0:0:0:
256,192,76975,1,0,0:0:0:0:
256,192,77146,1,2,0:0:0:0:
256,192,77232,1,2,0:0:0:0:
256,192,77318,1,0,0:0:0:0:
256,192,77404,1,0,0:0:0:0:
256,192,77489,1,2,0:0:0:0:
256,192,77661,1,0,0:0:0:0:
256,192,77832,1,2,0:0:0:0:
256,192,77918,1,0,0:0:0:0:
256,192,78004,1,0,0:0:0:0:
256,192,78175,1,2,0:0:0:0:
256,192,78346,1,0,0:0:0:0:
256,192,78518,1,2,0:0:0:0:
256,192,78604,1,2,0:0:0:0:
256,192,78689,1,0,0:0:0:0:
256,192,78775,1,2,0:0:0:0:
256,192,78861,1,0,0:0:0:0:
256,192,78946,1,0,0:0:0:0:
256,192,79032,1,2,0:0:0:0:
256,192,79204,1,2,0:0:0:0:
256,192,79289,1,2,0:0:0:0:
256,192,79375,1,0,0:0:0:0:
256,192,79546,1,0,0:0:0:0:
256,192,79718,1,0,0:0:0:0:
256,192,79889,1,2,0:0:0:0:
256,192,79975,1,0,0:0:0:0:
256,192,80061,1,2,0:0:0:0:
256,192,80146,1,2,0:0:0:0:
256,192,80232,1,0,0:0:0:0:
256,192,80404,1,0,0:0:0:0:
256,192,80575,1,2,0:0:0:0:
256,192,80661,1,0,0:0:0:0:
256,192,80746,1,0,0:0:0:0:
256,192,80918,1,2,0:0:0:0:
256,192,81089,1,0,0:0:0:0:
256,192,81261,1,0,0:0:0:0:
256,192,81346,1,2,0:0:0:0:
256,192,81432,1,0,0:0:0:0:
256,192,81518,1,0,0:0:0:0:
256,192,81604,1,2,0:0:0:0:
256,192,81689,1,2,0:0:0:0:
256,192,81775,1,0,0:0:0:0:
256,192,81946,1,2,0:0:0:0:
256,192,82032,1,0,0:0:0:0:
256,192,82118,1,2,0:0:0:0:
256,192,82289,1,0,0:0:0:0:
256,192,82461,1,0,0:0:0:0:
256,192,82632,1,0,0:0:0:0:
256,192,82718,1,2,0:0:0:0:
256,192,82804,1,0,0:0:0:0:
256,192,82975,1,2,0:0:0:0:
256,192,83061,1,0,0:0:0:0:
256,192,83146,1,0,0:0:0:0:
256,192,83232,1,0,0:0:0:0:
256,192,83318,1,2,0:0:0:0:
256,192,83404,1,2,0:0:0:0:
256,192,83489,1,0,0:0:0:0:
256,192,83661,1,2,0:0:0:0:
256,192,83832,1,0,0:0:0:0:
256,192,84004,1,2,0:0:0:0:
256,192,84089,1,0,0:0:0:0:
256,192,84175,1,0,0:0:0:0:
256,192,84346,1,2,0:0:0:0:
256,192,84518,1,0,0:0:0:0:
256,192,84604,1,0,0:0:0:0:
256,192,84689,1,2,0:0:0:0:
256,192,84746,1,0,0:0:0:0:
256,192,84804,1,0,0:0:0:0:
256,192,84861,1,2,0:0:0:0:
256,192,85032,1,2,0:0:0:0:
256,192,85204,1,2,0:0:0:0:
256,192,85375,1,2,0:0:0:0:
256,192,85546,1,2,0:0:0:0:
256,192,85718,1,2,0:0:0:0:
256,192,85889,1,2,0:0:0:0:
256,192,86061,1,2,0:0:0:0:
256,192,86232,1,2,0:0:0:0:
256,192,86404,1,2,0:0:0:0:
256,192,86489,1,2,0:0:0:0:
256,192,86575,1,0,0:0:0:0:
256,192,86661,1,0,0:0:0:0:
256,192,86746,1,2,0:0:0:0:
256,192,86832,1,2,0:0:0:0:
256,192,86918,1,0,0:0:0:0:
256,192,87004,1,0,0:0:0:0:
256,192,87089,1,2,0:0:0:0:
256,192,87175,1,2,0:0:0:0:
256,192,87261,1,2,0:0:0:0:
256,192,87346,1,0,0:0:0:0:
256,192,87432,1,2,0:0:0:0:
256,192,87518,1,2,0:0:0:0:
256,192,87604,1,2,0:0:0:0:
256,192,87689,1,2,0:0:0:0:
256,192,87775,1,0,0:0:0:0:
256,192,88118,1,2,0:0:0:0:
256,192,88161,1,2,0:0:0:0:
256,192,88289,1,2,0:0:0:0:
256,192,88332,1,2,0:0:0:0:
256,192,88461,1,0,0:0:0:0:
256,192,88504,1,0,0:0:0:0:
256,192,88632,1,0,0:0:0:0:
192,64,88804,1,2,0:0:0:0:
256,192,88975,1,0,0:0:0:0:
256,192,89018,1,0,0:0:0:0:
256,192,89146,1,2,0:0:0:0:
256,192,89232,1,0,0:0:0:0:
256,192,89318,1,2,0:0:0:0:
256,192,89404,1,0,0:0:0:0:
256,192,89489,1,0,0:0:0:0:
256,192,89661,1,0,0:0:0:0:
256,192,89832,1,2,0:0:0:0:
256,192,89918,1,0,0:0:0:0:
256,192,90004,1,2,0:0:0:0:
256,192,90089,1,2,0:0:0:0:
256,192,90175,1,0,0:0:0:0:
256,192,90346,1,0,0:0:0:0:
256,192,90518,1,2,0:0:0:0:
256,192,90575,1,2,0:0:0:0:
256,192,90632,1,0,0:0:0:0:
256,192,90689,1,0,0:0:0:0:
256,192,90861,1,2,0:0:0:0:
256,192,90946,1,0,0:0:0:0:
256,192,91032,1,2,0:0:0:0:
256,192,91118,1,0,0:0:0:0:
256,192,91204,1,2,0:0:0:0:
256,192,91375,1,0,0:0:0:0:
256,192,91546,1,2,0:0:0:0:
256,192,91632,1,2,0:0:0:0:
256,192,91718,1,2,0:0:0:0:
256,192,91889,1,0,0:0:0:0:
256,192,91975,1,0,0:0:0:0:
256,192,92061,1,2,0:0:0:0:
256,192,92146,1,0,0:0:0:0:
256,192,92232,1,2,0:0:0:0:
256,192,92404,1,0,0:0:0:0:
256,192,92575,1,0,0:0:0:0:
256,192,92661,1,0,0:0:0:0:
256,192,92746,1,0,0:0:0:0:
256,192,92832,1,0,0:0:0:0:
256,192,92918,1,2,0:0:0:0:
256,192,93089,1,0,0:0:0:0:
256,192,93261,1,2,0:0:0:0:
256,192,93318,1,0,0:0:0:0:
256,192,93375,1,0,0:0:0:0:
256,192,93432,1,2,0:0:0:0:
256,192,93604,1,2,0:0:0:0:
256,192,93689,1,0,0:0:0:0:
256,192,93775,1,2,0:0:0:0:
256,192,93861,1,0,0:0:0:0:
256,192,93946,1,0,0:0:0:0:
256,192,94118,1,0,0:0:0:0:
256,192,94289,1,2,0:0:0:0:
256,192,94375,1,0,0:0:0:0:
256,192,94461,1,2,0:0:0:0:
256,192,94546,1,2,0:0:0:0:
256,192,94632,1,0,0:0:0:0:
256,192,94718,1,0,0:0:0:0:
256,192,94804,1,0,0:0:0:0:
256,192,94889,1,0,0:0:0:0:
256,192,94975,1,2,0:0:0:0:
256,192,95146,1,0,0:0:0:0:
256,192,95318,1,2,0:0:0:0:
256,192,95404,1,0,0:0:0:0:
256,192,95489,1,2,0:0:0:0:
256,192,95575,1,0,0:0:0:0:
256,192,95661,1,2,0:0:0:0:
256,192,95718,1,2,0:0:0:0:
256,192,95775,1,2,0:0:0:0:
256,192,95832,1,0,0:0:0:0:
256,192,96175,1,0,0:0:0:0:
256,192,96346,1,2,0:0:0:0:
256,192,96689,1,0,0:0:0:0:
256,192,96861,1,2,0:0:0:0:
256,192,97204,1,0,0:0:0:0:
256,192,97375,1,2,0:0:0:0:
256,192,97718,1,2,0:0:0:0:
256,192,97889,1,0,0:0:0:0:
256,192,97946,1,0,0:0:0:0:
256,192,98004,1,0,0:0:0:0:
256,192,98061,1,0,0:0:0:0:
256,192,98232,1,0,0:0:0:0:
256,192,98404,1,2,0:0:0:0:
256,192,98575,1,2,0:0:0:0:
256,192,98746,1,2,0:0:0:0:
256,192,98804,1,0,0:0:0:0:
256,192,98861,1,0,0:0:0:0:
256,192,98918,1,0,0:0:0:0:
256,192,99089,1,0,0:0:0:0:
256,192,99175,1,0,0:0:0:0:
256,192,99261,1,2,0:0:0:0:
256,192,99346,1,0,0:0:0:0:
256,192,99432,1,2,0:0:0:0:
256,192,99604,1,0,0:0:0:0:
256,192,99775,1,2,0:0:0:0:
256,192,99861,1,0,0:0:0:0:
256,192,99946,1,2,0:0:0:0:
256,192,100032,1,2,0:0:0:0:
256,192,100118,1,0,0:0:0:0:
256,192,100204,1,0,0:0:0:0:
256,192,100289,1,2,0:0:0:0:
256,192,100375,1,2,0:0:0:0:
256,192,100461,1,2,0:0:0:0:
256,192,100632,1,0,0:0:0:0:
256,192,100804,1,2,0:0:0:0:
256,192,100889,1,0,0:0:0:0:
256,192,100975,1,2,0:0:0:0:
256,192,101061,1,0,0:0:0:0:
256,192,101146,1,0,0:0:0:0:
256,192,101318,1,0,0:0:0:0:
256,192,101489,1,2,0:0:0:0:
256,192,101546,1,2,0:0:0:0:
256,192,101604,1,0,0:0:0:0:
256,192,101661,1,0,0:0:0:0:
256,192,101832,1,0,0:0:0:0:
256,192,101918,1,2,0:0:0:0:
256,192,102004,1,0,0:0:0:0:
256,192,102089,1,0,0:0:0:0:
256,192,102175,1,2,0:0:0:0:
256,192,102232,1,2,0:0:0:0:
256,192,102289,1,2,0:0:0:0:
256,192,102346,1,0,0:0:0:0:
256,192,102518,1,2,0:0:0:0:
256,192,102604,1,2,0:0:0:0:
256,192,102689,1,0,0:0:0:0:
256,192,102775,1,0,0:0:0:0:
256,192,102861,1,2,0:0:0:0:
256,192,102946,1,0,0:0:0:0:
256,192,103032,1,2,0:0:0:0:
256,192,103118,1,2,0:0:0:0:
256,192,103204,1,0,0:0:0:0:
256,192,103375,1,0,0:0:0:0:
256,192,103546,1,2,0:0:0:0:
256,192,103632,1,0,0:0:0:0:
256,192,103718,1,2,0:0:0:0:
256,192,103804,1,0,0:0:0:0:
256,192,103889,1,0,0:0:0:0:
256,192,104061,1,0,0:0:0:0:
256,192,104232,1,0,0:0:0:0:
256,192,104289,1,0,0:0:0:0:
256,192,104346,1,2,0:0:0:0:
256,192,104404,1,2,0:0:0:0:
256,192,104575,1,2,0:0:0:0:
256,192,104661,1,2,0:0:0:0:
256,192,104746,1,0,0:0:0:0:
256,192,104832,1,2,0:0:0:0:
256,192,104918,1,0,0:0:0:0:
256,192,104975,1,0,0:0:0:0:
256,192,105032,1,0,0:0:0:0:
256,192,105089,1,2,0:0:0:0:
256,192,105261,1,0,0:0:0:0:
256,192,105346,1,2,0:0:0:0:
256,192,105432,1,0,0:0:0:0:
256,192,105518,1,0,0:0:0:0:
256,192,105604,1,2,0:0:0:0:
256,192,105689,1,0,0:0:0:0:
256,192,105775,1,2,0:0:0:0:
256,192,105861,1,0,0:0:0:0:
256,192,105946,1,2,0:0:0:0:
256,192,106118,1,0,0:0:0:0:
256,192,106289,1,2,0:0:0:0:
256,192,106375,1,0,0:0:0:0:
256,192,106461,1,2,0:0:0:0:
256,192,106546,1,0,0:0:0:0:
256,192,106632,1,2,0:0:0:0:
256,192,106804,1,0,0:0:0:0:
256,192,106975,1,2,0:0:0:0:
256,192,107061,12,0,108004,0:0:0:0:
256,192,108346,12,0,109032,0:0:0:0:
256,192,109204,5,0,0:0:0:0:
256,192,109375,1,2,0:0:0:0:
256,192,109546,1,2,0:0:0:0:
256,192,109718,1,4,0:0:0:0:
256,192,110061,1,2,0:0:0:0:
256,192,110232,1,0,0:0:0:0:
256,192,110318,1,0,0:0:0:0:
256,192,110404,1,0,0:0:0:0:
256,192,110575,1,0,0:0:0:0:
256,192,110746,1,2,0:0:0:0:
256,192,111089,1,0,0:0:0:0:
256,192,111261,1,0,0:0:0:0:
256,192,111432,1,2,0:0:0:0:
256,192,111604,1,2,0:0:0:0:
256,192,111775,1,0,0:0:0:0:
256,192,111861,1,2,0:0:0:0:
256,192,111946,1,0,0:0:0:0:
256,192,112118,1,2,0:0:0:0:
256,192,112461,1,0,0:0:0:0:
256,192,112804,1,2,0:0:0:0:
256,192,112975,1,2,0:0:0:0:
256,192,113061,1,0,0:0:0:0:
256,192,113146,1,0,0:0:0:0:
256,192,113318,1,0,0:0:0:0:
256,192,113489,1,2,0:0:0:0:
256,192,113832,1,0,0:0:0:0:
256,192,114004,1,0,0:0:0:0:
256,192,114175,1,2,0:0:0:0:
256,192,114346,1,0,0:0:0:0:
256,192,114518,1,2,0:0:0:0:
256,192,114604,1,2,0:0:0:0:
256,192,114689,1,0,0:0:0:0:
256,192,114861,1,2,0:0:0:0:
256,192,115032,1,0,0:0:0:0:
256,192,115089,1,2,0:0:0:0:
256,192,115146,1,2,0:0:0:0:
256,192,115204,1,0,0:0:0:0:
256,192,115546,1,2,0:0:0:0:
256,192,115718,1,0,0:0:0:0:
256,192,115889,1,0,0:0:0:0:
256,192,115975,1,0,0:0:0:0:
256,192,116061,1,0,0:0:0:0:
256,192,116232,1,2,0:0:0:0:
256,192,116575,1,0,0:0:0:0:
256,192,116746,1,0,0:0:0:0:
256,192,116918,1,2,0:0:0:0:
256,192,117089,1,2,0:0:0:0:
256,192,117261,1,2,0:0:0:0:
256,192,117346,1,0,0:0:0:0:
256,192,117432,1,2,0:0:0:0:
256,192,117604,1,2,0:0:0:0:
256,192,117946,1,0,0:0:0:0:
256,192,118289,1,2,0:0:0:0:
256,192,118461,1,0,0:0:0:0:
256,192,118546,1,2,0:0:0:0:
256,192,118632,1,0,0:0:0:0:
256,192,118804,1,0,0:0:0:0:
256,192,118975,1,2,0:0:0:0:
256,192,119318,1,0,0:0:0:0:
256,192,119489,1,0,0:0:0:0:
256,192,119661,1,2,0:0:0:0:
256,192,119832,1,0,0:0:0:0:
256,192,120004,1,0,0:0:0:0:
256,192,120089,1,0,0:0:0:0:
256,192,120175,1,2,0:0:0:0:
256,192,120261,1,2,0:0:0:0:
256,192,120346,1,0,0:0:0:0:
256,192,120518,1,0,0:0:0:0:
256,192,120689,1,2,0:0:0:0:
256,192,121032,1,2,0:0:0:0:
256,192,121204,1,0,0:0:0:0:
256,192,121375,1,0,0:0:0:0:
256,192,121461,1,0,0:0:0:0:
256,192,121546,1,0,0:0:0:0:
256,192,121718,1,2,0:0:0:0:
256,192,122061,1,0,0:0:0:0:
256,192,122232,1,0,0:0:0:0:
256,192,122404,1,2,0:0:0:0:
256,192,122575,1,0,0:0:0:0:
256,192,122746,1,2,0:0:0:0:
256,192,122918,1,0,0:0:0:0:
256,192,123004,1,2,0:0:0:0:
256,192,123089,1,2,0:0:0:0:
256,192,123432,1,0,0:0:0:0:
256,192,123775,1,2,0:0:0:0:
256,192,123946,1,0,0:0:0:0:
256,192,124118,1,0,0:0:0:0:
256,192,124204,1,0,0:0:0:0:
256,192,124289,1,0,0:0:0:0:
256,192,124461,1,2,0:0:0:0:
256,192,124804,1,0,0:0:0:0:
256,192,124975,1,0,0:0:0:0:
256,192,125146,1,2,0:0:0:0:
256,192,125318,1,2,0:0:0:0:
256,192,125489,1,0,0:0:0:0:
256,192,125575,1,2,0:0:0:0:
256,192,125661,1,0,0:0:0:0:
256,192,125832,1,2,0:0:0:0:
256,192,126175,1,0,0:0:0:0:
256,192,126518,1,2,0:0:0:0:
256,192,126689,1,0,0:0:0:0:
256,192,126861,1,0,0:0:0:0:
256,192,127032,1,0,0:0:0:0:
256,192,127118,1,0,0:0:0:0:
256,192,127204,1,2,0:0:0:0:
256,192,127546,1,0,0:0:0:0:
256,192,127718,1,0,0:0:0:0:
256,192,127889,1,2,0:0:0:0:
256,192,127975,1,2,0:0:0:0:
256,192,128061,1,0,0:0:0:0:
256,192,128232,1,0,0:0:0:0:
256,192,128404,1,0,0:0:0:0:
256,192,128575,1,2,0:0:0:0:
256,192,128661,1,2,0:0:0:0:
256,192,128746,1,0,0:0:0:0:
256,192,128832,1,2,0:0:0:0:
256,192,128918,1,2,0:0:0:0:
256,192,129089,1,2,0:0:0:0:
256,192,129261,1,2,0:0:0:0:
256,192,129432,1,2,0:0:0:0:
256,192,129604,1,2,0:0:0:0:
256,192,129775,1,2,0:0:0:0:
256,192,129946,1,2,0:0:0:0:
256,192,130118,1,2,0:0:0:0:
256,192,130289,1,2,0:0:0:0:
256,192,130375,1,2,0:0:0:0:
256,192,130461,1,0,0:0:0:0:
256,192,130546,1,0,0:0:0:0:
256,192,130632,1,2,0:0:0:0:
256,192,130718,1,0,0:0:0:0:
256,192,130804,1,2,0:0:0:0:
256,192,130889,1,2,0:0:0:0:
256,192,130975,1,0,0:0:0:0:
256,192,131061,1,0,0:0:0:0:
256,192,131146,1,2,0:0:0:0:
256,192,131232,1,2,0:0:0:0:
256,192,131318,1,2,0:0:0:0:
256,192,131489,1,0,0:0:0:0:
256,192,131661,1,2,0:0:0:0:
256,192,131832,1,0,0:0:0:0:
256,192,132004,1,0,0:0:0:0:
256,192,132175,1,2,0:0:0:0:
256,192,132346,1,0,0:0:0:0:
256,192,132518,1,0,0:0:0:0:
256,192,132689,1,2,0:0:0:0:
256,192,132746,1,2,0:0:0:0:
256,192,132804,1,2,0:0:0:0:
256,192,132861,1,0,0:0:0:0:
256,192,133032,1,6,0:0:0:0:
256,192,133118,12,0,142289,0:0:0:0:
256,192,142461,12,0,153604,0:0:0:0:
256,192,160461,5,0,0:0:0:0:
256,192,165946,5,0,0:0:0:0:
256,192,168689,1,2,0:0:0:0:
256,192,170404,1,2,0:0:0:0:
256,192,172118,1,0,0:0:0:0:
256,192,172975,1,2,0:0:0:0:
256,192,174518,1,2,0:0:0:0:
256,192,175889,1,0,0:0:0:0:
256,192,177089,1,2,0:0:0:0:
256,192,178461,1,2,0:0:0:0:
256,192,179832,1,2,0:0:0:0:
256,192,181375,1,0,0:0:0:0:
256,192,182575,1,2,0:0:0:0:
256,192,183946,1,2,0:0:0:0:
256,192,185318,1,0,0:0:0:0:
256,192,186689,1,2,0:0:0:0:
256,192,188061,1,2,0:0:0:0:
256,192,188746,1,0,0:0:0:0:
256,192,189432,1,2,0:0:0:0:
256,192,190118,1,0,0:0:0:0:
256,192,190804,1,2,0:0:0:0:
256,192,192346,1,2,0:0:0:0:
256,192,193718,1,0,0:0:0:0:
256,192,195089,1,0,0:0:0:0:
256,192,196461,1,2,0:0:0:0:
256,192,199204,1,0,0:0:0:0:
256,192,204346,5,4,0:0:0:0:
256,192,204689,1,2,0:0:0:0:
256,192,204861,1,0,0:0:0:0:
256,192,205204,1,0,0:0:0:0:
256,192,205375,1,2,0:0:0:0:
256,192,205718,1,0,0:0:0:0:
256,192,206061,1,2,0:0:0:0:
256,192,206232,1,0,0:0:0:0:
256,192,206575,1,0,0:0:0:0:
256,192,206746,1,2,0:0:0:0:
256,192,207089,1,0,0:0:0:0:
256,192,207432,1,0,0:0:0:0:
256,192,207604,1,2,0:0:0:0:
256,192,207946,1,0,0:0:0:0:
256,192,208118,1,2,0:0:0:0:
256,192,208461,1,0,0:0:0:0:
256,192,208804,1,0,0:0:0:0:
256,192,208975,1,2,0:0:0:0:
256,192,209318,1,2,0:0:0:0:
256,192,209489,1,0,0:0:0:0:
256,192,209832,1,2,0:0:0:0:
256,192,210175,1,0,0:0:0:0:
256,192,210346,1,0,0:0:0:0:
256,192,210518,1,2,0:0:0:0:
256,192,210861,1,0,0:0:0:0:
256,192,211032,1,0,0:0:0:0:
256,192,211204,1,0,0:0:0:0:
256,192,211375,1,2,0:0:0:0:
256,192,211718,1,2,0:0:0:0:
256,192,211889,1,0,0:0:0:0:
256,192,212061,1,0,0:0:0:0:
256,192,212232,1,2,0:0:0:0:
256,192,212575,1,0,0:0:0:0:
256,192,212746,1,0,0:0:0:0:
256,192,212918,1,2,0:0:0:0:
256,192,213089,1,2,0:0:0:0:
256,192,213261,1,0,0:0:0:0:
256,192,213604,1,0,0:0:0:0:
256,192,213775,1,2,0:0:0:0:
256,192,214118,1,0,0:0:0:0:
256,192,214289,1,2,0:0:0:0:
256,192,214461,1,2,0:0:0:0:
256,192,214632,1,0,0:0:0:0:
256,192,214975,1,0,0:0:0:0:
256,192,215146,1,2,0:0:0:0:
256,192,215489,1,0,0:0:0:0:
256,192,215661,1,0,0:0:0:0:
256,192,215832,1,2,0:0:0:0:
256,192,216004,1,0,0:0:0:0:
256,192,216175,1,0,0:0:0:0:
256,192,216346,1,2,0:0:0:0:
256,192,216518,1,2,0:0:0:0:
256,192,216861,1,0,0:0:0:0:
256,192,217032,1,0,0:0:0:0:
256,192,217204,1,2,0:0:0:0:
256,192,217546,1,0,0:0:0:0:
256,192,217718,1,0,0:0:0:0:
256,192,217889,1,2,0:0:0:0:
256,192,218061,1,2,0:0:0:0:
256,192,218232,1,0,0:0:0:0:
256,192,218404,1,0,0:0:0:0:
256,192,218575,1,2,0:0:0:0:
256,192,218918,1,2,0:0:0:0:
256,192,219089,1,0,0:0:0:0:
256,192,219261,1,2,0:0:0:0:
256,192,219432,1,2,0:0:0:0:
256,192,219604,1,0,0:0:0:0:
256,192,219775,1,0,0:0:0:0:
256,192,219946,1,2,0:0:0:0:
256,192,220289,1,0,0:0:0:0:
256,192,220461,1,0,0:0:0:0:
256,192,220632,1,2,0:0:0:0:
256,192,220975,1,0,0:0:0:0:
256,192,221146,1,2,0:0:0:0:
256,192,221318,1,2,0:0:0:0:
256,192,221489,1,0,0:0:0:0:
256,192,221661,1,2,0:0:0:0:
256,192,221832,1,2,0:0:0:0:
256,192,222004,1,0,0:0:0:0:
256,192,222346,1,0,0:0:0:0:
256,192,222518,1,2,0:0:0:0:
256,192,222689,1,2,0:0:0:0:
256,192,223032,1,2,0:0:0:0:
256,192,223204,1,2,0:0:0:0:
256,192,223375,1,0,0:0:0:0:
256,192,223718,1,0,0:0:0:0:
256,192,223889,1,2,0:0:0:0:
256,192,224061,1,2,0:0:0:0:
256,192,224232,1,0,0:0:0:0:
256,192,224404,1,2,0:0:0:0:
256,192,224575,1,2,0:0:0:0:
256,192,224746,1,2,0:0:0:0:
256,192,224918,1,0,0:0:0:0:
256,192,225089,1,2,0:0:0:0:
256,192,225261,1,2,0:0:0:0:
256,192,225432,1,2,0:0:0:0:
256,192,225775,1,2,0:0:0:0:
256,192,225946,1,2,0:0:0:0:
256,192,226118,1,2,0:0:0:0:
256,192,226289,1,0,0:0:0:0:
256,192,226461,1,0,0:0:0:0:
256,192,226632,1,2,0:0:0:0:
256,192,226804,1,2,0:0:0:0:
256,192,227146,1,0,0:0:0:0:
256,192,227318,1,2,0:0:0:0:
256,192,227489,1,2,0:0:0:0:
256,192,227661,1,0,0:0:0:0:
256,192,227832,1,2,0:0:0:0:
256,192,228004,1,2,0:0:0:0:
256,192,228175,1,2,0:0:0:0:
256,192,228518,1,0,0:0:0:0:
256,192,228689,1,2,0:0:0:0:
256,192,228861,1,0,0:0:0:0:
256,192,229032,1,2,0:0:0:0:
256,192,229204,1,2,0:0:0:0:
256,192,229375,1,2,0:0:0:0:
256,192,229546,1,2,0:0:0:0:
256,192,229718,1,0,0:0:0:0:
256,192,229889,1,2,0:0:0:0:
256,192,230061,1,0,0:0:0:0:
256,192,230232,1,2,0:0:0:0:
256,192,230404,1,0,0:0:0:0:
256,192,230575,1,0,0:0:0:0:
256,192,230746,1,2,0:0:0:0:
256,192,230918,1,2,0:0:0:0:
256,192,231089,1,0,0:0:0:0:
256,192,231261,1,2,0:0:0:0:
256,192,231432,1,2,0:0:0:0:
256,192,231604,1,2,0:0:0:0:
256,192,231775,1,0,0:0:0:0:
256,192,231946,1,0,0:0:0:0:
256,192,232118,1,2,0:0:0:0:
256,192,232289,1,2,0:0:0:0:
256,192,232461,1,0,0:0:0:0:
256,192,232632,1,2,0:0:0:0:
256,192,232804,1,2,0:0:0:0:
256,192,232975,1,2,0:0:0:0:
256,192,233146,1,0,0:0:0:0:
256,192,233318,1,2,0:0:0:0:
256,192,233489,1,2,0:0:0:0:
256,192,233661,1,2,0:0:0:0:
256,192,233832,1,0,0:0:0:0:
256,192,234004,1,2,0:0:0:0:
256,192,234175,1,2,0:0:0:0:
256,192,234346,1,2,0:0:0:0:
256,192,234518,1,0,0:0:0:0:
256,192,234689,1,0,0:0:0:0:
256,192,234861,1,2,0:0:0:0:
256,192,235032,1,2,0:0:0:0:
256,192,235204,1,0,0:0:0:0:
256,192,235375,1,0,0:0:0:0:
256,192,235546,1,0,0:0:0:0:
256,192,235718,1,2,0:0:0:0:
256,192,235889,1,0,0:0:0:0:
256,192,236061,1,0,0:0:0:0:
256,192,236232,1,2,0:0:0:0:
256,192,236404,1,2,0:0:0:0:
256,192,236575,1,0,0:0:0:0:
256,192,236746,1,0,0:0:0:0:
256,192,236918,1,0,0:0:0:0:
256,192,237089,1,2,0:0:0:0:
256,192,237261,1,0,0:0:0:0:
256,192,237432,1,0,0:0:0:0:
256,192,237604,1,2,0:0:0:0:
256,192,237775,1,2,0:0:0:0:
256,192,237946,1,0,0:0:0:0:
256,192,238289,1,0,0:0:0:0:
256,192,238461,1,0,0:0:0:0:
256,192,238632,1,0,0:0:0:0:
256,192,238804,1,2,0:0:0:0:
256,192,239146,1,0,0:0:0:0:
256,192,239318,1,0,0:0:0:0:
256,192,239489,1,0,0:0:0:0:
256,192,239661,1,2,0:0:0:0:
256,192,240004,1,0,0:0:0:0:
256,192,240175,1,0,0:0:0:0:
256,192,240346,1,2,0:0:0:0:
256,192,240518,1,0,0:0:0:0:
256,192,240689,1,2,0:0:0:0:
256,192,241032,1,0,0:0:0:0:
256,192,241204,1,0,0:0:0:0:
256,192,241375,1,2,0:0:0:0:
256,192,241546,1,0,0:0:0:0:
256,192,242061,1,2,0:0:0:0:
256,192,242575,1,0,0:0:0:0:
256,192,242746,1,2,0:0:0:0:
256,192,243261,1,0,0:0:0:0:
256,192,243432,1,2,0:0:0:0:
256,192,243946,1,0,0:0:0:0:
256,192,244118,1,0,0:0:0:0:
256,192,244289,1,2,0:0:0:0:
256,192,244632,1,0,0:0:0:0:
256,192,244804,1,0,0:0:0:0:
256,192,244975,1,0,0:0:0:0:
256,192,245146,1,0,0:0:0:0:
256,192,245489,1,0,0:0:0:0:
256,192,245661,1,0,0:0:0:0:
256,192,245832,1,0,0:0:0:0:
256,192,246004,1,0,0:0:0:0:
256,192,246175,1,2,0:0:0:0:
256,192,246861,12,0,248146,0:0:0:0:
256,192,248232,12,0,249518,0:0:0:0:
256,192,249604,5,6,0:0:0:0:
256,192,249775,1,0,0:0:0:0:
256,192,249861,1,0,0:0:0:0:
256,192,249946,1,0,0:0:0:0:
256,192,250118,1,0,0:0:0:0:
256,192,250289,1,2,0:0:0:0:
256,192,250461,1,2,0:0:0:0:
256,192,250632,1,0,0:0:0:0:
256,192,250804,1,0,0:0:0:0:
256,192,250975,1,2,0:0:0:0:
256,192,251061,1,0,0:0:0:0:
256,192,251146,1,0,0:0:0:0:
256,192,251318,1,0,0:0:0:0:
256,192,251489,1,0,0:0:0:0:
256,192,251661,1,2,0:0:0:0:
256,192,251832,1,2,0:0:0:0:
256,192,252004,1,0,0:0:0:0:
256,192,252175,1,0,0:0:0:0:
256,192,252346,1,2,0:0:0:0:
256,192,252518,1,0,0:0:0:0:
256,192,252604,1,2,0:0:0:0:
256,192,252689,1,0,0:0:0:0:
256,192,252861,1,0,0:0:0:0:
256,192,253032,1,2,0:0:0:0:
256,192,253204,1,2,0:0:0:0:
256,192,253375,1,0,0:0:0:0:
256,192,253546,1,0,0:0:0:0:
256,192,253718,1,2,0:0:0:0:
256,192,253804,1,0,0:0:0:0:
256,192,253889,1,0,0:0:0:0:
256,192,254061,1,0,0:0:0:0:
256,192,254232,1,0,0:0:0:0:
256,192,254404,1,2,0:0:0:0:
256,192,254489,1,2,0:0:0:0:
256,192,254575,1,0,0:0:0:0:
256,192,254746,1,2,0:0:0:0:
256,192,254918,1,0,0:0:0:0:
256,192,255004,1,0,0:0:0:0:
256,192,255089,1,2,0:0:0:0:
256,192,255261,1,0,0:0:0:0:
256,192,255432,1,0,0:0:0:0:
256,192,255604,1,0,0:0:0:0:
256,192,255775,1,2,0:0:0:0:
256,192,255946,1,2,0:0:0:0:
256,192,256118,1,0,0:0:0:0:
256,192,256289,1,0,0:0:0:0:
256,192,256461,1,2,0:0:0:0:
256,192,256546,1,2,0:0:0:0:
256,192,256632,1,0,0:0:0:0:
256,192,256804,1,0,0:0:0:0:
256,192,256975,1,0,0:0:0:0:
256,192,257146,1,2,0:0:0:0:
256,192,257318,1,2,0:0:0:0:
256,192,257489,1,0,0:0:0:0:
256,192,257661,1,0,0:0:0:0:
256,192,257832,1,2,0:0:0:0:
256,192,258004,1,0,0:0:0:0:
256,192,258089,1,2,0:0:0:0:
256,192,258175,1,2,0:0:0:0:
256,192,258346,1,0,0:0:0:0:
256,192,258518,1,2,0:0:0:0:
256,192,258689,1,2,0:0:0:0:
256,192,258861,1,0,0:0:0:0:
256,192,259032,1,0,0:0:0:0:
256,192,259204,1,2,0:0:0:0:
256,192,259289,1,0,0:0:0:0:
256,192,259375,1,0,0:0:0:0:
256,192,259546,1,0,0:0:0:0:
256,192,259718,1,0,0:0:0:0:
256,192,259889,1,2,0:0:0:0:
256,192,260061,1,0,0:0:0:0:
256,192,260146,1,0,0:0:0:0:
256,192,260232,1,0,0:0:0:0:
256,192,260404,1,0,0:0:0:0:
256,192,260575,1,2,0:0:0:0:
256,192,260746,1,0,0:0:0:0:
256,192,260832,1,2,0:0:0:0:
256,192,260918,1,0,0:0:0:0:
256,192,261089,1,0,0:0:0:0:
256,192,261261,1,2,0:0:0:0:
256,192,261432,1,2,0:0:0:0:
256,192,261604,1,0,0:0:0:0:
256,192,261775,1,0,0:0:0:0:
256,192,261946,1,2,0:0:0:0:
256,192,262032,1,2,0:0:0:0:
256,192,262118,1,0,0:0:0:0:
256,192,262289,1,0,0:0:0:0:
256,192,262461,1,0,0:0:0:0:
256,192,262632,1,2,0:0:0:0:
256,192,262804,1,2,0:0:0:0:
256,192,262975,1,0,0:0:0:0:
256,192,263146,1,0,0:0:0:0:
256,192,263318,1,2,0:0:0:0:
256,192,263489,1,0,0:0:0:0:
256,192,263575,1,0,0:0:0:0:
256,192,263661,1,2,0:0:0:0:
256,192,263832,1,0,0:0:0:0:
256,192,264004,1,2,0:0:0:0:
256,192,264175,1,2,0:0:0:0:
256,192,264346,1,0,0:0:0:0:
256,192,264518,1,0,0:0:0:0:
256,192,264689,1,2,0:0:0:0:
256,192,264775,1,0,0:0:0:0:
256,192,264861,1,0,0:0:0:0:
256,192,265032,1,0,0:0:0:0:
256,192,265204,1,0,0:0:0:0:
256,192,265375,1,2,0:0:0:0:
256,192,265546,1,0,0:0:0:0:
256,192,265632,1,0,0:0:0:0:
256,192,265718,1,2,0:0:0:0:
256,192,265889,1,0,0:0:0:0:
256,192,265975,1,2,0:0:0:0:
256,192,266061,1,2,0:0:0:0:
256,192,266232,1,0,0:0:0:0:
256,192,266404,1,0,0:0:0:0:
256,192,266575,1,0,0:0:0:0:
256,192,266746,1,2,0:0:0:0:
256,192,266918,1,2,0:0:0:0:
256,192,267089,1,0,0:0:0:0:
256,192,267261,1,0,0:0:0:0:
256,192,267432,1,2,0:0:0:0:
256,192,267518,1,0,0:0:0:0:
256,192,267604,1,0,0:0:0:0:
256,192,267775,1,0,0:0:0:0:
256,192,267946,1,0,0:0:0:0:
256,192,268118,1,2,0:0:0:0:
256,192,268289,1,2,0:0:0:0:
256,192,268461,1,0,0:0:0:0:
256,192,268632,1,0,0:0:0:0:
256,192,268804,1,2,0:0:0:0:
256,192,268975,1,0,0:0:0:0:
256,192,269061,1,0,0:0:0:0:
256,192,269146,1,2,0:0:0:0:
256,192,269232,1,2,0:0:0:0:
256,192,269318,1,0,0:0:0:0:
256,192,269489,1,2,0:0:0:0:
256,192,269661,1,0,0:0:0:0:
256,192,269832,1,2,0:0:0:0:
256,192,269918,1,0,0:0:0:0:
256,192,270004,1,0,0:0:0:0:
256,192,270175,1,2,0:0:0:0:
256,192,270346,1,0,0:0:0:0:
256,192,270518,1,0,0:0:0:0:
256,192,270689,1,0,0:0:0:0:
256,192,270861,1,2,0:0:0:0:
256,192,271032,1,2,0:0:0:0:
256,192,271204,1,0,0:0:0:0:
256,192,271375,1,0,0:0:0:0:
256,192,271546,1,2,0:0:0:0:
256,192,271718,1,0,0:0:0:0:
256,192,271804,1,0,0:0:0:0:
256,192,271889,1,2,0:0:0:0:
256,192,272061,1,0,0:0:0:0:
256,192,272232,1,2,0:0:0:0:
256,192,272404,1,2,0:0:0:0:
256,192,272575,1,0,0:0:0:0:
256,192,272746,1,0,0:0:0:0:
256,192,272918,1,0,0:0:0:0:
256,192,273004,1,2,0:0:0:0:
256,192,273089,1,0,0:0:0:0:
256,192,273261,1,0,0:0:0:0:
256,192,273432,1,0,0:0:0:0:
256,192,273604,1,2,0:0:0:0:
256,192,273775,1,2,0:0:0:0:
256,192,273946,1,0,0:0:0:0:
256,192,274118,1,0,0:0:0:0:
256,192,274289,1,2,0:0:0:0:
256,192,274375,1,2,0:0:0:0:
256,192,274461,1,0,0:0:0:0:
256,192,274546,1,0,0:0:0:0:
256,192,274632,1,0,0:0:0:0:
256,192,274804,1,0,0:0:0:0:
256,192,274975,1,2,0:0:0:0:
256,192,275146,1,2,0:0:0:0:
256,192,275318,1,0,0:0:0:0:
256,192,275489,1,0,0:0:0:0:
256,192,275661,1,2,0:0:0:0:
256,192,275832,1,0,0:0:0:0:
256,192,275918,1,0,0:0:0:0:
256,192,276004,1,2,0:0:0:0:
256,192,276175,1,0,0:0:0:0:
256,192,276346,1,2,0:0:0:0:
256,192,276518,1,2,0:0:0:0:
256,192,276689,1,0,0:0:0:0:
256,192,276861,1,0,0:0:0:0:
256,192,277032,1,2,0:0:0:0:
256,192,277118,1,2,0:0:0:0:
256,192,277204,1,0,0:0:0:0:
256,192,277375,1,0,0:0:0:0:
256,192,277546,1,0,0:0:0:0:
256,192,277718,1,2,0:0:0:0:
256,192,277889,1,2,0:0:0:0:
256,192,278061,1,0,0:0:0:0:
256,192,278232,1,0,0:0:0:0:
256,192,278404,1,2,0:0:0:0:
256,192,278575,1,0,0:0:0:0:
256,192,278661,1,2,0:0:0:0:
256,192,278746,1,2,0:0:0:0:
256,192,278918,1,0,0:0:0:0:
256,192,279089,1,2,0:0:0:0:
256,192,279261,1,2,0:0:0:0:
256,192,279432,1,0,0:0:0:0:
256,192,279604,1,0,0:0:0:0:
256,192,279775,1,2,0:0:0:0:
256,192,279861,1,2,0:0:0:0:
256,192,279946,1,2,0:0:0:0:
256,192,280032,1,2,0:0:0:0:
256,192,280118,1,0,0:0:0:0:
256,192,280289,1,0,0:0:0:0:
256,192,280461,1,2,0:0:0:0:
256,192,280632,1,2,0:0:0:0:
256,192,280804,1,0,0:0:0:0:
256,192,280975,1,0,0:0:0:0:
256,192,281146,1,2,0:0:0:0:
256,192,281318,1,0,0:0:0:0:
256,192,281404,1,0,0:0:0:0:
256,192,281489,1,0,0:0:0:0:
256,192,281661,1,0,0:0:0:0:
256,192,281832,1,2,0:0:0:0:
256,192,282004,1,2,0:0:0:0:
256,192,282175,1,0,0:0:0:0:
256,192,282346,1,0,0:0:0:0:
256,192,282518,1,2,0:0:0:0:
256,192,282604,1,0,0:0:0:0:
256,192,282689,1,2,0:0:0:0:
256,192,282861,1,0,0:0:0:0:
256,192,283032,1,0,0:0:0:0:
256,192,283204,1,2,0:0:0:0:
256,192,283375,1,2,0:0:0:0:
256,192,283546,1,0,0:0:0:0:
256,192,283718,1,0,0:0:0:0:
256,192,283889,1,2,0:0:0:0:
256,192,284061,1,0,0:0:0:0:
256,192,284146,1,0,0:0:0:0:
256,192,284232,1,2,0:0:0:0:
256,192,284404,1,0,0:0:0:0:
256,192,284575,1,2,0:0:0:0:
256,192,284746,1,2,0:0:0:0:
256,192,284918,1,0,0:0:0:0:
256,192,285089,1,0,0:0:0:0:
256,192,285261,1,2,0:0:0:0:
256,192,285346,1,0,0:0:0:0:
256,192,285432,1,0,0:0:0:0:
256,192,285604,1,0,0:0:0:0:
256,192,285775,1,0,0:0:0:0:
256,192,285946,1,2,0:0:0:0:
256,192,286118,1,2,0:0:0:0:
256,192,286289,1,0,0:0:0:0:
256,192,286461,1,0,0:0:0:0:
256,192,286632,1,2,0:0:0:0:
256,192,286804,1,2,0:0:0:0:
256,192,286889,1,2,0:0:0:0:
256,192,286975,1,0,0:0:0:0:
256,192,287146,1,0,0:0:0:0:
256,192,287318,1,2,0:0:0:0:
256,192,287489,1,2,0:0:0:0:
256,192,287661,1,0,0:0:0:0:
256,192,287832,1,0,0:0:0:0:
256,192,288004,1,2,0:0:0:0:
256,192,288089,1,2,0:0:0:0:
256,192,288175,1,0,0:0:0:0:
256,192,288261,1,0,0:0:0:0:
256,192,288346,1,0,0:0:0:0:
256,192,288518,1,0,0:0:0:0:
256,192,288689,1,2,0:0:0:0:
256,192,288861,1,2,0:0:0:0:
256,192,289032,1,0,0:0:0:0:
256,192,289204,1,0,0:0:0:0:
256,192,289375,1,2,0:0:0:0:
256,192,289461,1,0,0:0:0:0:
256,192,289546,1,0,0:0:0:0:
256,192,289718,1,0,0:0:0:0:
256,192,289889,1,0,0:0:0:0:
256,192,290061,1,2,0:0:0:0:
256,192,290232,1,2,0:0:0:0:
256,192,290404,1,0,0:0:0:0:
256,192,290575,1,0,0:0:0:0:
256,192,290746,1,0,0:0:0:0:
256,192,293489,1,0,0:0:0:0:
256,192,293832,1,0,0:0:0:0:
256,192,294175,1,2,0:0:0:0:
256,192,294518,1,0,0:0:0:0:
256,192,294861,1,2,0:0:0:0:
256,192,295204,1,0,0:0:0:0:
256,192,295546,1,2,0:0:0:0:
256,192,295889,1,2,0:0:0:0:
256,192,296232,1,0,0:0:0:0:
256,192,296575,1,0,0:0:0:0:
256,192,296918,1,2,0:0:0:0:
256,192,297261,1,2,0:0:0:0:
256,192,298975,1,0,0:0:0:0:
256,192,299318,1,0,0:0:0:0:
256,192,299661,1,2,0:0:0:0:
256,192,300004,1,0,0:0:0:0:
256,192,300346,1,2,0:0:0:0:
256,192,300689,1,0,0:0:0:0:
256,192,301032,1,2,0:0:0:0:
256,192,301375,1,2,0:0:0:0:
256,192,301718,1,0,0:0:0:0:
256,192,302061,1,0,0:0:0:0:
256,192,302404,1,2,0:0:0:0:
256,192,302746,1,0,0:0:0:0:
256,192,304461,1,0,0:0:0:0:
256,192,304804,1,0,0:0:0:0:
256,192,305146,1,2,0:0:0:0:
256,192,305489,1,0,0:0:0:0:
256,192,305832,1,2,0:0:0:0:
256,192,306175,1,0,0:0:0:0:
256,192,306518,1,2,0:0:0:0:
256,192,306861,1,2,0:0:0:0:
256,192,307204,1,0,0:0:0:0:
256,192,307546,1,0,0:0:0:0:
256,192,307889,1,2,0:0:0:0:
256,192,308232,1,2,0:0:0:0:
256,192,309946,1,0,0:0:0:0:
256,192,310289,1,0,0:0:0:0:
256,192,310632,1,2,0:0:0:0:
256,192,310975,1,0,0:0:0:0:
256,192,311318,1,2,0:0:0:0:
256,192,311661,1,0,0:0:0:0:
256,192,312004,1,2,0:0:0:0:
256,192,312346,1,2,0:0:0:0:
256,192,312689,1,0,0:0:0:0:
256,192,313032,1,0,0:0:0:0:
256,192,313375,1,2,0:0:0:0:
256,192,313718,1,0,0:0:0:0:
256,192,315432,1,2,0:0:0:0:
256,192,315775,1,0,0:0:0:0:
256,192,315946,1,0,0:0:0:0:
256,192,316118,1,2,0:0:0:0:
256,192,316289,1,2,0:0:0:0:
256,192,316461,1,0,0:0:0:0:
256,192,316804,1,2,0:0:0:0:
256,192,316975,1,2,0:0:0:0:
256,192,317146,1,0,0:0:0:0:
256,192,317318,1,0,0:0:0:0:
256,192,317489,1,2,0:0:0:0:
256,192,317661,1,0,0:0:0:0:
256,192,317832,1,2,0:0:0:0:
256,192,318004,1,2,0:0:0:0:
256,192,318175,1,0,0:0:0:0:
256,192,318518,1,0,0:0:0:0:
256,192,318689,1,0,0:0:0:0:
256,192,318861,1,2,0:0:0:0:
256,192,319204,1,2,0:0:0:0:
256,192,319375,1,0,0:0:0:0:
256,192,319546,1,2,0:0:0:0:
256,192,319718,1,2,0:0:0:0:
256,192,319889,1,2,0:0:0:0:
256,192,320061,1,2,0:0:0:0:
256,192,320232,1,0,0:0:0:0:
256,192,320575,1,2,0:0:0:0:
256,192,320746,1,2,0:0:0:0:
256,192,320918,1,0,0:0:0:0:
256,192,321261,1,0,0:0:0:0:
256,192,321432,1,0,0:0:0:0:
256,192,321604,1,2,0:0:0:0:
256,192,321775,1,0,0:0:0:0:
256,192,321946,1,2,0:0:0:0:
256,192,322289,1,2,0:0:0:0:
256,192,322461,1,0,0:0:0:0:
256,192,322632,1,2,0:0:0:0:
256,192,322804,1,2,0:0:0:0:
256,192,322975,1,0,0:0:0:0:
256,192,323146,1,0,0:0:0:0:
256,192,323318,1,2,0:0:0:0:
256,192,323489,1,2,0:0:0:0:
256,192,323661,1,2,0:0:0:0:
256,192,323746,1,0,0:0:0:0:
256,192,323832,1,0,0:0:0:0:
256,192,323918,1,0,0:0:0:0:
256,192,324004,1,2,0:0:0:0:
256,192,324089,1,2,0:0:0:0:
256,192,324175,1,0,0:0:0:0:
256,192,324261,1,2,0:0:0:0:
256,192,324346,1,0,0:0:0:0:
256,192,324432,1,0,0:0:0:0:
256,192,324518,1,2,0:0:0:0:
256,192,324604,1,0,0:0:0:0:
256,192,324689,1,2,0:0:0:0:
256,192,324775,1,2,0:0:0:0:
256,192,324861,1,2,0:0:0:0:
256,192,324946,1,0,0:0:0:0:
256,192,325032,1,2,0:0:0:0:
256,192,325118,1,2,0:0:0:0:
256,192,325204,1,0,0:0:0:0:
256,192,325289,1,0,0:0:0:0:
256,192,325375,1,2,0:0:0:0:
256,192,325461,1,0,0:0:0:0:
256,192,325546,1,0,0:0:0:0:
256,192,325632,1,0,0:0:0:0:
256,192,325718,1,2,0:0:0:0:
256,192,325804,1,2,0:0:0:0:
256,192,325889,1,0,0:0:0:0:
256,192,325975,1,0,0:0:0:0:
256,192,326061,1,2,0:0:0:0:
256,192,326146,1,0,0:0:0:0:
256,192,326232,1,2,0:0:0:0:
256,192,326318,1,2,0:0:0:0:
256,192,326404,1,4,0:0:0:0:
256,192,326575,1,2,0:0:0:0:
256,192,326661,1,2,0:0:0:0:
256,192,326746,1,0,0:0:0:0:
256,192,326918,1,0,0:0:0:0:
256,192,327089,1,2,0:0:0:0:
256,192,327175,1,0,0:0:0:0:
256,192,327261,1,2,0:0:0:0:
256,192,327346,1,0,0:0:0:0:
256,192,327432,1,0,0:0:0:0:
256,192,327604,1,2,0:0:0:0:
256,192,327689,1,2,0:0:0:0:
256,192,327775,1,0,0:0:0:0:
256,192,327861,1,0,0:0:0:0:
256,192,327946,1,2,0:0:0:0:
256,192,328032,1,0,0:0:0:0:
256,192,328118,1,2,0:0:0:0:
256,192,328289,1,0,0:0:0:0:
256,192,328461,1,2,0:0:0:0:
256,192,328546,1,2,0:0:0:0:
256,192,328632,1,2,0:0:0:0:
256,192,328718,1,0,0:0:0:0:
256,192,328804,1,0,0:0:0:0:
256,192,328975,1,0,0:0:0:0:
256,192,329146,1,2,0:0:0:0:
256,192,329318,1,2,0:0:0:0:
256,192,329404,1,0,0:0:0:0:
256,192,329489,1,2,0:0:0:0:
256,192,329661,1,0,0:0:0:0:
256,192,329832,1,2,0:0:0:0:
256,192,329918,1,2,0:0:0:0:
256,192,330004,1,0,0:0:0:0:
256,192,330089,1,0,0:0:0:0:
256,192,330175,1,0,0:0:0:0:
256,192,330346,1,2,0:0:0:0:
256,192,330432,1,2,0:0:0:0:
256,192,330518,1,2,0:0:0:0:
256,192,330604,1,2,0:0:0:0:
256,192,330689,1,0,0:0:0:0:
256,192,330775,1,0,0:0:0:0:
256,192,330861,1,2,0:0:0:0:
256,192,331032,1,0,0:0:0:0:
256,192,331204,1,2,0:0:0:0:
256,192,331289,1,0,0:0:0:0:
256,192,331375,1,2,0:0:0:0:
256,192,331461,1,2,0:0:0:0:
256,192,331546,1,0,0:0:0:0:
256,192,331718,1,0,0:0:0:0:
256,192,331889,1,2,0:0:0:0:
256,192,332061,1,0,0:0:0:0:
256,192,332146,1,2,0:0:0:0:
256,192,332232,1,0,0:0:0:0:
256,192,332404,1,0,0:0:0:0:
256,192,332575,1,2,0:0:0:0:
256,192,332661,1,2,0:0:0:0:
256,192,332746,1,0,0:0:0:0:
256,192,332832,1,0,0:0:0:0:
256,192,332918,1,2,0:0:0:0:
256,192,333089,1,2,0:0:0:0:
256,192,333175,1,0,0:0:0:0:
256,192,333261,1,2,0:0:0:0:
256,192,333346,1,2,0:0:0:0:
256,192,333432,1,0,0:0:0:0:
256,192,333518,1,0,0:0:0:0:
256,192,333604,1,2,0:0:0:0:
256,192,333775,1,0,0:0:0:0:
256,192,333946,1,2,0:0:0:0:
256,192,334032,1,2,0:0:0:0:
256,192,334118,1,0,0:0:0:0:
256,192,334289,1,2,0:0:0:0:
256,192,334461,1,0,0:0:0:0:
256,192,334632,1,2,0:0:0:0:
256,192,334804,1,0,0:0:0:0:
256,192,334889,1,0,0:0:0:0:
256,192,334975,1,2,0:0:0:0:
256,192,335061,1,2,0:0:0:0:
256,192,335146,1,0,0:0:0:0:
256,192,335318,1,2,0:0:0:0:
256,192,335404,1,0,0:0:0:0:
256,192,335489,1,0,0:0:0:0:
256,192,335661,1,0,0:0:0:0:
256,192,335832,1,2,0:0:0:0:
256,192,335918,1,2,0:0:0:0:
256,192,336004,1,0,0:0:0:0:
256,192,336089,1,0,0:0:0:0:
256,192,336175,1,2,0:0:0:0:
256,192,336261,1,0,0:0:0:0:
256,192,336346,1,2,0:0:0:0:
256,192,336518,1,0,0:0:0:0:
256,192,336689,1,2,0:0:0:0:
256,192,336775,1,0,0:0:0:0:
256,192,336861,1,2,0:0:0:0:
256,192,337032,1,0,0:0:0:0:
256,192,337204,1,0,0:0:0:0:
256,192,337375,1,2,0:0:0:0:
256,192,337546,1,0,0:0:0:0:
256,192,337632,1,0,0:0:0:0:
256,192,337717,1,2,0:0:0:0:
256,192,337889,1,0,0:0:0:0:
256,192,338060,1,2,0:0:0:0:
256,192,338146,1,0,0:0:0:0:
256,192,338232,1,2,0:0:0:0:
256,192,338317,1,2,0:0:0:0:
256,192,338403,1,0,0:0:0:0:
256,192,338575,1,2,0:0:0:0:
256,192,338660,1,2,0:0:0:0:
256,192,338746,1,2,0:0:0:0:
256,192,338832,1,2,0:0:0:0:
256,192,338918,1,0,0:0:0:0:
256,192,339003,1,0,0:0:0:0:
256,192,339089,1,2,0:0:0:0:
256,192,339260,1,0,0:0:0:0:
256,192,339432,1,2,0:0:0:0:
256,192,339517,1,2,0:0:0:0:
256,192,339603,1,0,0:0:0:0:
256,192,339689,1,2,0:0:0:0:
256,192,339775,1,0,0:0:0:0:
256,192,339946,1,0,0:0:0:0:
256,192,340117,1,2,0:0:0:0:
256,192,340289,1,2,0:0:0:0:
256,192,340375,1,0,0:0:0:0:
256,192,340460,1,2,0:0:0:0:
256,192,340632,1,0,0:0:0:0:
256,192,340803,1,2,0:0:0:0:
256,192,340889,1,0,0:0:0:0:
256,192,340975,1,2,0:0:0:0:
256,192,341060,1,0,0:0:0:0:
256,192,341146,1,0,0:0:0:0:
256,192,341317,1,2,0:0:0:0:
256,192,341403,1,2,0:0:0:0:
256,192,341489,1,0,0:0:0:0:
256,192,341575,1,0,0:0:0:0:
256,192,341660,1,2,0:0:0:0:
256,192,341746,1,2,0:0:0:0:
256,192,341832,1,2,0:0:0:0:
256,192,342003,1,0,0:0:0:0:
256,192,342175,1,0,0:0:0:0:
256,192,342260,1,2,0:0:0:0:
256,192,342346,1,2,0:0:0:0:
256,192,342432,1,2,0:0:0:0:
256,192,342517,1,0,0:0:0:0:
256,192,342689,1,0,0:0:0:0:
256,192,342860,1,2,0:0:0:0:
256,192,343032,1,0,0:0:0:0:
256,192,343117,1,2,0:0:0:0:
256,192,343203,1,2,0:0:0:0:
256,192,343375,1,0,0:0:0:0:
256,192,343546,1,0,0:0:0:0:
256,192,343632,1,2,0:0:0:0:
256,192,343717,1,0,0:0:0:0:
256,192,343803,1,0,0:0:0:0:
256,192,343889,1,2,0:0:0:0:
256,192,344060,1,2,0:0:0:0:
256,192,344146,1,0,0:0:0:0:
256,192,344232,1,2,0:0:0:0:
256,192,344317,1,0,0:0:0:0:
256,192,344403,1,0,0:0:0:0:
256,192,344489,1,2,0:0:0:0:
256,192,344575,1,2,0:0:0:0:
256,192,344746,1,0,0:0:0:0:
256,192,344917,1,2,0:0:0:0:
256,192,345003,1,2,0:0:0:0:
256,192,345089,1,0,0:0:0:0:
256,192,345260,1,2,0:0:0:0:
256,192,345432,1,0,0:0:0:0:
256,192,345603,1,2,0:0:0:0:
256,192,345775,1,0,0:0:0:0:
256,192,345861,1,0,0:0:0:0:
256,192,345946,1,2,0:0:0:0:
256,192,346032,1,2,0:0:0:0:
256,192,346117,1,0,0:0:0:0:
256,192,346289,1,2,0:0:0:0:
256,192,346375,1,0,0:0:0:0:
256,192,346460,1,0,0:0:0:0:
256,192,346632,1,0,0:0:0:0:
256,192,346803,1,2,0:0:0:0:
256,192,346889,1,2,0:0:0:0:
256,192,346975,1,0,0:0:0:0:
256,192,347060,1,0,0:0:0:0:
256,192,347146,1,2,0:0:0:0:
256,192,347232,1,0,0:0:0:0:
256,192,347317,1,2,0:0:0:0:
256,192,347489,1,0,0:0:0:0:
256,192,347660,1,2,0:0:0:0:
256,192,347746,1,0,0:0:0:0:
256,192,347832,1,0,0:0:0:0:
256,192,348003,1,2,0:0:0:0:
256,192,348175,1,0,0:0:0:0:
256,192,348346,1,2,0:0:0:0:
256,192,348517,1,2,0:0:0:0:
256,192,348603,1,0,0:0:0:0:
256,192,348688,1,2,0:0:0:0:
256,192,348860,1,0,0:0:0:0:
256,192,349031,1,2,0:0:0:0:
256,192,349117,1,2,0:0:0:0:
256,192,349204,1,0,0:0:0:0:
256,192,349288,1,0,0:0:0:0:
256,192,349374,1,0,0:0:0:0:
256,192,349546,1,2,0:0:0:0:
256,192,349631,1,0,0:0:0:0:
256,192,349717,1,2,0:0:0:0:
256,192,349803,1,0,0:0:0:0:
256,192,349888,1,2,0:0:0:0:
256,192,349974,1,2,0:0:0:0:
256,192,350061,1,0,0:0:0:0:
256,192,350231,1,0,0:0:0:0:
256,192,350403,1,2,0:0:0:0:
256,192,350488,1,2,0:0:0:0:
256,192,350575,1,0,0:0:0:0:
256,192,350660,1,0,0:0:0:0:
256,192,350746,1,2,0:0:0:0:
256,192,350917,1,0,0:0:0:0:
256,192,351088,1,2,0:0:0:0:
256,192,351260,1,0,0:0:0:0:
256,192,351346,1,2,0:0:0:0:
256,192,351431,1,2,0:0:0:0:
256,192,351603,1,0,0:0:0:0:
256,192,351774,1,2,0:0:0:0:
256,192,351860,1,0,0:0:0:0:
256,192,351946,1,2,0:0:0:0:
256,192,352031,1,0,0:0:0:0:
256,192,352117,1,0,0:0:0:0:
256,192,352288,1,2,0:0:0:0:
256,192,352374,1,2,0:0:0:0:
256,192,352460,1,2,0:0:0:0:
256,192,352546,1,2,0:0:0:0:
256,192,352631,1,0,0:0:0:0:
256,192,352717,1,0,0:0:0:0:
256,192,352803,1,2,0:0:0:0:
256,192,352974,1,0,0:0:0:0:
256,192,353146,1,0,0:0:0:0:
256,192,353231,1,2,0:0:0:0:
256,192,353317,1,2,0:0:0:0:
256,192,353403,1,0,0:0:0:0:
256,192,353488,1,0,0:0:0:0:
256,192,353660,1,0,0:0:0:0:
256,192,353831,1,2,0:0:0:0:
256,192,354003,1,0,0:0:0:0:
256,192,354088,1,0,0:0:0:0:
256,192,354174,1,2,0:0:0:0:
256,192,354346,1,0,0:0:0:0:
256,192,354517,1,2,0:0:0:0:
256,192,354604,1,0,0:0:0:0:
256,192,354689,1,0,0:0:0:0:
256,192,354775,1,0,0:0:0:0:
256,192,354861,1,2,0:0:0:0:
256,192,355031,1,2,0:0:0:0:
256,192,355117,1,2,0:0:0:0:
256,192,355203,1,0,0:0:0:0:
256,192,355288,1,0,0:0:0:0:
256,192,355374,1,2,0:0:0:0:
256,192,355460,1,0,0:0:0:0:
256,192,355546,1,2,0:0:0:0:
256,192,355717,1,0,0:0:0:0:
256,192,355888,1,2,0:0:0:0:
256,192,355974,1,2,0:0:0:0:
256,192,356060,1,0,0:0:0:0:
256,192,356231,1,2,0:0:0:0:
256,192,356403,1,0,0:0:0:0:
256,192,356574,1,2,0:0:0:0:
256,192,356746,1,2,0:0:0:0:
256,192,356831,1,2,0:0:0:0:
256,192,356917,1,2,0:0:0:0:
256,192,357003,1,0,0:0:0:0:
256,192,357088,1,0,0:0:0:0:
256,192,357260,1,2,0:0:0:0:
256,192,357346,1,0,0:0:0:0:
256,192,357431,1,0,0:0:0:0:
256,192,357603,1,0,0:0:0:0:
256,192,357774,1,2,0:0:0:0:
256,192,357861,1,0,0:0:0:0:
256,192,357946,1,2,0:0:0:0:
256,192,358118,1,0,0:0:0:0:
256,192,358289,1,2,0:0:0:0:
256,192,358461,1,0,0:0:0:0:
256,192,358632,1,2,0:0:0:0:
256,192,358804,1,0,0:0:0:0:
256,192,358889,1,0,0:0:0:0:
256,192,358975,1,2,0:0:0:0:
256,192,359146,1,0,0:0:0:0:
256,192,359317,1,2,0:0:0:0:
256,192,359489,1,0,0:0:0:0:
256,192,359575,1,2,0:0:0:0:
256,192,359661,1,0,0:0:0:0:
256,192,359832,1,2,0:0:0:0:
256,192,360004,1,2,0:0:0:0:
256,192,360089,1,0,0:0:0:0:
256,192,360175,1,0,0:0:0:0:
256,192,360346,1,2,0:0:0:0:
256,192,360518,1,0,0:0:0:0:
256,192,360604,1,0,0:0:0:0:
256,192,360689,1,2,0:0:0:0:
256,192,360775,1,0,0:0:0:0:
256,192,360861,1,2,0:0:0:0:
256,192,361032,1,0,0:0:0:0:
256,192,361204,1,2,0:0:0:0:
256,192,361375,1,2,0:0:0:0:
256,192,361461,1,0,0:0:0:0:
256,192,361546,1,2,0:0:0:0:
256,192,361718,1,2,0:0:0:0:
256,192,361889,1,0,0:0:0:0:
256,192,362060,1,2,0:0:0:0:
256,192,362231,1,0,0:0:0:0:
256,192,362318,1,0,0:0:0:0:
256,192,362403,1,0,0:0:0:0:
256,192,362575,1,2,0:0:0:0:
256,192,362746,1,0,0:0:0:0:
256,192,362832,1,2,0:0:0:0:
256,192,362918,1,0,0:0:0:0:
256,192,363089,1,2,0:0:0:0:
256,192,363261,1,0,0:0:0:0:
256,192,363346,1,0,0:0:0:0:
256,192,363432,1,2,0:0:0:0:
256,192,363518,1,2,0:0:0:0:
256,192,363604,1,0,0:0:0:0:
256,192,363775,1,0,0:0:0:0:
256,192,363946,1,2,0:0:0:0:
256,192,364118,1,0,0:0:0:0:
256,192,364204,1,0,0:0:0:0:
256,192,364289,1,2,0:0:0:0:
256,192,364461,1,2,0:0:0:0:
256,192,364632,1,0,0:0:0:0:
256,192,364804,1,2,0:0:0:0:
256,192,364975,1,0,0:0:0:0:
256,192,365061,1,0,0:0:0:0:
256,192,365146,1,0,0:0:0:0:
256,192,365318,1,2,0:0:0:0:
256,192,365489,1,2,0:0:0:0:
256,192,365575,1,2,0:0:0:0:
256,192,365661,1,0,0:0:0:0:
256,192,365832,1,2,0:0:0:0:
256,192,366004,1,0,0:0:0:0:
256,192,366089,1,0,0:0:0:0:
256,192,366175,1,2,0:0:0:0:
256,192,366261,1,0,0:0:0:0:
256,192,366346,1,0,0:0:0:0:
256,192,366518,1,0,0:0:0:0:
256,192,366689,1,2,0:0:0:0:
256,192,366861,1,0,0:0:0:0:
256,192,366946,1,2,0:0:0:0:
256,192,367032,1,0,0:0:0:0:
256,192,367204,1,2,0:0:0:0:
256,192,367375,1,0,0:0:0:0:
256,192,367546,1,2,0:0:0:0:
256,192,367718,1,2,0:0:0:0:
256,192,367889,1,2,0:0:0:0:
256,192,368061,1,0,0:0:0:0:
256,192,368232,1,2,0:0:0:0:
256,192,368404,1,2,0:0:0:0:
256,192,368575,1,2,0:0:0:0:
256,192,368746,1,0,0:0:0:0:
256,192,368918,1,2,0:0:0:0:
256,192,369004,1,2,0:0:0:0:
256,192,369089,1,2,0:0:0:0:
256,192,369175,1,0,0:0:0:0:
256,192,369261,1,2,0:0:0:0:
256,192,369346,1,2,0:0:0:0:
256,192,369432,1,0,0:0:0:0:
256,192,369518,1,0,0:0:0:0:
256,192,369604,1,2,0:0:0:0:
256,192,369689,1,0,0:0:0:0:
256,192,369775,1,2,0:0:0:0:
256,192,369861,1,2,0:0:0:0:
256,192,369946,1,0,0:0:0:0:
256,192,370118,1,2,0:0:0:0:
256,192,370289,1,4,0:0:0:0:
256,192,370632,1,6,0:0:0:0:
256,192,370718,12,0,382546,0:0:0:0:
256,192,382632,12,0,387346,0:0:0:0:
256,192,387432,12,0,393604,0:0:0:0:
