osu file format v14

[General]
AudioFilename: audio.mp3
AudioLeadIn: 0
PreviewTime: 70003
Countdown: 1
SampleSet: Soft
StackLeniency: 0.7
Mode: 0
LetterboxInBreaks: 0
WidescreenStoryboard: 0

[Editor]
Bookmarks: 5546,11032,16518,22003,27489,49432,71375,93318,115261,137203
DistanceSpacing: 0.2
BeatDivisor: 3
GridSize: 4
TimelineZoom: 2.999999

[Metadata]
Title:Crescendo (ft. MYLK)
TitleUnicode:Crescendo (ft. MYLK)
Artist:Muzzy
ArtistUnicode:Muzzy
Creator:Secretpipe
Version:Insane ft. Max
Source:
Tags:
BeatmapID:1029868
BeatmapSetID:482659

[Difficulty]
HPDrainRate:7
CircleSize:4
OverallDifficulty:7
ApproachRate:9
SliderMultiplier:1.6
SliderTickRate:1

[Events]
//Background and Video events
0,0,"my_silent_chaos_by_nanomortis-da1mqjy.jpg",0,0
//Break Periods
//Storyboard Layer 0 (Background)
//Storyboard Layer 1 (Fail)
//Storyboard Layer 2 (Pass)
//Storyboard Layer 3 (Foreground)
//Storyboard Sound Samples

[TimingPoints]
61,342.857142857143,4,2,0,100,1,0
5203,-200,4,2,0,100,0,0
5546,-133.333333333333,4,2,0,100,0,0
11032,-166.666666666667,4,2,0,100,0,0
12403,-133.333333333333,4,2,0,100,0,0
13089,-111.111111111111,4,2,0,100,0,0
13775,-166.666666666667,4,2,0,100,0,0
14461,-133.333333333333,4,2,0,100,0,0
15146,-111.111111111111,4,2,0,100,0,0
16518,-133.333333333333,4,2,0,100,0,0
22003,-166.666666666667,4,2,0,100,0,0
23375,-133.333333333333,4,2,0,100,0,0
24061,-111.111111111111,4,2,0,100,0,0
24746,-166.666666666667,4,2,0,100,0,0
25432,-133.333333333333,4,2,0,100,0,0
26118,-111.111111111111,4,2,0,100,0,0
27489,-133.333333333333,4,2,0,100,0,0

[Colours]
Combo1 : 234,0,0
Combo2 : 187,188,198
Combo3 : 126,119,164
Combo4 : 90,123,163

[HitObjects]
208,224,5203,6,0,L|214:292,1,53.3333333333333
269,332,5546,6,0,P|321:338|376:316,1,80.0000030517579
408,272,5889,2,0,L|406:205,2,40.000001525879
484,260,6232,2,0,L|484:174,1,80.0000030517579
458,145,6575,2,0,P|413:133|356:149,1,80.0000030517579
305,192,6918,6,0,P|266:211|203:203,1,90.0000034332277
135,178,7261,1,0,0:0:0:0:
119,146,7375,1,0,0:0:0:0:
114,110,7489,1,0,0:0:0:0:
123,75,7603,1,0,0:0:0:0:
279,122,7775,1,0,0:0:0:0:
279,122,7946,2,0,L|174:112,1,80.0000030517579
319,55,8289,6,0,L|426:65,1,80.0000030517579
485,124,8632,2,0,P|495:164|480:232,1,80.0000030517579
454,282,8975,1,0,0:0:0:0:
299,171,9146,1,0,0:0:0:0:
299,171,9318,2,0,L|381:168,1,80.0000030517579
230,117,9661,2,0,P|213:166|230:222,1,80.0000030517579
268,253,10003,2,0,L|163:241,1,80.0000030517579
81,231,10346,1,0,0:0:0:0:
100,186,10461,1,0,0:0:0:0:
72,147,10575,1,0,0:0:0:0:
59,100,10689,1,0,0:0:0:0:
86,60,10803,1,0,0:0:0:0:
134,57,10918,1,0,0:0:0:0:
194,124,11032,6,0,L|304:112,1,95.9999970703126,4|0,3:0|0:0,0:0:0:0:
488,264,11546,2,0,L|378:276,1,95.9999970703126,4|0,3:0|0:0,0:0:0:0:
119,274,12061,1,4,3:0:0:0:
24,264,12232,1,0,0:0:0:0:
372,324,12403,6,0,L|455:314,1,60.0000022888184,4|0,3:0|0:0,0:0:0:0:
140,324,12746,2,0,L|56:314,1,60.0000022888184,0|4,0:0|3:0,0:0:0:0:
467,175,13089,2,0,L|460:256,1,71.9999978027344,4|0,3:0|0:0,0:0:0:0:
140,324,13432,1,4,3:0:0:0:
52,246,13603,1,0,0:0:0:0:
324,70,13775,6,0,P|379:74|416:116,1,95.9999970703126,4|0,3:0|0:0,0:0:0:0:
341,153,14289,1,0,0:0:0:0:
95,47,14461,2,0,P|88:76|87:108,1,60.0000022888184,2|2,0:0|0:0,0:0:0:0:
44,187,14803,2,0,P|44:216|51:245,1,60.0000022888184,2|0,0:0|0:0,0:0:0:0:
359,324,15146,6,0,P|397:330|433:321,1,71.9999978027344,4|0,3:0|0:0,0:0:0:0:
208,199,15489,2,0,P|170:193|134:202,1,71.9999978027344,4|0,3:0|0:0,0:0:0:0:
384,297,15832,2,0,P|422:303|458:294,1,71.9999978027344,4|0,3:0|0:0,0:0:0:0:
335,92,16175,1,2,0:0:0:0:
331,105,16346,1,2,0:0:0:0:
330,117,16518,6,0,P|286:124|223:114,1,80.0000030517579
160,89,16861,2,0,L|169:188,1,80.0000030517579
147,251,17203,1,0,0:0:0:0:
266,311,17375,1,0,0:0:0:0:
266,311,17546,2,0,L|260:213,1,80.0000030517579
289,150,17889,2,0,P|332:137|386:146,1,80.0000030517579
439,187,18232,2,0,L|438:237,2,40.000001525879
452,101,18575,2,0,L|463:18,1,80.0000030517579
301,61,18918,6,0,P|255:71|211:56,1,80.0000030517579
141,22,19261,2,0,L|145:119,1,80.0000030517579
112,176,19603,2,0,L|63:176,2,40.000001525879
193,217,19946,2,0,P|243:212|284:219,1,80.0000030517579
362,252,20289,2,0,L|356:165,1,80.0000030517579
345,88,20632,2,0,P|383:70|442:76,1,80.0000030517579
494,122,20975,2,0,L|484:219,1,90.0000034332277
461,289,21318,6,0,L|467:335,2,40.000001525879
398,220,21661,2,0,L|404:174,2,40.000001525879
157,268,22003,6,0,P|151:315|173:371,1,95.9999970703126,4|0,3:0|0:0,0:0:0:0:
355,116,22518,2,0,P|361:69|339:13,1,95.9999970703126,4|0,3:0|0:0,0:0:0:0:
336,196,23032,1,4,3:0:0:0:
317,276,23203,1,0,0:0:0:0:
114,130,23375,6,0,P|78:125|41:137,1,60.0000022888184,4|0,3:0|0:0,0:0:0:0:
398,254,23718,2,0,P|433:258|471:247,1,60.0000022888184,0|4,0:0|3:0,0:0:0:0:
87,221,24061,2,0,P|80:266|104:313,1,71.9999978027344,4|0,3:0|0:0,0:0:0:0:
163,256,24403,1,4,3:0:0:0:
55,130,24574,1,0,0:0:0:0:
392,162,24746,6,0,P|443:167|490:140,1,95.9999970703126,4|0,3:0|0:0,0:0:0:0:
424,78,25260,1,0,0:0:0:0:
470,280,25432,2,0,P|471:312|462:341,1,60.0000022888184,2|2,0:0|0:0,0:0:0:0:
385,220,25775,2,0,P|384:188|393:159,1,60.0000022888184,2|0,0:0|0:0,0:0:0:0:
219,332,26118,6,0,L|312:322,1,71.9999978027344,4|0,3:0|0:0,0:0:0:0:
113,231,26461,2,0,L|20:221,1,71.9999978027344,4|0,3:0|0:0,0:0:0:0:
256,352,26803,2,0,L|349:342,1,71.9999978027344,4|0,3:0|0:0,0:0:0:0:
36,244,27146,1,2,0:0:0:0:
35,258,27317,1,2,0:0:0:0:
36,272,27489,5,0,0:0:0:0:
