osu file format v14

[General]
AudioFilename: audio.mp3
AudioLeadIn: 0
PreviewTime: 71474
Countdown: 0
SampleSet: Soft
StackLeniency: 0.7
Mode: 2
LetterboxInBreaks: 0
EpilepsyWarning: 1
WidescreenStoryboard: 1

[Editor]
DistanceSpacing: 1.3
BeatDivisor: 8
GridSize: 8
TimelineZoom: 3.599998

[Metadata]
Title:Crescendo (feat. MYLK)
TitleUnicode:Crescendo (feat. MYLK)
Artist:Muzzy
ArtistUnicode:Muzzy
Creator:WildOne94
Version:Virus
Source:
Tags:monstercat kurokami DnB d&b Drum and Bass
BeatmapID:1116331
BeatmapSetID:526032

[Difficulty]
HPDrainRate:7
CircleSize:4.1
OverallDifficulty:9.4
ApproachRate:9.4
SliderMultiplier:1.8
SliderTickRate:1

[Events]
//Background and Video events
0,0,"Muzzy Wallpaper Resize.jpg",0,0
Video,-89,"Muzzy Crescendo Osu Video.mp4"
//Break Periods
//Storyboard Layer 0 (Background)
//Storyboard Layer 1 (Fail)
//Storyboard Layer 2 (Pass)
//Storyboard Layer 3 (Foreground)
//Storyboard Sound Samples

[TimingPoints]
160,342.857142857143,4,2,1,80,1,0
9760,-83.3333333333333,4,2,1,80,0,0
10102,-100,4,2,1,80,0,0
12502,-83.3333333333333,4,2,1,80,0,0
12845,-100,4,2,1,80,0,0
14560,-83.3333333333333,4,2,1,80,0,0
14902,-100,4,2,1,80,0,0
17988,-83.3333333333333,4,2,1,80,0,0
18331,-100,4,2,1,80,0,0
20731,-83.3333333333333,4,2,1,80,0,0
21074,-100,4,2,1,80,0,0
24845,-83.3333333333333,4,2,1,80,0,0
25188,-100,4,2,1,80,0,0
27588,-83.3333333333333,4,2,1,80,0,0
27931,-100,4,2,1,80,0,0
32388,-83.3333333333333,4,2,1,80,0,0
32731,-100,4,2,1,80,0,0
35817,-83.3333333333333,4,2,1,80,0,0
36160,-100,4,2,1,80,0,0
36502,-83.3333333333333,4,2,1,80,0,0
36845,-100,4,2,1,80,0,0
40617,-83.3333333333333,4,2,1,80,0,0
40960,-100,4,2,1,80,0,0
41988,-83.3333333333333,4,2,1,80,0,0
42331,-100,4,2,1,80,0,0
45417,-83.3333333333333,4,2,1,80,0,0
45760,-100,4,2,1,80,0,0
46788,-83.3333333333333,4,2,1,80,0,0
47131,-100,4,2,1,80,0,0
47474,-83.3333333333333,4,2,1,80,0,0
47817,-100,4,2,1,80,0,0
49531,-100,4,2,0,80,0,0
60045,-100,4,2,1,90,0,0
60845,-100,4,2,0,80,0,0
61417,-100,4,2,1,90,0,0
62217,-100,4,2,0,80,0,0
62731,-100,4,2,1,90,0,0
63588,-100,4,2,0,80,0,0
64160,-100,4,2,1,90,0,0
64960,-100,4,2,0,80,0,0
65360,-100,4,2,1,90,0,0
71474,-100,4,2,1,80,0,1
73531,-83.3333333333333,4,2,1,80,0,1
73874,-100,4,2,1,80,0,1
76274,-83.3333333333333,4,2,1,80,0,1
76617,-100,4,2,1,80,0,1
79017,-76.9230769230769,4,2,1,80,0,1
79360,-100,4,2,1,80,0,1
80388,-71.4285714285714,4,2,1,80,0,1
80731,-100,4,2,1,80,0,1
84502,-83.3333333333333,4,2,1,80,0,1
84845,-100,4,2,1,80,0,1
87245,-76.9230769230769,4,2,1,80,0,1
87588,-100,4,2,1,80,0,1
89988,-71.4285714285714,4,2,1,80,0,1
90331,-100,4,2,1,80,0,1
90674,-100,4,2,1,80,0,0
91017,-100,4,2,0,80,0,0
93417,-71.4285714285714,4,2,1,80,0,1
93760,-100,4,2,1,80,0,1
96160,-76.9230769230769,4,2,1,80,0,1
96502,-100,4,2,1,80,0,1
98902,-76.9230769230769,4,2,1,80,0,1
99245,-100,4,2,1,80,0,1
101645,-76.9230769230769,4,2,1,80,0,1
101988,-100,4,2,1,80,0,1
104388,-100,4,2,1,80,0,0
115931,-100,4,2,0,80,0,0
116045,-83.3333333333333,4,2,0,80,0,0
116388,-100,4,2,0,80,0,0
117588,-100,4,2,1,90,0,0
118102,-100,4,2,1,80,0,1
120160,-83.3333333333333,4,2,1,80,0,1
120502,-100,4,2,1,80,0,1
124274,-71.4285714285714,4,2,1,80,0,1
124617,-100,4,2,1,80,0,1
128388,-83.3333333333333,4,2,1,80,0,1
128731,-100,4,2,1,80,0,1
131131,-76.9230769230769,4,2,1,80,0,1
131474,-100,4,2,1,80,0,1
133874,-71.4285714285714,4,2,1,80,0,1
134217,-100,4,2,1,80,0,1
134560,-100,4,2,1,80,0,0
134902,-100,4,2,0,80,0,0
136788,-100,4,2,1,90,0,0
137302,-100,4,2,0,80,0,0
137388,-100,4,2,0,60,0,0
142788,-100,4,2,0,30,0,0
143474,-100,4,2,0,20,0,0
144160,-100,4,2,0,10,0,0
144845,-100,4,2,1,5,0,0

[Colours]
Combo1 : 220,22,22
Combo2 : 95,95,95
Combo3 : 234,113,32
Combo4 : 223,223,223
Combo5 : 255,192,0

[HitObjects]
256,192,160,12,0,4960,0:0:0:0:
256,192,5302,5,2,0:0:0:0:
472,192,5645,6,0,L|344:192,1,120,6|0,0:0|0:0,0:0:0:0:
152,192,5988,2,0,L|32:192,1,120
256,192,6331,2,0,L|368:248,1,112.5,8|0,0:0|0:0,0:0:0:0:
288,272,6674,1,2,0:0:0:0:
440,272,6902,1,0,0:0:0:0:
208,232,7017,6,0,L|88:232,1,120,2|0,0:0|0:0,0:0:0:0:
160,232,7360,2,0,L|280:232,1,120
64,232,7702,1,8,0:0:0:0:
200,232,7917,1,0,0:0:0:0:
280,240,8045,2,0,L|160:200,1,120,2|0,0:0|0:0,0:0:0:0:
352,184,8388,6,0,L|480:184,1,120,2|0,0:0|0:0,0:0:0:0:
176,232,8731,1,0,0:0:0:0:
104,232,8845,1,0,0:0:0:0:
176,232,8960,1,0,0:0:0:0:
352,240,9074,1,8,0:0:0:0:
208,240,9302,1,0,0:0:0:0:
288,240,9417,2,0,L|144:240,1,120,2|0,0:0|0:0,0:0:0:0:
432,232,9760,6,0,P|472:312|384:304,1,215.999993408203,2|0,0:0|0:0,0:0:0:0:
304,304,10217,1,0,0:0:0:0:
384,304,10331,1,0,0:0:0:0:
104,304,10445,1,8,0:0:0:0:
40,264,10560,1,0,0:0:0:0:
104,224,10674,1,0,0:0:0:0:
312,184,10788,1,8,0:0:0:0:
488,184,10902,1,0,0:0:0:0:
312,184,11017,1,0,0:0:0:0:
136,96,11131,6,0,L|15:95,1,120,2|0,0:0|0:0,0:0:0:0:
136,96,11531,1,0,0:0:0:0:
344,96,11645,2,0,L|466:97,1,120,2|0,0:0|0:0,0:0:0:0:
352,96,12045,1,0,0:0:0:0:
48,96,12160,2,0,L|136:144,1,90,2|0,0:0|0:0,0:0:0:0:
408,112,12502,6,0,P|472:96|392:64,1,215.999993408203,2|0,0:0|0:0,0:0:0:0:
280,64,13017,1,2,0:0:0:0:
48,64,13188,2,0,L|168:152,1,120,8|0,0:0|0:0,0:0:0:0:
480,64,13531,2,0,L|385:140,1,90,8|0,0:0|0:0,0:0:0:0:
166,125,13874,6,0,L|54:197,1,112.5,10|0,0:0|0:0,0:0:0:0:
173,195,14217,1,0,0:0:0:0:
344,192,14445,1,0,0:0:0:0:
112,200,14560,2,0,P|40:216|120:256,1,215.999993408203,2|0,0:0|0:0,0:0:0:0:
320,240,15245,6,0,L|192:296,1,120,2|0,0:0|0:0,0:0:0:0:
96,280,15588,2,0,L|207:235,1,120,2|0,0:0|0:0,0:0:0:0:
384,232,15931,2,0,P|424:192|368:160,1,120,2|0,0:0|0:0,0:0:0:0:
168,176,16274,2,0,L|40:136,1,120,2|0,0:0|0:0,0:0:0:0:
256,232,16617,5,6,0:0:0:0:
400,232,16845,1,0,0:0:0:0:
472,232,16960,2,0,P|480:176|408:152,1,120
256,152,17302,1,8,0:0:0:0:
112,160,17517,1,0,0:0:0:0:
24,160,17645,1,2,0:0:0:0:
180,159,17874,1,0,0:0:0:0:
384,160,17988,6,0,P|456:216|368:240,1,215.999993408203,2|0,0:0|0:0,0:0:0:0:
456,248,18445,1,0,0:0:0:0:
375,246,18560,1,0,0:0:0:0:
176,240,18674,1,8,0:0:0:0:
24,240,18902,1,0,0:0:0:0:
256,192,19017,2,0,L|376:192,1,120,2|0,0:0|0:0,0:0:0:0:
152,240,19360,6,0,P|104:224|152:192,1,120,2|0,0:0|0:0,0:0:0:0:
216,192,19702,1,0,0:0:0:0:
56,192,19931,1,0,0:0:0:0:
256,240,20045,2,0,L|400:240,1,120,8|0,0:0|0:0,0:0:0:0:
296,240,20388,1,2,0:0:0:0:
440,240,20602,1,0,0:0:0:0:
144,224,20731,6,0,P|72:248|152:256,1,215.999993408203,2|0,0:0|0:0,0:0:0:0:
224,224,21188,1,0,0:0:0:0:
144,232,21302,1,0,0:0:0:0:
408,304,21417,1,8,0:0:0:0:
472,264,21532,1,0,0:0:0:0:
408,224,21646,1,0,0:0:0:0:
200,104,21760,1,8,0:0:0:0:
16,104,21874,1,0,0:0:0:0:
200,104,21988,1,0,0:0:0:0:
376,112,22102,6,0,L|488:144,1,112.5,2|0,0:0|0:0,0:0:0:0:
384,144,22488,1,0,0:0:0:0:
136,144,22617,2,0,L|8:168,1,112.5,2|0,0:0|0:0,0:0:0:0:
144,176,23002,1,0,0:0:0:0:
384,176,23131,2,0,L|480:224,1,90,2|0,0:0|0:0,0:0:0:0:
224,256,23474,6,0,L|119:180,1,112.5,2|0,0:0|0:0,0:0:0:0:
200,176,23817,1,0,0:0:0:0:
344,176,23988,1,2,0:0:0:0:
80,224,24160,2,0,L|192:136,1,120,8|0,0:0|0:0,0:0:0:0:
432,224,24502,2,0,L|339:144,1,90,8|0,0:0|0:0,0:0:0:0:
104,152,24845,6,0,P|56:176|112:208,1,134.999995880127,10|0,0:0|0:0,0:0:0:0:
184,216,25188,1,0,0:0:0:0:
64,224,25360,1,0,0:0:0:0:
440,208,25531,2,0,L|304:208,1,120,2|0,0:0|0:0,0:0:0:0:
216,208,25874,2,0,L|336:208,1,120
152,200,26217,6,0,L|24:168,1,120,2|0,0:0|0:0,0:0:0:0:
320,224,26560,2,0,L|440:224,1,120
184,264,26902,1,2,0:0:0:0:
64,264,27074,1,0,0:0:0:0:
256,264,27245,1,8,0:0:0:0:
16,264,27417,1,8,0:0:0:0:
360,72,27588,6,0,P|440:120|360:144,1,215.999993408203,6|8,0:0|0:0,0:0:0:0:
216,136,28160,1,2,0:0:0:0:
288,136,28274,2,0,L|159:136,1,112.5,2|0,0:0|0:0,0:0:0:0:
96,136,28617,2,0,L|215:136,1,112.5,8|0,0:0|0:0,0:0:0:0:
408,136,28960,6,0,P|464:152|488:264,1,180,2|8,0:0|0:0,0:0:0:0:
416,264,29417,1,0,0:0:0:0:
344,264,29531,1,2,0:0:0:0:
154,264,29645,2,0,L|36:229,1,112.5,2|0,0:0|0:0,0:0:0:0:
232,264,29988,2,0,L|368:224,1,120,8|0,0:0|0:0,0:0:0:0:
120,264,30331,5,2,0:0:0:0:
264,272,30560,1,0,0:0:0:0:
80,264,30674,2,0,L|168:171,1,112.5,8|2,0:0|0:0,0:0:0:0:
432,264,31017,2,0,L|340:171,1,112.5,2|0,0:0|0:0,0:0:0:0:
160,200,31360,1,8,0:0:0:0:
12,200,31574,1,0,0:0:0:0:
340,197,31702,6,0,L|452:125,1,120,2|0,0:0|0:0,0:0:0:0:
256,192,32045,2,0,L|368:128,1,120,8|2,0:0|0:0,0:0:0:0:
96,176,32388,2,0,P|24:192|104:224,1,215.999993408203,2|8,0:0|0:0,0:0:0:0:
248,232,32960,1,0,0:0:0:0:
472,240,33074,6,0,P|480:168|384:144,1,180,2|0,0:0|0:0,0:0:0:0:
120,144,33588,2,0,L|-8:144,1,90,2|0,0:0|0:0,0:0:0:0:
176,144,33988,1,0,0:0:0:0:
352,144,34102,2,0,L|472:176,1,120,2|0,0:0|0:0,0:0:0:0:
256,168,34445,6,0,L|128:168,1,120,2|0,0:0|0:0,0:0:0:0:
208,168,34788,2,0,L|320:168,1,90,0|2,0:0|0:0,0:0:0:0:
64,184,35131,2,0,L|152:96,1,120,8|0,0:0|0:0,0:0:0:0:
448,184,35474,2,0,L|360:96,1,120,8|0,0:0|0:0,0:0:0:0:
112,96,35817,6,0,P|32:120|112:144,1,215.999993408203,10|8,0:0|0:0,0:0:0:0:
224,160,36331,1,0,0:0:0:0:
464,160,36502,2,0,P|497:98|430:58,1,161.999995056153,2|0,0:0|0:0,0:0:0:0:
256,73,36845,2,0,L|141:151,1,135,8|0,0:0|0:0,0:0:0:0:
368,96,37188,5,2,0:0:0:0:
215,97,37445,1,0,0:0:0:0:
292,97,37531,2,0,L|433:96,1,135,8|0,0:0|0:0,0:0:0:0:
351,96,37874,1,2,0:0:0:0:
136,96,37988,2,0,P|56:104|24:152,2,120,0|8|0,0:0|0:0|0:0,0:0:0:0:
336,96,38560,6,0,L|448:144,1,120,6|0,0:0|0:0,0:0:0:0:
256,168,38902,1,8,0:0:0:0:
112,168,39131,1,2,0:0:0:0:
384,168,39245,1,2,0:0:0:0:
240,168,39474,1,0,0:0:0:0:
168,168,39588,2,0,L|55:124,1,112.5,8|0,0:0|0:0,0:0:0:0:
304,168,39931,6,0,L|424:120,1,120,2|0,0:0|0:0,0:0:0:0:
208,168,40274,1,8,0:0:0:0:
64,168,40502,1,2,0:0:0:0:
344,176,40617,2,0,P|408:152|320:120,1,215.999993408203,2|8,0:0|0:0,0:0:0:0:
472,104,41188,1,0,0:0:0:0:
240,96,41302,6,0,L|112:136,1,120,2|0,0:0|0:0,0:0:0:0:
304,96,41645,2,0,L|432:136,1,120,8|2,0:0|0:0,0:0:0:0:
96,96,41988,2,0,P|48:128|112:160,1,143.999995605469,2|8,0:0|0:0,0:0:0:0:
272,152,42331,1,0,0:0:0:0:
112,152,42560,1,0,0:0:0:0:
320,152,42674,5,2,0:0:0:0:
472,152,42902,1,0,0:0:0:0:
128,152,43017,1,8,0:0:0:0:
40,152,43131,1,0,0:0:0:0:
128,152,43245,1,2,0:0:0:0:
328,152,43360,2,0,L|448:152,1,120,2|0,0:0|0:0,0:0:0:0:
152,152,43702,2,0,L|16:152,1,120,8|0,0:0|0:0,0:0:0:0:
256,152,44045,5,2,0:0:0:0:
400,152,44274,1,0,0:0:0:0:
328,152,44388,2,0,L|192:152,1,120,8|2,0:0|0:0,0:0:0:0:
136,152,44731,2,0,L|264:152,1,120,2|0,0:0|0:0,0:0:0:0:
480,152,45074,1,8,0:0:0:0:
336,152,45302,1,0,0:0:0:0:
120,152,45417,6,0,P|40:176|120:192,1,215.999993408203,2|8,0:0|0:0,0:0:0:0:
216,208,45874,1,0,0:0:0:0:
144,208,45988,1,2,0:0:0:0:
336,208,46102,2,0,L|496:208,1,120,2|0,0:0|0:0,0:0:0:0:
192,208,46445,1,8,0:0:0:0:
424,208,46617,1,0,0:0:0:0:
104,208,46788,6,0,P|40:184|96:80,1,215.999993408203,2|8,0:0|0:0,0:0:0:0:
200,80,47302,1,0,0:0:0:0:
432,128,47474,2,0,P|472:216|384:208,1,215.999993408203,2|8,0:0|0:0,0:0:0:0:
112,200,48160,6,0,L|215:149,1,112.5,2|0,0:0|0:0,0:0:0:0:
440,200,48502,2,0,L|344:144,1,90,8|0,0:0|0:0,0:0:0:0:
72,200,48845,2,0,L|168:144,1,90,2|0,0:0|0:0,0:0:0:0:
392,104,49188,1,8,0:0:0:0:
16,104,49360,1,8,0:0:0:0:
256,104,49531,5,6,0:0:0:0:
391,104,49874,2,0,L|255:104,1,135,2|0,0:0|0:0,0:0:0:0:
344,104,50274,1,2,0:0:0:0:
224,104,50560,2,0,L|104:104,1,120,2|0,0:0|0:0,0:0:0:0:
232,104,50988,6,0,L|384:104,1,135,2|0,0:0|0:0,0:0:0:0:
448,104,51417,1,2,0:0:0:0:
344,104,51631,2,0,L|241:103,1,98,2|0,0:0|0:0,0:0:0:0:
153,104,51931,2,0,L|273:104,1,120,2|0,0:0|0:0,0:0:0:0:
480,104,52274,5,6,0:0:0:0:
288,104,52617,2,0,L|144:104,1,135,2|0,0:0|0:0,0:0:0:0:
72,104,53017,1,2,0:0:0:0:
224,112,53302,2,0,L|362:111,1,135,2|0,0:0|0:0,0:0:0:0:
216,112,53731,6,0,L|56:112,1,135,2|0,0:0|0:0,0:0:0:0:
192,112,54160,1,2,0:0:0:0:
296,112,54374,2,0,L|416:112,1,98,2|0,0:0|0:0,0:0:0:0:
488,112,54674,2,0,L|368:112,1,120,2|0,0:0|0:0,0:0:0:0:
88,112,55017,5,6,0:0:0:0:
328,112,55360,2,0,P|384:88|328:56,1,135,2|0,0:0|0:0,0:0:0:0:
256,56,55760,1,2,0:0:0:0:
104,64,56045,1,2,0:0:0:0:
248,64,56274,1,0,0:0:0:0:
360,88,56474,6,0,L|232:160,1,135,2|0,0:0|0:0,0:0:0:0:
160,192,56902,1,2,0:0:0:0:
256,192,57117,2,0,L|400:192,1,98,2|0,0:0|0:0,0:0:0:0:
304,192,57417,2,0,L|176:192,1,120,2|0,0:0|0:0,0:0:0:0:
432,192,57760,5,6,0:0:0:0:
180,181,58102,2,0,P|132:157|188:125,1,135,2|0,0:0|0:0,0:0:0:0:
277,121,58502,1,2,0:0:0:0:
56,120,58788,1,2,0:0:0:0:
200,120,59017,1,0,0:0:0:0:
336,120,59217,6,0,L|216:200,1,135,2|0,0:0|0:0,0:0:0:0:
344,200,59645,1,0,0:0:0:0:
470,200,59860,1,2,0:0:0:0:
112,160,60045,1,2,0:0:0:0:
73,161,60102,1,0,0:0:0:0:
32,160,60160,1,2,0:0:0:0:
32,240,60274,1,2,0:0:0:0:
112,240,60388,1,2,0:0:0:0:
296,160,60502,5,6,0:0:0:0:
64,160,60845,2,0,L|192:160,1,120,2|0,0:0|0:0,0:0:0:0:
120,160,61188,1,2,0:0:0:0:
416,160,61417,1,2,0:0:0:0:
480,184,61531,1,2,0:0:0:0:
464,256,61645,1,2,0:0:0:0:
392,256,61760,1,2,0:0:0:0:
160,256,61874,5,2,0:0:0:0:
392,256,62217,2,0,L|256:256,1,120,2|0,0:0|0:0,0:0:0:0:
352,256,62560,1,2,0:0:0:0:
96,160,62731,1,2,0:0:0:0:
56,168,62788,1,0,0:0:0:0:
32,184,62845,1,0,0:0:0:0:
32,224,62902,1,2,0:0:0:0:
88,264,63017,1,2,0:0:0:0:
168,264,63131,1,2,0:0:0:0:
392,264,63245,5,2,0:0:0:0:
152,264,63588,2,0,L|24:264,1,120,2|0,0:0|0:0,0:0:0:0:
112,264,63931,1,2,0:0:0:0:
400,272,64160,1,2,0:0:0:0:
472,240,64274,1,2,0:0:0:0:
488,160,64388,1,2,0:0:0:0:
416,128,64502,1,2,0:0:0:0:
240,128,64617,5,2,0:0:0:0:
472,128,64960,2,0,L|336:128,1,120,2|0,0:0|0:0,0:0:0:0:
141,129,65302,1,2,0:0:0:0:
104,128,65360,1,2,0:0:0:0:
64,128,65417,1,2,0:0:0:0:
104,128,65474,1,2,0:0:0:0:
376,144,65646,1,2,0:0:0:0:
464,144,65760,1,2,0:0:0:0:
376,144,65874,1,2,0:0:0:0:
144,144,65988,6,0,L|0:144,1,120,2|0,0:0|0:0,0:0:0:0:
168,144,66560,1,0,0:0:0:0:
344,144,66674,2,0,L|464:144,1,120,2|0,0:0|0:0,0:0:0:0:
344,144,67245,1,0,0:0:0:0:
168,144,67360,6,0,L|40:144,1,120,2|0,0:0|0:0,0:0:0:0:
96,144,67931,1,0,0:0:0:0:
360,144,68045,2,0,L|480:144,1,120,2|0,0:0|0:0,0:0:0:0:
256,144,68617,1,0,0:0:0:0:
432,144,68731,6,0,L|336:240,1,120,2|0,0:0|0:0,0:0:0:0:
80,144,69074,2,0,L|176:240,1,120,2|0,0:0|0:0,0:0:0:0:
360,184,69417,2,0,L|480:184,1,120,2|0,0:0|0:0,0:0:0:0:
152,184,69760,2,0,L|32:184,1,120,2|0,0:0|0:0,0:0:0:0:
296,152,70102,5,2,0:0:0:0:
384,152,70217,1,2,0:0:0:0:
296,152,70331,1,2,0:0:0:0:
112,152,70445,1,2,0:0:0:0:
24,152,70560,1,2,0:0:0:0:
112,152,70674,1,2,0:0:0:0:
368,144,70788,1,2,0:0:0:0:
456,144,70902,1,2,0:0:0:0:
368,144,71017,1,2,0:0:0:0:
168,160,71131,2,0,L|32:160,1,120,2|0,0:0|0:0,0:0:0:0:
360,240,71474,5,6,0:0:0:0:
448,240,71588,1,0,0:0:0:0:
360,240,71702,1,0,0:0:0:0:
136,128,71817,1,8,0:0:0:0:
280,120,72046,1,2,0:0:0:0:
40,128,72160,2,0,L|144:192,1,120,2|0,0:0|0:0,0:0:0:0:
464,160,72503,2,0,L|352:96,1,120,8|0,0:0|0:0,0:0:0:0:
184,80,72846,6,0,L|120:80,1,60,2|0,0:0|0:0,0:0:0:0:
368,88,73074,2,0,L|440:88,1,60,0|8,0:0|0:0,0:0:0:0:
104,128,73417,1,2,0:0:0:0:
408,128,73532,2,0,P|480:160|392:192,1,215.999993408203,2|8,0:0|0:0,0:0:0:0:
256,192,74102,1,0,0:0:0:0:
104,192,74217,5,2,0:0:0:0:
24,192,74331,1,0,0:0:0:0:
104,192,74445,1,0,0:0:0:0:
392,320,74560,1,8,0:0:0:0:
256,320,74788,1,2,0:0:0:0:
480,320,74902,2,0,L|376:256,1,120,2|0,0:0|0:0,0:0:0:0:
128,320,75245,2,0,L|16:256,1,120,8|0,0:0|0:0,0:0:0:0:
344,272,75588,6,0,L|432:272,1,60,2|0,0:0|0:0,0:0:0:0:
144,272,75817,2,0,L|56:272,1,60,0|8,0:0|0:0,0:0:0:0:
392,256,76160,1,2,0:0:0:0:
104,136,76274,2,0,P|46:143|129:192,1,215.999993408203,2|8,0:0|0:0,0:0:0:0:
256,216,76845,1,0,0:0:0:0:
408,216,76960,5,2,0:0:0:0:
488,216,77074,1,0,0:0:0:0:
408,216,77188,1,0,0:0:0:0:
96,160,77302,1,8,0:0:0:0:
256,160,77531,1,2,0:0:0:0:
480,160,77645,2,0,L|368:96,1,120,2|0,0:0|0:0,0:0:0:0:
32,160,77988,2,0,L|144:104,1,120,8|0,0:0|0:0,0:0:0:0:
408,96,78331,6,0,L|348:96,1,60,2|0,0:0|0:0,0:0:0:0:
168,96,78560,2,0,L|104:96,1,60,0|8,0:0|0:0,0:0:0:0:
472,88,78902,1,2,0:0:0:0:
144,80,79017,2,0,P|56:128|144:176,1,233.999989288331,2|8,0:0|0:0,0:0:0:0:
256,192,79588,1,0,0:0:0:0:
408,192,79702,5,2,0:0:0:0:
488,192,79816,1,0,0:0:0:0:
408,192,79931,1,0,0:0:0:0:
232,192,80045,1,8,0:0:0:0:
456,192,80274,1,2,0:0:0:0:
256,192,80388,2,0,P|168:216|272:248,1,251.999992309571,2|8,0:0|0:0,0:0:0:0:
376,256,80902,1,0,0:0:0:0:
128,248,81074,6,0,L|8:192,1,120,2|0,0:0|0:0,0:0:0:0:
256,248,81417,2,0,L|384:184,1,120,8|2,0:0|0:0,0:0:0:0:
72,248,81760,2,0,L|200:176,1,120,2|0,0:0|0:0,0:0:0:0:
480,248,82102,2,0,L|360:184,1,120,8|0,0:0|0:0,0:0:0:0:
128,232,82445,5,6,0:0:0:0:
40,232,82559,1,0,0:0:0:0:
128,232,82674,1,0,0:0:0:0:
304,232,82788,1,8,0:0:0:0:
160,232,83017,1,2,0:0:0:0:
416,232,83131,2,0,P|464:216|416:200,1,120,2|0,0:0|0:0,0:0:0:0:
176,192,83474,2,0,L|48:192,1,120,8|0,0:0|0:0,0:0:0:0:
400,192,83817,5,2,0:0:0:0:
256,192,84045,1,0,0:0:0:0:
328,192,84160,1,8,0:0:0:0:
40,200,84388,1,2,0:0:0:0:
328,200,84502,2,0,P|416:152|336:80,1,215.999993408203,2|8,0:0|0:0,0:0:0:0:
216,72,85074,1,0,0:0:0:0:
64,72,85188,5,2,0:0:0:0:
144,72,85302,1,0,0:0:0:0:
64,72,85417,1,0,0:0:0:0:
416,64,85531,1,8,0:0:0:0:
272,64,85760,1,2,0:0:0:0:
56,96,85874,2,0,L|152:176,1,120,2|0,0:0|0:0,0:0:0:0:
371,172,86217,2,0,L|464:96,1,120,8|0,0:0|0:0,0:0:0:0:
112,192,86560,5,2,0:0:0:0:
256,192,86788,1,0,0:0:0:0:
184,192,86903,1,8,0:0:0:0:
472,192,87131,1,2,0:0:0:0:
152,128,87245,2,0,P|80:152|176:200,1,233.999989288331,2|8,0:0|0:0,0:0:0:0:
312,208,87817,1,0,0:0:0:0:
464,208,87931,5,2,0:0:0:0:
384,208,88045,1,0,0:0:0:0:
424,144,88160,1,0,0:0:0:0:
152,128,88274,1,8,0:0:0:0:
352,128,88502,1,2,0:0:0:0:
176,192,88617,2,0,L|48:192,1,120,2|0,0:0|0:0,0:0:0:0:
336,192,88960,2,0,L|464:192,1,120,8|0,0:0|0:0,0:0:0:0:
136,192,89302,6,0,L|64:192,1,60,2|0,0:0|0:0,0:0:0:0:
384,192,89531,2,0,L|456:192,1,60,0|8,0:0|0:0,0:0:0:0:
76,192,89874,1,2,0:0:0:0:
392,184,89988,2,0,P|480:208|384:240,1,251.999992309571,2|8,0:0|0:0,0:0:0:0:
256,192,90560,1,0,0:0:0:0:
386,192,90674,5,2,0:0:0:0:
469,193,90788,1,0,0:0:0:0:
386,192,90902,1,0,0:0:0:0:
120,192,91017,2,0,P|72:224|120:264,1,135
205,264,91417,1,2,0:0:0:0:
312,265,91588,1,0,0:0:0:0:
392,264,91702,2,0,P|446:267|456:206,1,120
328,192,92045,6,0,L|176:192,1,150,2|0,0:0|0:0,0:0:0:0:
360,192,92617,1,2,0:0:0:0:
256,192,92788,1,2,0:0:0:0:
464,192,93074,1,2,0:0:0:0:
48,192,93417,6,0,P|32:240|168:352,1,251.999992309571,6|8,0:0|0:0,0:0:0:0:
368,344,93988,1,2,0:0:0:0:
160,352,94102,2,0,L|48:352,1,90,2|0,0:0|0:0,0:0:0:0:
336,352,94445,2,0,L|440:352,1,90,8|0,0:0|0:0,0:0:0:0:
72,352,94788,6,0,L|184:352,1,90,2|0,0:0|0:0,0:0:0:0:
426,352,95131,1,8,0:0:0:0:
160,344,95302,2,0,L|256:344,1,90,0|2,0:0|0:0,0:0:0:0:
368,344,95645,1,0,0:0:0:0:
128,240,95817,2,0,L|16:240,1,90,8|0,0:0|0:0,0:0:0:0:
432,352,96160,6,0,P|464:336|376:224,1,233.999989288331,2|8,0:0|0:0,0:0:0:0:
248,224,96731,1,2,0:0:0:0:
464,248,96845,2,0,L|374:248,1,90,2|0,0:0|0:0,0:0:0:0:
48,248,97188,2,0,L|138:248,1,90,8|0,0:0|0:0,0:0:0:0:
384,248,97531,6,0,L|480:248,1,90,2|0,0:0|0:0,0:0:0:0:
120,248,97874,1,8,0:0:0:0:
400,248,98045,2,0,L|296:248,1,90,0|2,0:0|0:0,0:0:0:0:
416,248,98388,1,0,0:0:0:0:
112,240,98560,2,0,L|0:240,1,90,8|0,0:0|0:0,0:0:0:0:
256,240,98902,6,0,P|336:192|248:168,1,233.999989288331,2|8,0:0|0:0,0:0:0:0:
136,176,99474,1,2,0:0:0:0:
376,192,99588,2,0,L|480:192,1,90,2|0,0:0|0:0,0:0:0:0:
304,192,99931,2,0,L|416:192,1,90,8|0,0:0|0:0,0:0:0:0:
112,192,100274,5,2,0:0:0:0:
24,192,100388,1,0,0:0:0:0:
112,192,100502,1,0,0:0:0:0:
344,192,100617,1,8,0:0:0:0:
200,192,100845,1,2,0:0:0:0:
400,192,100960,1,2,0:0:0:0:
488,192,101074,1,0,0:0:0:0:
400,192,101188,1,0,0:0:0:0:
184,192,101302,2,0,L|80:192,1,90,8|0,0:0|0:0,0:0:0:0:
344,200,101645,6,0,P|432:168|344:144,1,233.999989288331,2|8,0:0|0:0,0:0:0:0:
64,128,102217,1,2,0:0:0:0:
296,120,102331,1,2,0:0:0:0:
368,120,102445,1,0,0:0:0:0:
440,120,102560,1,0,0:0:0:0:
200,120,102674,1,8,0:0:0:0:
344,120,102902,1,0,0:0:0:0:
64,120,103017,5,2,0:0:0:0:
152,120,103131,1,0,0:0:0:0:
64,120,103245,1,0,0:0:0:0:
296,120,103360,1,8,0:0:0:0:
152,120,103588,1,2,0:0:0:0:
360,224,103702,2,0,L|488:224,1,120,2|0,0:0|0:0,0:0:0:0:
152,224,104045,2,0,L|32:224,1,120,8|0,0:0|0:0,0:0:0:0:
256,224,104388,5,6,0:0:0:0:
64,224,104731,2,0,L|184:224,1,120,8|2,0:0|0:0,0:0:0:0:
256,224,105074,2,0,L|128:224,1,120,2|0,0:0|0:0,0:0:0:0:
392,224,105417,1,8,0:0:0:0:
480,224,105531,1,0,0:0:0:0:
392,224,105645,1,0,0:0:0:0:
208,224,105760,6,0,L|64:224,1,120,2|0,0:0|0:0,0:0:0:0:
296,224,106102,2,0,L|432:224,1,120,8|2,0:0|0:0,0:0:0:0:
120,224,106445,1,2,0:0:0:0:
32,224,106559,1,0,0:0:0:0:
120,224,106673,1,0,0:0:0:0:
188,225,106731,1,0,0:0:0:0:
296,224,106788,1,8,0:0:0:0:
379,226,106902,1,0,0:0:0:0:
256,224,107017,1,0,0:0:0:0:
32,224,107131,6,0,L|136:296,1,120,2|0,0:0|0:0,0:0:0:0:
480,224,107474,2,0,L|376:296,1,120,8|2,0:0|0:0,0:0:0:0:
200,288,107817,2,0,L|72:256,1,120,2|0,0:0|0:0,0:0:0:0:
320,208,108160,1,8,0:0:0:0:
392,208,108274,1,0,0:0:0:0:
464,208,108388,1,0,0:0:0:0:
208,200,108502,6,0,L|88:264,1,120,2|0,0:0|0:0,0:0:0:0:
304,264,108845,2,0,L|416:200,1,120,8|2,0:0|0:0,0:0:0:0:
64,216,109188,2,0,L|154:155,1,90,2|0,0:0|0:0,0:0:0:0:
176,168,109417,1,0,0:0:0:0:
392,160,109531,1,8,0:0:0:0:
472,160,109645,1,0,0:0:0:0:
392,160,109760,1,0,0:0:0:0:
216,144,109874,5,2,0:0:0:0:
136,144,109988,1,0,0:0:0:0:
72,184,110102,1,0,0:0:0:0:
138,240,110217,1,8,0:0:0:0:
96,312,110331,1,0,0:0:0:0:
176,312,110445,1,0,0:0:0:0:
392,312,110560,5,2,0:0:0:0:
480,312,110674,1,0,0:0:0:0:
392,312,110788,1,0,0:0:0:0:
120,312,110902,1,8,0:0:0:0:
32,312,111016,1,0,0:0:0:0:
120,312,111130,1,0,0:0:0:0:
328,312,111245,5,2,0:0:0:0:
408,304,111360,1,0,0:0:0:0:
472,264,111474,1,0,0:0:0:0:
399,195,111588,1,8,0:0:0:0:
448,120,111702,1,0,0:0:0:0:
376,96,111817,1,0,0:0:0:0:
120,312,111931,5,2,0:0:0:0:
32,312,112045,1,0,0:0:0:0:
120,312,112159,1,0,0:0:0:0:
392,312,112273,1,8,0:0:0:0:
480,312,112387,1,0,0:0:0:0:
392,312,112501,1,0,0:0:0:0:
176,112,112617,5,2,0:0:0:0:
248,112,112731,1,0,0:0:0:0:
176,112,112845,1,0,0:0:0:0:
392,112,112960,1,8,0:0:0:0:
464,112,113074,1,0,0:0:0:0:
392,112,113188,1,0,0:0:0:0:
200,112,113302,5,2,0:0:0:0:
128,112,113417,1,0,0:0:0:0:
56,112,113531,1,0,0:0:0:0:
312,112,113645,1,8,0:0:0:0:
384,112,113760,1,0,0:0:0:0:
456,112,113874,1,0,0:0:0:0:
256,112,113988,6,0,L|176:112,1,60,2|2,0:0|0:0,0:0:0:0:
280,112,114217,1,2,0:0:0:0:
92,112,114331,2,0,L|32:112,1,60,8|2,0:0|0:0,0:0:0:0:
112,112,114560,1,2,0:0:0:0:
424,120,114674,2,0,L|496:120,1,60,8|2,0:0|0:0,0:0:0:0:
264,120,114902,1,2,0:0:0:0:
92,112,115017,2,0,P|36:144|52:216,1,120,8|0,0:0|0:0,0:0:0:0:
336,120,115360,5,2,0:0:0:0:
424,120,115474,1,0,0:0:0:0:
336,120,115588,1,0,0:0:0:0:
144,192,115931,1,2,0:0:0:0:
216,192,116045,2,0,P|152:248|248:288,1,215.999993408203,2|2,0:0|0:0,0:0:0:0:
440,288,116731,5,2,0:0:0:0:
296,288,116960,1,2,0:0:0:0:
496,296,117302,1,2,0:0:0:0:
424,296,117417,2,0,L|320:296,1,90,2|2,0:0|0:0,0:0:0:0:
296,296,117645,1,2,0:0:0:0:
256,296,117702,1,0,0:0:0:0:
112,304,117760,1,2,0:0:0:0:
24,304,117874,1,2,0:0:0:0:
112,304,117988,1,2,0:0:0:0:
400,304,118102,5,6,0:0:0:0:
488,304,118217,1,0,0:0:0:0:
400,304,118331,1,0,0:0:0:0:
152,192,118445,1,8,0:0:0:0:
304,192,118674,1,2,0:0:0:0:
120,192,118788,2,0,L|8:256,1,120,2|0,0:0|0:0,0:0:0:0:
408,192,119131,2,0,L|520:248,1,120,8|0,0:0|0:0,0:0:0:0:
200,192,119474,6,0,L|128:192,1,60,2|0,0:0|0:0,0:0:0:0:
312,192,119702,2,0,L|372:192,1,60,0|8,0:0|0:0,0:0:0:0:
80,192,120045,1,2,0:0:0:0:
416,192,120160,2,0,P|480:168|432:56,1,215.999993408203,2|8,0:0|0:0,0:0:0:0:
280,56,120731,1,0,0:0:0:0:
72,128,120845,5,2,0:0:0:0:
152,128,120960,1,0,0:0:0:0:
112,72,121074,1,0,0:0:0:0:
408,112,121188,2,0,P|448:144|392:152,1,120,8|2,0:0|0:0,0:0:0:0:
184,136,121531,1,2,0:0:0:0:
104,144,121645,1,0,0:0:0:0:
40,192,121760,1,0,0:0:0:0:
40,272,121874,1,8,0:0:0:0:
104,320,121988,1,0,0:0:0:0:
184,328,122102,1,0,0:0:0:0:
376,344,122217,5,2,0:0:0:0:
472,344,122331,1,0,0:0:0:0:
376,344,122445,1,0,0:0:0:0:
192,344,122560,1,8,0:0:0:0:
336,344,122788,1,2,0:0:0:0:
104,344,122902,1,2,0:0:0:0:
32,320,123017,1,0,0:0:0:0:
24,240,123131,1,0,0:0:0:0:
96,208,123245,1,8,0:0:0:0:
312,192,123474,1,0,0:0:0:0:
104,192,123588,5,2,0:0:0:0:
24,192,123702,1,0,0:0:0:0:
64,128,123817,1,0,0:0:0:0:
320,200,123931,1,8,0:0:0:0:
480,200,124160,1,2,0:0:0:0:
256,200,124274,2,0,P|168:152|272:112,1,251.999992309571,2|8,0:0|0:0,0:0:0:0:
440,112,124845,1,0,0:0:0:0:
168,104,124960,6,0,L|48:176,1,120,2|0,0:0|0:0,0:0:0:0:
256,112,125302,2,0,L|152:184,1,120,8|2,0:0|0:0,0:0:0:0:
344,112,125645,2,0,L|448:176,1,120,2|0,0:0|0:0,0:0:0:0:
168,112,125988,2,0,L|48:176,1,120,8|0,0:0|0:0,0:0:0:0:
256,112,126331,5,6,0:0:0:0:
344,112,126445,1,0,0:0:0:0:
256,112,126560,1,0,0:0:0:0:
40,112,126674,1,8,0:0:0:0:
216,112,126902,1,2,0:0:0:0:
408,112,127017,2,0,L|512:192,1,120,2|0,0:0|0:0,0:0:0:0:
320,168,127360,2,0,L|216:248,1,120,8|0,0:0|0:0,0:0:0:0:
24,264,127702,6,0,L|88:264,1,60,2|0,0:0|0:0,0:0:0:0:
344,264,127931,2,0,L|424:264,1,60,0|8,0:0|0:0,0:0:0:0:
64,272,128274,1,2,0:0:0:0:
264,272,128388,2,0,P|336:232|248:200,1,215.999993408203,2|8,0:0|0:0,0:0:0:0:
400,192,128960,1,0,0:0:0:0:
120,192,129074,5,2,0:0:0:0:
32,192,129188,1,0,0:0:0:0:
120,192,129303,1,0,0:0:0:0:
296,192,129417,1,8,0:0:0:0:
440,192,129645,1,2,0:0:0:0:
104,112,129760,2,0,L|0:192,1,120,2|0,0:0|0:0,0:0:0:0:
192,168,130103,2,0,L|296:248,1,120,8|0,0:0|0:0,0:0:0:0:
488,264,130445,6,0,L|424:264,1,60,2|0,0:0|0:0,0:0:0:0:
168,264,130674,2,0,L|88:264,1,60,0|8,0:0|0:0,0:0:0:0:
448,272,131017,1,2,0:0:0:0:
208,272,131131,2,0,P|136:248|224:200,1,233.999989288331,2|8,0:0|0:0,0:0:0:0:
360,192,131702,1,0,0:0:0:0:
168,192,131817,5,2,0:0:0:0:
80,192,131931,1,0,0:0:0:0:
168,192,132045,1,0,0:0:0:0:
480,192,132160,1,8,0:0:0:0:
336,192,132388,1,2,0:0:0:0:
160,192,132502,2,0,L|16:192,1,120,2|0,0:0|0:0,0:0:0:0:
352,192,132845,2,0,L|496:192,1,120,8|0,0:0|0:0,0:0:0:0:
104,192,133188,6,0,L|32:192,1,60,2|0,0:0|0:0,0:0:0:0:
408,192,133417,2,0,L|480:192,1,60,0|8,0:0|0:0,0:0:0:0:
80,192,133760,1,2,0:0:0:0:
408,192,133874,2,0,P|456:96|384:120,1,251.999992309571,2|8,0:0|0:0,0:0:0:0:
64,128,134445,1,0,0:0:0:0:
256,128,134560,5,2,0:0:0:0:
344,128,134674,1,0,0:0:0:0:
256,128,134788,1,0,0:0:0:0:
72,128,134902,2,0,P|32:152|72:208,1,120,2|0,0:0|0:0,0:0:0:0:
168,208,135302,1,2,0:0:0:0:
296,208,135474,1,0,0:0:0:0:
376,208,135588,2,0,L|504:208,1,120,2|0,0:0|0:0,0:0:0:0:
232,208,135931,5,2,0:0:0:0:
160,208,136017,2,0,P|88:208|48:192,1,105,0|2,0:0|0:0,0:0:0:0:
256,224,136502,2,0,L|352:224,1,90,2|2,0:0|0:0,0:0:0:0:
96,192,136845,1,0,0:0:0:0:
64,192,136902,1,0,0:0:0:0:
24,192,136960,1,2,0:0:0:0:
24,264,137074,1,0,0:0:0:0:
96,264,137188,1,0,0:0:0:0:
368,312,137302,6,0,P|456:256|200:80,1,600,6|0,0:0|0:0,0:0:0:0:
112,56,138674,6,0,P|32:176|344:144,2,720,2|0|0,0:0|0:0|0:0,0:0:0:0:
256,96,141674,1,0,0:0:0:0:
296,104,141760,6,0,P|392:202|240:264,1,337.5,2|0,0:0|0:0,0:0:0:0:
256,192,142788,12,0,144845,0:0:0:0:
