osu file format v14

[General]
AudioFilename: audio.mp3
AudioLeadIn: 0
PreviewTime: 71474
Countdown: 0
SampleSet: Soft
StackLeniency: 0.7
Mode: 2
LetterboxInBreaks: 0
EpilepsyWarning: 1
WidescreenStoryboard: 1

[Editor]
Bookmarks: 5302,27588,71474,118102
DistanceSpacing: 1.2
BeatDivisor: 6
GridSize: 8
TimelineZoom: 2.699999

[Metadata]
Title:Crescendo (feat. MYLK)
TitleUnicode:Crescendo (feat. MYLK)
Artist:Muzzy
ArtistUnicode:Muzzy
Creator:WildOne94
Version:Rain Collab
Source:
Tags:monstercat kurokami DnB d&b Drum and Bass
BeatmapID:1331848
BeatmapSetID:526032

[Difficulty]
HPDrainRate:6
CircleSize:4
OverallDifficulty:9
ApproachRate:9
SliderMultiplier:1.6
SliderTickRate:1

[Events]
//Background and Video events
0,0,"Muzzy Wallpaper Resize.jpg",0,0
Video,-89,"Muzzy Crescendo Osu Video.mp4"
//Break Periods
//Storyboard Layer 0 (Background)
//Storyboard Layer 1 (Fail)
//Storyboard Layer 2 (Pass)
//Storyboard Layer 3 (Foreground)
Sprite,Foreground,Centre,"Kurokami SB.png",320,240 M,0,5531,,86.29677,420.8516 S,0,5531,,0.4880004 F,0,5531,5645,0,1 F,0,5645,25188,1 F,0,25188,27531,1,0 F,0,27531,71417,0 F,0,71417,71474,0,1 F,0,71474,115931,1 F,0,115931,118045,1,0
Sprite,Foreground,Centre,"WildOne94 SB.png",320,240 M,0,27531,,555.3549,420.8516 S,0,27531,,0.5045161 F,0,27531,27588,0,1 F,0,27588,70102,1 F,0,70102,71417,1,0 F,0,71417,118045,0 F,0,118045,118102,0,1 F,0,118102,137302,1 F,0,137302,142788,1,0
//Storyboard Sound Samples

[TimingPoints]
160,342.857142857143,4,2,1,80,1,0
9760,-83.3333333333333,4,2,1,80,0,0
10331,-100,4,2,1,80,0,0
12502,-83.3333333333333,4,2,1,80,0,0
12845,-100,4,2,1,80,0,0
20731,-83.3333333333333,4,2,1,80,0,0
21074,-100,4,2,1,80,0,0
24845,-83.3333333333333,4,2,1,80,0,0
25188,-100,4,2,1,80,0,0
32388,-83.3333333333333,4,2,1,80,0,0
32731,-100,4,2,1,80,0,0
35817,-83.3333333333333,4,2,1,80,0,0
36160,-100,4,2,1,80,0,0
40617,-83.3333333333333,4,2,1,80,0,0
40960,-100,4,2,1,80,0,0
41988,-83.3333333333333,4,2,1,80,0,0
42331,-100,4,2,1,80,0,0
46788,-83.3333333333333,4,2,1,80,0,0
47131,-100,4,2,1,80,0,0
47474,-83.3333333333333,4,2,1,80,0,0
47817,-100,4,2,1,80,0,0
49531,-100,4,2,0,80,0,0
60045,-100,4,2,1,90,0,0
60845,-100,4,2,0,80,0,0
61417,-100,4,2,1,90,0,0
62217,-100,4,2,0,80,0,0
62731,-100,4,2,1,90,0,0
63588,-100,4,2,0,80,0,0
64160,-100,4,2,1,90,0,0
64960,-100,4,2,0,80,0,0
65360,-100,4,2,1,90,0,0
71474,-100,4,2,1,80,0,1
80388,-71.4285714285714,4,2,1,80,0,1
80731,-100,4,2,1,80,0,1
81760,-66.6666666666667,4,2,1,80,0,1
82445,-100,4,2,1,80,0,1
84502,-83.3333333333333,4,2,1,80,0,1
84845,-100,4,2,1,80,0,1
87245,-76.9230769230769,4,2,1,80,0,1
87588,-100,4,2,1,80,0,1
89988,-71.4285714285714,4,2,1,80,0,1
90331,-100,4,2,1,80,0,1
90674,-100,4,2,1,80,0,0
91017,-100,4,2,0,80,0,0
93417,-71.4285714285714,4,2,1,80,0,1
93760,-100,4,2,1,80,0,1
96160,-76.9230769230769,4,2,1,80,0,1
96502,-100,4,2,1,80,0,1
98902,-76.9230769230769,4,2,1,80,0,1
99245,-100,4,2,1,80,0,1
104388,-100,4,2,1,80,0,0
115931,-100,4,2,0,80,0,0
117588,-100,4,2,1,90,0,0
118102,-100,4,2,1,80,0,1
120160,-83.3333333333333,4,2,1,80,0,1
120502,-100,4,2,1,80,0,1
122902,-76.9230769230769,4,2,1,80,0,1
123131,-100,4,2,1,80,0,1
124274,-71.4285714285714,4,2,1,80,0,1
124617,-100,4,2,1,80,0,1
128388,-83.3333333333333,4,2,1,80,0,1
128731,-100,4,2,1,80,0,1
131131,-83.3333333333333,4,2,1,80,0,1
131474,-100,4,2,1,80,0,1
133874,-71.4285714285714,4,2,1,80,0,1
134217,-100,4,2,1,80,0,1
134560,-100,4,2,1,80,0,0
134902,-100,4,2,0,80,0,0
136788,-100,4,2,1,90,0,0
137302,-100,4,2,0,90,0,0
137388,-100,4,2,0,60,0,0
142788,-100,4,2,0,30,0,0
143474,-100,4,2,0,20,0,0
144160,-100,4,2,0,10,0,0
144845,-100,4,2,1,5,0,0

[Colours]
Combo1 : 220,22,22
Combo2 : 95,95,95
Combo3 : 234,113,32
Combo4 : 223,223,223
Combo5 : 255,192,0

[HitObjects]
256,192,160,12,0,4960,0:0:0:0:
224,288,5302,6,0,L|395:288,2,160,2|6|0,0:0|0:0|0:0,0:0:0:0:
304,224,6102,1,0,0:0:0:0:
384,184,6217,1,0,0:0:0:0:
304,144,6331,2,0,L|240:240,1,106.666666666667,8|0,0:0|0:0,0:0:0:0:
384,32,6674,2,0,L|448:128,1,106.666666666667,2|0,0:0|0:0,0:0:0:0:
304,160,7017,6,0,L|176:160,1,106.666666666667,2|0,0:0|0:0,0:0:0:0:
304,240,7360,2,0,L|432:240,1,106.666666666667,0|0,0:0|0:0,0:0:0:0:
304,240,7702,1,8,0:0:0:0:
48,240,8045,2,0,L|176:240,1,106.666666666667,2|0,0:0|0:0,0:0:0:0:
304,240,8388,6,0,L|432:240,1,106.666666666667,2|0,0:0|0:0,0:0:0:0:
296,240,8731,2,0,L|208:240,2,53.3333333333333,0|0|0,0:0|0:0|0:0,0:0:0:0:
360,240,9074,1,8,0:0:0:0:
496,240,9302,1,0,0:0:0:0:
368,176,9417,2,0,L|240:176,1,106.666666666667,2|0,0:0|0:0,0:0:0:0:
112,176,9760,6,0,P|80:240|112:288,1,127.99999609375,2|0,0:0|0:0,0:0:0:0:
240,288,10102,2,0,P|272:224|240:176,1,127.99999609375,0|0,0:0|0:0,0:0:0:0:
336,112,10445,2,0,L|416:112,2,53.3333333333333,8|0|0,0:0|0:0|0:0,0:0:0:0:
432,112,10788,2,0,L|496:112,2,53.3333333333333,8|0|0,0:0|0:0|0:0,0:0:0:0:
256,112,11131,6,0,L|135:113,1,106.666666666667,2|0,0:0|0:0,0:0:0:0:
289,112,11531,1,0,0:0:0:0:
389,112,11645,2,0,L|279:112,1,106.666666666667,2|0,0:0|0:0,0:0:0:0:
128,112,12045,1,0,0:0:0:0:
200,120,12160,2,0,L|120:176,1,80,2|0,0:0|0:0,0:0:0:0:
320,128,12502,6,0,L|160:240,1,191.999994140625,2|0,0:0|0:0,0:0:0:0:
320,128,13017,1,2,0:0:0:0:
80,64,13188,2,0,L|160:144,1,106.666666666667,8|0,0:0|0:0,0:0:0:0:
368,64,13531,2,0,L|297:132,1,80,8|0,0:0|0:0,0:0:0:0:
48,160,13874,6,0,L|128:232,1,100,10|0,0:0|0:0,0:0:0:0:
240,256,14217,1,0,0:0:0:0:
88,256,14445,1,0,0:0:0:0:
224,336,14560,2,0,L|304:264,1,100,2|0,0:0|0:0,0:0:0:0:
192,224,14902,2,0,L|112:152,1,100,0|0,0:0|0:0,0:0:0:0:
224,64,15245,6,0,L|336:64,1,106.666666666667,2|0,0:0|0:0,0:0:0:0:
208,136,15588,2,0,L|96:136,1,106.666666666667,2|0,0:0|0:0,0:0:0:0:
256,208,15931,2,0,L|368:208,1,106.666666666667,2|0,0:0|0:0,0:0:0:0:
224,288,16274,2,0,L|112:288,1,106.666666666667,2|0,0:0|0:0,0:0:0:0:
296,288,16617,6,0,L|408:288,1,106.666666666667,6|0,0:0|0:0,0:0:0:0:
480,239,16960,2,0,P|496:191|465:147,1,106.666666666667,0|0,0:0|0:0,0:0:0:0:
344,136,17302,2,0,L|232:136,1,100,8|0,0:0|0:0,0:0:0:0:
80,112,17645,2,0,L|32:16,1,106.666666666667,2|0,0:0|0:0,0:0:0:0:
160,16,17988,6,0,L|208:112,1,106.666666666667,2|0,0:0|0:0,0:0:0:0:
80,112,18331,2,0,P|64:160|144:208,1,160,0|8,0:0|0:0,0:0:0:0:
336,208,19017,1,2,0:0:0:0:
208,208,19245,1,0,0:0:0:0:
336,208,19360,6,0,L|464:208,1,106.666666666667,2|0,0:0|0:0,0:0:0:0:
336,208,19702,2,0,L|224:208,1,106.666666666667,0|0,0:0|0:0,0:0:0:0:
122,208,20045,2,0,L|258:208,1,106.666666666667,8|0,0:0|0:0,0:0:0:0:
176,208,20388,1,2,0:0:0:0:
336,208,20602,1,0,0:0:0:0:
384,128,20731,6,0,L|240:128,1,127.99999609375,2|0,0:0|0:0,0:0:0:0:
128,224,21074,2,0,L|288:224,1,160,0|8,0:0|0:0,0:0:0:0:
400,128,21531,1,0,0:0:0:0:
320,112,21645,1,0,0:0:0:0:
224,112,21760,1,8,0:0:0:0:
136,112,21874,1,0,0:0:0:0:
224,112,21988,1,0,0:0:0:0:
416,112,22102,6,0,L|528:176,1,120,2|0,0:0|0:0,0:0:0:0:
384,210,22488,2,0,L|308:210,1,60,0|2,0:0|0:0,0:0:0:0:
144,224,22788,2,0,L|32:160,1,120,0|0,0:0|0:0,0:0:0:0:
176,128,23131,2,0,L|256:128,1,80,2|0,0:0|0:0,0:0:0:0:
96,64,23474,6,0,L|208:64,1,100,2|0,0:0|0:0,0:0:0:0:
288,64,23817,1,0,0:0:0:0:
160,64,23988,1,2,0:0:0:0:
400,160,24160,2,0,L|352:256,1,106.666666666667,8|0,0:0|0:0,0:0:0:0:
67,159,24502,2,0,L|112:248,1,80,8|0,0:0|0:0,0:0:0:0:
336,159,24845,6,0,P|408:175|328:247,1,191.999994140625,10|0,0:0|0:0,0:0:0:0:
216,255,25360,1,0,0:0:0:0:
344,239,25531,2,0,L|248:191,1,106.666666666667,2|0,0:0|0:0,0:0:0:0:
336,144,25874,2,0,L|240:96,1,106.666666666667,0|0,0:0|0:0,0:0:0:0:
144,64,26217,6,0,L|80:32,1,53.3333333333333,2|0,0:0|0:0,0:0:0:0:
144,64,26445,1,0,0:0:0:0:
240,64,26560,2,0,L|352:64,1,106.666666666667,0|0,0:0|0:0,0:0:0:0:
432,64,26902,1,2,0:0:0:0:
335,64,27074,5,0,0:0:0:0:
432,64,27245,1,8,0:0:0:0:
335,64,27417,1,0,0:0:0:0:
72,192,27588,6,0,P|40:208|88:256,1,106.666666666667,6|0,0:0|0:0,0:0:0:0:
296,264,27931,2,0,L|424:264,1,106.666666666667,8|2,0:0|0:0,0:0:0:0:
336,264,28274,1,2,0:0:0:0:
216,264,28488,1,0,0:0:0:0:
288,264,28617,1,8,0:0:0:0:
152,264,28831,1,0,0:0:0:0:
432,272,28960,6,0,P|480:248|416:200,1,160,2|8,0:0|0:0,0:0:0:0:
360,200,29417,1,0,0:0:0:0:
296,200,29531,1,2,0:0:0:0:
112,200,29645,2,0,P|81:171|120:128,1,100,2|0,0:0|0:0,0:0:0:0:
240,128,29988,2,0,L|352:128,1,106.666666666667,8|0,0:0|0:0,0:0:0:0:
112,128,30331,5,2,0:0:0:0:
312,128,30674,2,0,P|350:150|312:184,1,100,8|2,0:0|0:0,0:0:0:0:
256,184,31017,2,0,L|140:184,1,100,2|0,0:0|0:0,0:0:0:0:
304,192,31360,1,8,0:0:0:0:
432,192,31574,1,0,0:0:0:0:
136,184,31702,6,0,L|8:184,1,106.666666666667,2|0,0:0|0:0,0:0:0:0:
96,184,32045,2,0,L|224:184,1,106.666666666667,8|2,0:0|0:0,0:0:0:0:
408,192,32388,2,0,P|456:192|400:112,1,191.999994140625,2|8,0:0|0:0,0:0:0:0:
280,104,32960,1,0,0:0:0:0:
88,96,33074,6,0,P|32:152|88:192,1,160,2|0,0:0|0:0,0:0:0:0:
240,192,33588,2,0,L|344:192,1,80,2|0,0:0|0:0,0:0:0:0:
184,192,33988,1,0,0:0:0:0:
368,144,34102,2,0,L|480:144,1,106.666666666667,2|0,0:0|0:0,0:0:0:0:
408,144,34445,6,0,L|288:144,1,106.666666666667,2|0,0:0|0:0,0:0:0:0:
232,144,34788,1,0,0:0:0:0:
128,144,34960,1,2,0:0:0:0:
376,144,35131,2,0,P|424:128|472:72,1,106.666666666667,8|0,0:0|0:0,0:0:0:0:
192,144,35474,2,0,P|144:128|96:72,1,106.666666666667,8|0,0:0|0:0,0:0:0:0:
352,88,35817,6,0,P|408:120|320:168,1,191.999994140625,10|8,0:0|0:0,0:0:0:0:
200,184,36331,1,0,0:0:0:0:
432,184,36502,2,0,P|480:208|408:256,1,160,2|8,0:0|0:0,0:0:0:0:
136,288,37188,6,0,L|12:287,1,120,2|0,0:0|0:0,0:0:0:0:
96,288,37531,2,0,L|227:287,1,120,8|0,0:0|0:0,0:0:0:0:
336,280,37874,2,0,P|432:280|480:240,1,160,2|8,0:0|0:0,0:0:0:0:
48,288,38560,5,6,0:0:0:0:
184,288,38788,1,0,0:0:0:0:
256,288,38902,2,0,L|384:288,1,106.666666666667,8|2,0:0|0:0,0:0:0:0:
296,288,39245,2,0,L|168:288,1,106.666666666667,2|0,0:0|0:0,0:0:0:0:
256,288,39588,1,8,0:0:0:0:
392,288,39802,1,0,0:0:0:0:
136,288,39931,6,0,P|80:272|136:208,1,160,2|8,0:0|0:0,0:0:0:0:
256,200,40502,1,2,0:0:0:0:
376,200,40617,2,0,P|464:192|448:104,1,191.999994140625,2|8,0:0|0:0,0:0:0:0:
312,104,41188,1,0,0:0:0:0:
120,104,41302,6,0,L|0:104,1,106.666666666667,2|0,0:0|0:0,0:0:0:0:
80,104,41645,2,0,L|192:104,1,106.666666666667,8|2,0:0|0:0,0:0:0:0:
328,104,41988,2,0,P|368:160|320:192,1,127.99999609375,2|8,0:0|0:0,0:0:0:0:
256,192,42331,1,0,0:0:0:0:
80,192,42560,1,0,0:0:0:0:
256,192,42674,6,0,L|384:192,1,106.666666666667,2|0,0:0|0:0,0:0:0:0:
432,192,43017,2,0,L|320:192,1,106.666666666667,8|2,0:0|0:0,0:0:0:0:
136,184,43360,2,0,L|8:184,1,106.666666666667,2|0,0:0|0:0,0:0:0:0:
96,184,43702,1,8,0:0:0:0:
232,184,43931,1,0,0:0:0:0:
408,176,44045,6,0,P|456:200|384:248,1,160,2|8,0:0|0:0,0:0:0:0:
256,256,44617,1,2,0:0:0:0:
184,256,44731,2,0,L|312:256,1,106.666666666667,2|0,0:0|0:0,0:0:0:0:
360,256,45074,2,0,L|232:256,1,106.666666666667,8|0,0:0|0:0,0:0:0:0:
32,256,45417,5,2,0:0:0:0:
200,256,45645,1,0,0:0:0:0:
253,256,45760,2,0,L|373:256,1,106.666666666667,8|2,0:0|0:0,0:0:0:0:
432,256,46102,1,2,0:0:0:0:
296,256,46331,1,0,0:0:0:0:
88,256,46445,2,0,L|16:256,2,53.3333333333333,8|0|0,0:0|0:0|0:0,0:0:0:0:
312,256,46788,6,0,P|376:256|328:168,1,191.999994140625,2|8,0:0|0:0,0:0:0:0:
240,168,47302,1,0,0:0:0:0:
112,168,47474,2,0,L|244:169,1,127.99999609375,2|0,0:0|0:0,0:0:0:0:
352,168,47817,2,0,L|232:168,1,106.666666666667,8|0,0:0|0:0,0:0:0:0:
48,168,48160,6,0,L|130:109,1,100,2|0,0:0|0:0,0:0:0:0:
464,168,48502,2,0,L|384:112,1,80,8|0,0:0|0:0,0:0:0:0:
88,96,48845,2,0,P|32:144|88:176,1,160,2|8,0:0|0:0,0:0:0:0:
224,192,49360,1,8,0:0:0:0:
480,192,49531,5,6,0:0:0:0:
272,192,49874,2,0,L|152:192,1,120,2|0,0:0|0:0,0:0:0:0:
256,192,50274,1,2,0:0:0:0:
432,184,50560,2,0,L|320:184,1,106.666666666667,2|0,0:0|0:0,0:0:0:0:
216,192,50988,6,0,L|361:192,1,120,2|0,0:0|0:0,0:0:0:0:
456,192,51417,1,2,0:0:0:0:
352,192,51631,2,0,L|230:192,1,86.666666666667,2|0,0:0|0:0,0:0:0:0:
320,184,51931,2,0,P|360:176|328:128,1,106.666666666667,2|0,0:0|0:0,0:0:0:0:
96,192,52274,5,6,0:0:0:0:
240,192,52617,2,0,L|360:192,1,120,2|0,0:0|0:0,0:0:0:0:
256,192,53017,1,2,0:0:0:0:
96,192,53303,2,0,L|217:193,1,120,2|0,0:0|0:0,0:0:0:0:
312,192,53731,6,0,L|168:192,1,120,2|0,0:0|0:0,0:0:0:0:
72,192,54160,1,2,0:0:0:0:
176,192,54374,2,0,L|298:192,1,86.666666666667,2|0,0:0|0:0,0:0:0:0:
192,184,54674,2,0,P|152:176|184:128,1,106.666666666667,2|0,0:0|0:0,0:0:0:0:
416,192,55017,5,6,0:0:0:0:
256,192,55360,2,0,P|200:152|248:128,1,120,2|0,0:0|0:0,0:0:0:0:
328,128,55760,1,2,0:0:0:0:
152,136,56046,2,0,L|40:136,1,106.666666666667,2|0,0:0|0:0,0:0:0:0:
256,184,56474,6,0,P|296:224|256:256,1,120,2|0,0:0|0:0,0:0:0:0:
160,256,56902,1,2,0:0:0:0:
256,256,57117,2,0,L|134:256,1,86.666666666667,2|0,0:0|0:0,0:0:0:0:
64,256,57417,2,0,P|40:232|72:176,1,106.666666666667,2|0,0:0|0:0,0:0:0:0:
256,192,57760,5,6,0:0:0:0:
368,128,58102,2,0,L|240:128,1,120,2|0,0:0|0:0,0:0:0:0:
154,126,58502,1,2,0:0:0:0:
340,128,58788,2,0,L|452:128,1,106.666666666667,2|0,0:0|0:0,0:0:0:0:
272,184,59217,6,0,P|232:224|272:256,1,120,2|0,0:0|0:0,0:0:0:0:
368,256,59645,1,0,0:0:0:0:
256,256,59860,2,0,L|134:256,1,86.666666666667,2|2,0:0|0:0,0:0:0:0:
440,256,60160,1,2,0:0:0:0:
496,256,60274,1,2,0:0:0:0:
440,256,60388,1,2,0:0:0:0:
256,160,60502,5,6,0:0:0:0:
464,160,60845,2,0,L|358:160,1,106.666666666667,2|0,0:0|0:0,0:0:0:0:
424,160,61188,1,2,0:0:0:0:
136,152,61417,1,2,0:0:0:0:
72,176,61531,1,2,0:0:0:0:
72,248,61645,1,2,0:0:0:0:
136,272,61760,1,2,0:0:0:0:
360,272,61874,5,2,0:0:0:0:
152,264,62217,2,0,L|46:264,1,106.666666666667,2|0,0:0|0:0,0:0:0:0:
112,264,62560,1,2,0:0:0:0:
400,152,62789,1,0,0:0:0:0:
464,176,62903,1,2,0:0:0:0:
464,248,63017,1,2,0:0:0:0:
400,272,63132,1,2,0:0:0:0:
152,272,63246,5,2,0:0:0:0:
368,264,63588,2,0,L|474:264,1,106.666666666667,2|0,0:0|0:0,0:0:0:0:
408,264,63931,1,2,0:0:0:0:
120,152,64160,1,2,0:0:0:0:
56,176,64274,1,2,0:0:0:0:
56,248,64388,1,2,0:0:0:0:
120,272,64503,1,2,0:0:0:0:
392,272,64617,5,2,0:0:0:0:
216,272,64960,2,0,L|322:272,1,106.666666666667,2|0,0:0|0:0,0:0:0:0:
392,272,65302,1,2,0:0:0:0:
80,152,65531,1,0,0:0:0:0:
16,176,65645,1,2,0:0:0:0:
16,248,65759,1,2,0:0:0:0:
80,272,65874,1,2,0:0:0:0:
256,192,65988,5,2,0:0:0:0:
368,192,66560,1,0,0:0:0:0:
168,192,66674,1,2,0:0:0:0:
56,192,67245,1,0,0:0:0:0:
256,192,67359,5,2,0:0:0:0:
456,192,67931,1,0,0:0:0:0:
256,192,68045,1,2,0:0:0:0:
112,192,68617,1,0,0:0:0:0:
336,192,68731,6,0,L|456:192,1,106.666666666667,2|0,0:0|0:0,0:0:0:0:
376,192,69074,2,0,L|256:192,1,106.666666666667,2|0,0:0|0:0,0:0:0:0:
146,192,69417,2,0,L|274:192,1,106.666666666667,2|0,0:0|0:0,0:0:0:0:
186,192,69760,2,0,L|58:192,1,106.666666666667,2|0,0:0|0:0,0:0:0:0:
328,192,70102,5,2,0:0:0:0:
400,192,70217,1,2,0:0:0:0:
328,192,70331,1,2,0:0:0:0:
152,192,70445,1,2,0:0:0:0:
80,192,70560,1,2,0:0:0:0:
152,192,70674,1,2,0:0:0:0:
384,192,70788,1,2,0:0:0:0:
456,192,70903,1,2,0:0:0:0:
384,192,71017,1,2,0:0:0:0:
144,192,71131,2,0,L|32:192,1,106.666666666667,2|0,0:0|0:0,0:0:0:0:
312,240,71474,5,6,0:0:0:0:
400,240,71588,1,0,0:0:0:0:
312,240,71702,1,0,0:0:0:0:
136,192,71817,1,8,0:0:0:0:
36,192,72045,1,2,0:0:0:0:
216,96,72160,2,0,L|312:48,1,106.666666666667,2|0,0:0|0:0,0:0:0:0:
136,48,72502,1,8,0:0:0:0:
392,96,72845,6,0,L|296:144,1,106.666666666667,2|0,0:0|0:0,0:0:0:0:
432,184,73188,2,0,L|336:232,1,106.666666666667,8|2,0:0|0:0,0:0:0:0:
472,272,73531,2,0,L|328:344,1,160,2|8,0:0|0:0,0:0:0:0:
144,176,74102,1,0,0:0:0:0:
72,200,74217,5,2,0:0:0:0:
40,272,74331,1,0,0:0:0:0:
104,320,74445,1,0,0:0:0:0:
280,320,74560,1,8,0:0:0:0:
136,320,74788,1,2,0:0:0:0:
312,304,74902,2,0,L|408:256,1,106.666666666667,2|0,0:0|0:0,0:0:0:0:
232,232,75245,1,8,0:0:0:0:
488,176,75588,6,0,L|488:64,1,106.666666666667,2|0,0:0|0:0,0:0:0:0:
352,16,75931,2,0,L|464:16,1,106.666666666667,8|2,0:0|0:0,0:0:0:0:
320,72,76274,2,0,L|160:72,1,160,2|8,0:0|0:0,0:0:0:0:
352,176,76845,1,0,0:0:0:0:
392,200,76960,5,2,0:0:0:0:
408,256,77074,1,0,0:0:0:0:
376,295,77188,1,0,0:0:0:0:
200,296,77302,1,8,0:0:0:0:
344,352,77531,1,2,0:0:0:0:
168,240,77645,2,0,L|72:192,1,106.666666666667,2|0,0:0|0:0,0:0:0:0:
248,160,77988,2,0,L|344:112,1,106.666666666667,8|0,0:0|0:0,0:0:0:0:
208,88,78331,6,0,L|112:136,1,106.666666666667,2|0,0:0|0:0,0:0:0:0:
248,184,78674,1,8,0:0:0:0:
152,224,78902,1,2,0:0:0:0:
288,248,79017,2,0,P|336:272|336:368,1,160,2|8,0:0|0:0,0:0:0:0:
144,368,79588,1,0,0:0:0:0:
96,344,79702,5,2,0:0:0:0:
80,288,79816,1,0,0:0:0:0:
97,248,79931,1,0,0:0:0:0:
272,216,80045,1,8,0:0:0:0:
128,192,80274,1,2,0:0:0:0:
344,200,80388,2,0,P|328:240|152:240,1,223.999993164063,2|8,0:0|0:0,0:0:0:0:
320,248,81074,6,0,L|344:144,1,106.666666666667,2|0,0:0|0:0,0:0:0:0:
192,248,81417,2,0,L|168:144,1,106.666666666667,8|2,0:0|0:0,0:0:0:0:
320,144,81760,2,0,P|392:112|376:40,1,160.000006103516,2|0,0:0|0:0,0:0:0:0:
192,144,82102,2,0,P|120:112|136:40,1,160.000006103516,8|0,0:0|0:0,0:0:0:0:
352,40,82445,5,6,0:0:0:0:
288,40,82559,1,0,0:0:0:0:
392,40,82674,1,0,0:0:0:0:
328,40,82788,1,8,0:0:0:0:
432,40,83017,1,2,0:0:0:0:
256,112,83131,2,0,L|152:144,1,106.666666666667,2|0,0:0|0:0,0:0:0:0:
336,184,83474,2,0,L|440:208,1,106.666666666667,8|0,0:0|0:0,0:0:0:0:
304,264,83817,5,2,0:0:0:0:
248,352,84045,1,0,0:0:0:0:
384,352,84160,1,8,0:0:0:0:
440,264,84388,1,2,0:0:0:0:
280,208,84502,2,0,L|96:152,1,191.999994140625,2|8,0:0|0:0,0:0:0:0:
288,136,85074,1,0,0:0:0:0:
336,112,85188,5,2,0:0:0:0:
352,56,85302,1,0,0:0:0:0:
335,16,85417,1,0,0:0:0:0:
160,16,85531,1,8,0:0:0:0:
304,16,85760,1,2,0:0:0:0:
128,80,85874,2,0,L|16:80,1,106.666666666667,2|0,0:0|0:0,0:0:0:0:
200,80,86217,2,0,L|312:80,1,106.666666666667,8|0,0:0|0:0,0:0:0:0:
168,160,86560,6,0,L|280:160,1,106.666666666667,2|0,0:0|0:0,0:0:0:0:
144,232,86902,1,8,0:0:0:0:
38,232,87131,1,2,0:0:0:0:
216,248,87245,2,0,P|288:272|224:352,1,207.999990478516,2|8,0:0|0:0,0:0:0:0:
40,208,87817,1,0,0:0:0:0:
16,248,87931,5,2,0:0:0:0:
8,312,88045,1,0,0:0:0:0:
67,337,88160,1,0,0:0:0:0:
240,344,88274,1,8,0:0:0:0:
384,328,88502,1,2,0:0:0:0:
208,328,88617,2,0,L|160:224,1,106.666666666667,2|0,0:0|0:0,0:0:0:0:
384,216,88960,2,0,L|456:128,1,106.666666666667,8|0,0:0|0:0,0:0:0:0:
120,192,89302,6,0,L|24:128,1,106.666666666667,2|0,0:0|0:0,0:0:0:0:
336,24,89645,2,0,L|448:24,1,106.666666666667,8|2,0:0|0:0,0:0:0:0:
256,24,89988,2,0,L|24:24,1,223.999993164063,2|8,0:0|0:0,0:0:0:0:
208,112,90560,1,0,0:0:0:0:
264,112,90674,5,2,0:0:0:0:
320,112,90788,1,0,0:0:0:0:
376,112,90902,1,0,0:0:0:0:
192,192,91017,2,0,P|154:240|248:296,1,186.666666666667,0|2,0:0|0:0,0:0:0:0:
488,304,91702,2,0,L|377:304,1,106.666666666667,0|0,0:0|0:0,0:0:0:0:
240,304,92045,6,0,L|99:303,1,133.333333333333,2|0,0:0|0:0,0:0:0:0:
384,248,92617,1,2,0:0:0:0:
240,192,92788,1,2,0:0:0:0:
464,192,93074,1,2,0:0:0:0:
32,192,93417,6,0,P|16:240|152:352,1,223.999993164063,6|8,0:0|0:0,0:0:0:0:
336,352,93988,1,2,0:0:0:0:
424,312,94102,2,0,L|384:240,1,80,2|0,0:0|0:0,0:0:0:0:
200,240,94445,2,0,L|240:168,1,80,8|0,0:0|0:0,0:0:0:0:
368,144,94788,6,0,L|328:72,1,80,2|0,0:0|0:0,0:0:0:0:
120,112,95131,2,0,L|160:40,1,80,8|0,0:0|0:0,0:0:0:0:
212,42,95360,2,0,L|156:42,1,53.3333333333333,0|2,0:0|0:0,0:0:0:0:
424,192,95817,1,8,0:0:0:0:
24,192,96160,6,0,P|8:136|120:64,1,207.999990478516,2|8,0:0|0:0,0:0:0:0:
320,64,96731,1,2,0:0:0:0:
408,88,96845,2,0,L|368:160,1,80,2|0,0:0|0:0,0:0:0:0:
160,152,97188,2,0,L|120:224,1,80,8|0,0:0|0:0,0:0:0:0:
264,248,97531,6,0,L|304:320,1,80,2|0,0:0|0:0,0:0:0:0:
80,288,97874,2,0,L|40:360,1,80,8|0,0:0|0:0,0:0:0:0:
96,360,98102,2,0,L|149:360,1,53.3333333333333,0|2,0:0|0:0,0:0:0:0:
424,320,98560,1,8,0:0:0:0:
24,328,98902,6,0,P|8:272|112:192,1,207.999990478516,2|8,0:0|0:0,0:0:0:0:
304,208,99474,1,2,0:0:0:0:
192,232,99588,2,0,L|120:192,1,80,2|0,0:0|0:0,0:0:0:0:
328,144,99931,2,0,L|400:104,1,80,8|0,0:0|0:0,0:0:0:0:
160,80,100274,5,2,0:0:0:0:
65,64,100388,1,0,0:0:0:0:
160,80,100502,1,0,0:0:0:0:
304,32,100617,2,0,L|216:96,1,106.666666666667,8|2,0:0|0:0,0:0:0:0:
192,136,100960,1,2,0:0:0:0:
216,184,101074,1,0,0:0:0:0:
264,192,101188,1,0,0:0:0:0:
416,192,101302,1,8,0:0:0:0:
16,192,101645,6,0,L|144:96,1,160,2|8,0:0|0:0,0:0:0:0:
328,80,102217,1,2,0:0:0:0:
368,104,102331,1,2,0:0:0:0:
384,152,102445,1,0,0:0:0:0:
360,192,102560,1,0,0:0:0:0:
184,192,102674,1,8,0:0:0:0:
480,192,103017,5,2,0:0:0:0:
408,192,103131,1,0,0:0:0:0:
336,192,103245,1,0,0:0:0:0:
168,192,103360,1,8,0:0:0:0:
360,192,103588,1,2,0:0:0:0:
184,192,103702,2,0,L|72:192,1,106.666666666667,2|0,0:0|0:0,0:0:0:0:
256,192,104045,2,0,L|368:192,1,106.666666666667,8|0,0:0|0:0,0:0:0:0:
77,192,104388,5,6,0:0:0:0:
320,112,104731,2,0,L|432:112,1,106.666666666667,8|2,0:0|0:0,0:0:0:0:
288,112,105074,1,2,0:0:0:0:
120,120,105302,1,0,0:0:0:0:
80,144,105417,1,8,0:0:0:0:
88,200,105531,1,0,0:0:0:0:
136,224,105645,1,0,0:0:0:0:
272,224,105760,5,2,0:0:0:0:
8,232,106102,2,0,L|8:120,1,106.666666666667,8|2,0:0|0:0,0:0:0:0:
144,120,106445,1,2,0:0:0:0:
336,120,106673,1,0,0:0:0:0:
264,120,106788,1,8,0:0:0:0:
192,120,106902,1,0,0:0:0:0:
120,120,107017,1,0,0:0:0:0:
256,120,107131,5,2,0:0:0:0:
16,192,107474,2,0,L|128:192,1,106.666666666667,8|2,0:0|0:0,0:0:0:0:
256,192,107817,1,2,0:0:0:0:
96,272,108045,1,0,0:0:0:0:
168,272,108160,1,8,0:0:0:0:
240,272,108274,1,0,0:0:0:0:
312,272,108388,1,0,0:0:0:0:
176,272,108502,5,2,0:0:0:0:
416,272,108845,2,0,L|320:224,1,106.666666666667,8|2,0:0|0:0,0:0:0:0:
456,192,109188,1,2,0:0:0:0:
208,184,109531,2,0,L|304:136,1,106.666666666667,8|0,0:0|0:0,0:0:0:0:
168,96,109874,5,2,0:0:0:0:
424,104,110217,2,0,L|328:56,1,106.666666666667,8|0,0:0|0:0,0:0:0:0:
464,32,110560,5,2,0:0:0:0:
200,24,110902,2,0,L|312:24,1,106.666666666667,8|0,0:0|0:0,0:0:0:0:
400,24,111245,5,2,0:0:0:0:
464,48,111360,1,0,0:0:0:0:
504,112,111474,1,0,0:0:0:0:
480,184,111588,1,8,0:0:0:0:
400,224,111702,1,0,0:0:0:0:
480,184,111817,1,0,0:0:0:0:
296,216,111931,5,2,0:0:0:0:
232,192,112045,1,0,0:0:0:0:
192,136,112160,1,0,0:0:0:0:
224,72,112274,1,8,0:0:0:0:
304,40,112388,1,0,0:0:0:0:
224,72,112502,1,0,0:0:0:0:
408,56,112617,5,2,0:0:0:0:
464,104,112731,1,0,0:0:0:0:
424,168,112845,1,0,0:0:0:0:
352,200,112960,1,8,0:0:0:0:
272,216,113074,1,0,0:0:0:0:
352,200,113188,1,0,0:0:0:0:
168,200,113302,5,2,0:0:0:0:
112,152,113417,1,0,0:0:0:0:
136,80,113531,1,0,0:0:0:0:
208,56,113645,1,8,0:0:0:0:
288,80,113760,1,0,0:0:0:0:
208,56,113874,1,0,0:0:0:0:
392,88,113988,6,0,L|456:88,2,53.3333333333333,2|2|2,0:0|0:0|0:0,0:0:0:0:
312,168,114331,2,0,L|376:168,2,53.3333333333333,8|2|2,0:0|0:0|0:0,0:0:0:0:
232,240,114674,2,0,L|296:240,2,53.3333333333333,8|2|2,0:0|0:0|0:0,0:0:0:0:
152,320,115017,2,0,L|280:320,1,106.666666666667,8|0,0:0|0:0,0:0:0:0:
456,328,115360,5,2,0:0:0:0:
368,288,115474,1,0,0:0:0:0:
285,240,115588,1,0,0:0:0:0:
48,192,115931,1,2,0:0:0:0:
144,192,116045,2,0,P|208:136|176:80,1,160,2|2,0:0|0:0,0:0:0:0:
416,80,116731,6,0,L|304:80,1,106.666666666667,2|2,0:0|0:0,0:0:0:0:
64,80,117302,1,2,0:0:0:0:
160,80,117417,2,0,L|48:80,1,106.666666666667,2|2,0:0|0:0,0:0:0:0:
240,80,117760,1,2,0:0:0:0:
328,80,117874,1,2,0:0:0:0:
240,80,117988,1,2,0:0:0:0:
416,304,118102,5,6,0:0:0:0:
480,272,118217,1,0,0:0:0:0:
480,200,118331,1,0,0:0:0:0:
416,176,118445,1,8,0:0:0:0:
280,184,118674,1,2,0:0:0:0:
104,184,118788,2,0,P|80:152|128:112,1,106.666666666667,2|0,0:0|0:0,0:0:0:0:
256,112,119131,2,0,L|384:112,1,106.666666666667,8|0,0:0|0:0,0:0:0:0:
64,112,119474,5,2,0:0:0:0:
200,112,119702,2,0,L|272:112,1,53.3333333333333,0|8,0:0|0:0,0:0:0:0:
392,112,120045,1,2,0:0:0:0:
192,112,120160,2,0,P|120:144|200:144,1,191.999994140625,2|8,0:0|0:0,0:0:0:0:
328,168,120731,1,0,0:0:0:0:
256,168,120845,5,2,0:0:0:0:
184,168,120960,1,0,0:0:0:0:
256,168,121074,1,0,0:0:0:0:
432,176,121188,2,0,P|464:144|416:104,1,106.666666666667,8|2,0:0|0:0,0:0:0:0:
256,96,121531,1,2,0:0:0:0:
224,160,121645,1,0,0:0:0:0:
264,216,121760,1,0,0:0:0:0:
336,216,121874,1,8,0:0:0:0:
472,216,122102,1,0,0:0:0:0:
240,240,122217,5,2,0:0:0:0:
168,240,122331,1,0,0:0:0:0:
168,168,122445,1,0,0:0:0:0:
240,168,122560,1,8,0:0:0:0:
424,216,122788,1,2,0:0:0:0:
112,232,122902,2,0,L|32:232,2,69.3333301595054,2|0|0,0:0|0:0|0:0,0:0:0:0:
184,232,123245,1,8,0:0:0:0:
42,232,123474,1,0,0:0:0:0:
256,200,123588,5,2,0:0:0:0:
328,200,123702,1,0,0:0:0:0:
256,200,123817,1,0,0:0:0:0:
184,200,123931,1,8,0:0:0:0:
48,200,124160,1,2,0:0:0:0:
314,194,124274,2,0,P|388:161|298:91,1,223.999993164063,2|8,0:0|0:0,0:0:0:0:
21,96,124960,6,0,L|128:96,1,106.666666666667,2|0,0:0|0:0,0:0:0:0:
200,96,125302,2,0,L|94:96,1,106.666666666667,8|2,0:0|0:0,0:0:0:0:
232,96,125645,2,0,L|339:96,1,106.666666666667,2|0,0:0|0:0,0:0:0:0:
272,96,125988,2,0,L|166:96,1,106.666666666667,8|0,0:0|0:0,0:0:0:0:
392,96,126331,5,6,0:0:0:0:
464,96,126446,1,0,0:0:0:0:
464,168,126560,1,0,0:0:0:0:
392,168,126674,1,8,0:0:0:0:
256,176,126902,1,2,0:0:0:0:
440,184,127017,2,0,P|464:152|416:112,1,106.666666666667,2|0,0:0|0:0,0:0:0:0:
296,112,127360,2,0,L|168:112,1,106.666666666667,8|0,0:0|0:0,0:0:0:0:
448,112,127702,5,2,0:0:0:0:
312,112,127930,2,0,L|240:112,1,53.3333333333333,0|8,0:0|0:0,0:0:0:0:
120,112,128273,1,2,0:0:0:0:
320,112,128388,2,0,P|392:144|312:144,1,191.999994140625,2|8,0:0|0:0,0:0:0:0:
464,168,128960,1,0,0:0:0:0:
120,96,129074,5,2,0:0:0:0:
48,96,129189,1,0,0:0:0:0:
48,168,129303,1,0,0:0:0:0:
120,168,129417,1,8,0:0:0:0:
256,176,129645,1,2,0:0:0:0:
72,184,129760,2,0,P|48:152|96:112,1,106.666666666667,2|0,0:0|0:0,0:0:0:0:
216,112,130102,2,0,L|344:112,1,106.666666666667,8|0,0:0|0:0,0:0:0:0:
64,112,130445,5,2,0:0:0:0:
200,112,130673,2,0,L|272:112,1,53.3333333333333,0|8,0:0|0:0,0:0:0:0:
392,112,131016,1,2,0:0:0:0:
192,112,131131,2,0,P|128:144|200:144,1,191.999994140625,2|8,0:0|0:0,0:0:0:0:
64,168,131702,1,0,0:0:0:0:
256,160,131817,5,2,0:0:0:0:
328,160,131931,1,0,0:0:0:0:
328,232,132045,1,0,0:0:0:0:
256,232,132160,1,8,0:0:0:0:
408,248,132388,1,2,0:0:0:0:
216,248,132502,2,0,L|96:248,1,106.666666666667,2|0,0:0|0:0,0:0:0:0:
296,248,132845,2,0,L|424:248,1,106.666666666667,8|0,0:0|0:0,0:0:0:0:
96,112,133188,5,2,0:0:0:0:
232,112,133416,2,0,L|304:112,1,53.3333333333333,0|8,0:0|0:0,0:0:0:0:
424,112,133759,1,2,0:0:0:0:
112,112,133874,2,0,P|32:128|120:200,1,223.999993164063,2|8,0:0|0:0,0:0:0:0:
232,216,134445,1,0,0:0:0:0:
416,216,134560,5,2,0:0:0:0:
488,216,134674,1,0,0:0:0:0:
416,216,134788,1,0,0:0:0:0:
296,216,134902,2,0,L|176:216,1,106.666666666667,2|0,0:0|0:0,0:0:0:0:
93,214,135302,1,2,0:0:0:0:
256,216,135474,1,0,0:0:0:0:
328,216,135588,2,0,L|440:216,1,106.666666666667,2|0,0:0|0:0,0:0:0:0:
296,216,135931,5,2,0:0:0:0:
240,216,136017,2,0,P|168:208|144:192,1,93.3333333333333,0|2,0:0|0:0,0:0:0:0:
328,208,136502,2,0,L|416:208,1,80,2|2,0:0|0:0,0:0:0:0:
96,192,136845,5,0,0:0:0:0:
64,192,136902,1,0,0:0:0:0:
24,192,136960,1,2,0:0:0:0:
24,264,137074,1,0,0:0:0:0:
96,264,137188,1,0,0:0:0:0:
296,328,137302,6,0,P|386:317|271:42,1,533.333333333333,6|0,0:0|0:0,0:0:0:0:
152,64,138674,6,0,P|72:184|384:200,2,640,2|0|0,0:0|0:0|0:0,0:0:0:0:
256,80,141674,1,0,0:0:0:0:
312,80,141760,6,0,P|405:177|280:240,1,300,2|0,0:0|0:0,0:0:0:0:
256,192,142788,12,0,144845,0:0:0:0:
