osu file format v14

[General]
AudioFilename: audio.mp3
AudioLeadIn: 0
PreviewTime: 71474
Countdown: 0
SampleSet: Soft
StackLeniency: 0.7
Mode: 2
LetterboxInBreaks: 0
EpilepsyWarning: 1
WidescreenStoryboard: 1

[Editor]
DistanceSpacing: 1.2
BeatDivisor: 8
GridSize: 8
TimelineZoom: 1.9

[Metadata]
Title:Crescendo (feat. MYLK)
TitleUnicode:Crescendo (feat. MYLK)
Artist:Muzzy
ArtistUnicode:Muzzy
Creator:WildOne94
Version:Platter
Source:
Tags:monstercat kurokami DnB d&b Drum and Bass
BeatmapID:1162777
BeatmapSetID:526032

[Difficulty]
HPDrainRate:5
CircleSize:3
OverallDifficulty:8
ApproachRate:8
SliderMultiplier:1.4
SliderTickRate:0.5

[Events]
//Background and Video events
0,0,"Muzzy Wallpaper Resize.jpg",0,0
Video,-89,"Muzzy Crescendo Osu Video.mp4"
//Break Periods
//Storyboard Layer 0 (Background)
//Storyboard Layer 1 (Fail)
//Storyboard Layer 2 (Pass)
//Storyboard Layer 3 (Foreground)
//Storyboard Sound Samples

[TimingPoints]
160,342.857142857143,4,2,1,80,1,0
49531,-100,4,2,0,80,0,0
60045,-100,4,2,1,90,0,0
60845,-100,4,2,0,80,0,0
61417,-100,4,2,1,90,0,0
62217,-100,4,2,0,80,0,0
62731,-100,4,2,1,90,0,0
63588,-100,4,2,0,80,0,0
64160,-100,4,2,1,90,0,0
64960,-100,4,2,0,80,0,0
65360,-100,4,2,1,90,0,0
71474,-100,4,2,1,90,0,1
90674,-100,4,2,1,90,0,0
91017,-100,4,2,0,80,0,0
93417,-100,4,2,1,90,0,1
104388,-100,4,2,1,90,0,0
115931,-100,4,2,0,80,0,0
117588,-100,4,2,1,90,0,0
118102,-100,4,2,1,90,0,1
133874,-66.6666666666667,4,2,1,90,0,1
134560,-100,4,2,1,90,0,0
134902,-100,4,2,0,80,0,0
136788,-100,4,2,1,90,0,0
137302,-100,4,2,0,80,0,0
137388,-100,4,2,0,60,0,0
142788,-100,4,2,0,30,0,0
143474,-100,4,2,0,20,0,0
144160,-100,4,2,0,10,0,0
144845,-100,4,2,1,5,0,0

[Colours]
Combo1 : 220,22,22
Combo2 : 95,95,95
Combo3 : 234,113,32
Combo4 : 223,223,223
Combo5 : 255,192,0

[HitObjects]
256,192,160,12,0,4960,0:0:0:0:
72,192,5302,5,2,0:0:0:0:
336,200,5645,6,0,P|423:202|456:152,1,140,6|0,0:0|0:0,0:0:0:0:
256,200,6331,1,8,0:0:0:0:
144,200,6545,1,0,0:0:0:0:
208,200,6674,1,2,0:0:0:0:
328,200,6902,1,0,0:0:0:0:
392,200,7017,6,0,L|248:200,1,140,2|0,0:0|0:0,0:0:0:0:
312,200,7474,1,0,0:0:0:0:
368,200,7588,1,0,0:0:0:0:
312,200,7702,1,8,0:0:0:0:
128,208,8045,1,2,0:0:0:0:
448,152,8388,6,0,P|384:144|336:88,2,140,2|0|8,0:0|0:0|0:0,0:0:0:0:
320,160,9302,1,0,0:0:0:0:
256,160,9417,1,2,0:0:0:0:
136,160,9645,1,0,0:0:0:0:
72,152,9760,6,0,P|24:184|88:216,1,140,2|0,0:0|0:0,0:0:0:0:
376,176,10445,1,8,0:0:0:0:
432,184,10560,1,0,0:0:0:0:
472,224,10674,1,0,0:0:0:0:
472,280,10788,1,8,0:0:0:0:
432,320,10902,1,0,0:0:0:0:
376,320,11017,1,0,0:0:0:0:
224,328,11131,6,0,L|58:328,1,163.333333333333,2|0,0:0|0:0,0:0:0:0:
136,328,11645,2,0,L|306:328,1,163.333333333333,2|0,0:0|0:0,0:0:0:0:
224,328,12160,1,2,0:0:0:0:
472,336,12502,6,0,L|320:336,1,140,2|0,0:0|0:0,0:0:0:0:
424,336,13017,1,2,0:0:0:0:
176,336,13188,2,0,L|16:336,1,140,8|8,0:0|0:0,0:0:0:0:
472,336,13874,5,10,0:0:0:0:
272,336,14217,1,0,0:0:0:0:
360,336,14445,1,0,0:0:0:0:
211,335,14560,2,0,P|179:319|235:255,1,140,2|0,0:0|0:0,0:0:0:0:
368,256,15245,6,0,L|272:256,1,93.3333333333333,2|0,0:0|0:0,0:0:0:0:
194,256,15588,2,0,L|298:256,1,93.3333333333333,2|0,0:0|0:0,0:0:0:0:
410,256,15931,2,0,L|514:256,1,93.3333333333333,2|0,0:0|0:0,0:0:0:0:
440,248,16274,1,2,0:0:0:0:
32,248,16617,6,0,P|24:272|104:328,1,140,6|0,0:0|0:0,0:0:0:0:
280,304,17302,1,8,0:0:0:0:
400,304,17517,1,0,0:0:0:0:
464,304,17645,1,2,0:0:0:0:
256,296,17874,1,0,0:0:0:0:
192,296,17988,6,0,L|32:296,1,140,2|0,0:0|0:0,0:0:0:0:
112,296,18445,1,0,0:0:0:0:
168,280,18560,1,0,0:0:0:0:
224,264,18674,1,8,0:0:0:0:
40,272,19017,1,2,0:0:0:0:
256,272,19245,1,0,0:0:0:0:
320,272,19360,6,0,L|472:272,1,140,2|0,0:0|0:0,0:0:0:0:
280,272,20045,2,0,L|176:272,1,93.3333333333333,8|0,0:0|0:0,0:0:0:0:
128,272,20388,1,2,0:0:0:0:
368,264,20602,1,0,0:0:0:0:
428,264,20731,6,0,L|276:264,1,140,2|0,0:0|0:0,0:0:0:0:
136,176,21417,1,8,0:0:0:0:
80,184,21532,1,0,0:0:0:0:
40,224,21646,1,0,0:0:0:0:
40,280,21760,1,8,0:0:0:0:
80,320,21874,1,0,0:0:0:0:
136,320,21989,1,0,0:0:0:0:
280,320,22102,6,0,L|445:318,1,157.5,2|0,0:0|0:0,0:0:0:0:
360,320,22617,2,0,L|188:322,1,163.333333333333,2|0,0:0|0:0,0:0:0:0:
280,320,23131,1,2,0:0:0:0:
24,328,23474,5,2,0:0:0:0:
192,328,23817,1,0,0:0:0:0:
112,328,23988,1,2,0:0:0:0:
352,328,24160,2,0,L|496:328,1,140,8|8,0:0|0:0,0:0:0:0:
40,328,24845,5,10,0:0:0:0:
256,312,25188,2,0,L|408:312,2,140,0|2|0,0:0|0:0|0:0,0:0:0:0:
88,312,26217,6,0,L|232:312,1,140,2|0,0:0|0:0,0:0:0:0:
320,312,26731,1,0,0:0:0:0:
228,312,26902,1,2,0:0:0:0:
136,312,27074,2,0,L|66:312,2,70,0|8|8,0:0|0:0|0:0,0:0:0:0:
424,312,27588,6,0,P|472:296|416:248,1,140,6|8,0:0|0:0,0:0:0:0:
256,232,28160,1,2,0:0:0:0:
192,232,28274,2,0,L|40:232,1,140,2|8,0:0|0:0,0:0:0:0:
272,232,28960,6,0,L|424:232,2,140,2|8|2,0:0|0:0|0:0,0:0:0:0:
104,232,29988,1,8,0:0:0:0:
392,232,30331,5,2,0:0:0:0:
208,232,30674,2,0,L|109:232,1,87.5,8|2,0:0|0:0,0:0:0:0:
48,232,31017,2,0,L|200:232,1,140,2|8,0:0|0:0,0:0:0:0:
456,232,31702,6,0,L|296:232,1,140,2|8,0:0|0:0,0:0:0:0:
104,224,32274,1,2,0:0:0:0:
40,224,32388,2,0,L|200:224,1,140,2|8,0:0|0:0,0:0:0:0:
456,224,33074,5,2,0:0:0:0:
208,224,33417,2,0,L|280:224,1,70,0|2,0:0|0:0,0:0:0:0:
176,224,33760,2,0,L|24:224,1,140,0|2,0:0|0:0,0:0:0:0:
312,224,34445,5,2,0:0:0:0:
480,224,34788,2,0,L|410:224,1,70,0|2,0:0|0:0,0:0:0:0:
144,216,35131,2,0,L|-8:216,1,140,8|8,0:0|0:0,0:0:0:0:
472,216,35817,5,10,0:0:0:0:
264,216,36160,1,8,0:0:0:0:
176,216,36331,1,0,0:0:0:0:
344,216,36502,2,0,P|384:184|320:144,1,140,2|8,0:0|0:0,0:0:0:0:
176,144,37188,6,0,L|283:145,1,105,2|0,0:0|0:0,0:0:0:0:
328,144,37531,2,0,L|221:144,1,105,8|0,0:0|0:0,0:0:0:0:
296,144,37874,1,2,0:0:0:0:
32,144,38217,1,8,0:0:0:0:
488,144,38560,5,6,0:0:0:0:
256,136,38902,2,0,L|104:136,1,140,8|2,0:0|0:0,0:0:0:0:
296,136,39588,2,0,L|397:137,1,87.5,8|0,0:0|0:0,0:0:0:0:
325,137,39931,6,0,L|173:137,2,140,2|8|2,0:0|0:0|0:0,0:0:0:0:
96,136,40960,1,8,0:0:0:0:
248,136,41188,1,0,0:0:0:0:
312,136,41302,6,0,L|160:136,1,140,2|8,0:0|0:0,0:0:0:0:
472,232,41988,2,0,P|488:288|416:288,1,140,2|0,0:0|0:0,0:0:0:0:
144,296,42674,5,2,0:0:0:0:
328,304,43017,1,8,0:0:0:0:
384,304,43131,1,0,0:0:0:0:
328,304,43245,1,2,0:0:0:0:
200,304,43360,2,0,L|40:304,1,140,2|8,0:0|0:0,0:0:0:0:
368,304,44045,6,0,P|392:296|344:232,1,140,2|8,0:0|0:0,0:0:0:0:
240,224,44617,1,2,0:0:0:0:
176,224,44731,2,0,L|16:224,1,140,2|8,0:0|0:0,0:0:0:0:
216,224,45417,5,2,0:0:0:0:
384,216,45760,1,8,0:0:0:0:
272,216,45988,1,2,0:0:0:0:
216,216,46102,1,2,0:0:0:0:
32,208,46445,1,8,0:0:0:0:
120,208,46617,1,0,0:0:0:0:
296,208,46788,6,0,L|440:208,1,140,2|8,0:0|0:0,0:0:0:0:
256,208,47474,1,2,0:0:0:0:
64,208,47817,1,8,0:0:0:0:
343,208,48160,6,0,L|435:208,1,87.5,2|0,0:0|0:0,0:0:0:0:
343,208,48502,2,0,L|266:209,1,70,8|0,0:0|0:0,0:0:0:0:
357,206,48845,2,0,L|505:166,1,140,2|8,0:0|0:0,0:0:0:0:
56,208,49531,5,6,0:0:0:0:
256,208,49874,2,0,L|376:208,1,105,2|0,0:0|0:0,0:0:0:0:
432,208,50274,1,2,0:0:0:0:
288,208,50560,1,2,0:0:0:0:
72,200,50988,6,0,L|176:200,1,105,2|0,0:0|0:0,0:0:0:0:
272,200,51417,1,2,0:0:0:0:
177,200,51631,1,2,0:0:0:0:
32,200,51931,1,2,0:0:0:0:
360,200,52274,5,6,0:0:0:0:
176,200,52617,2,0,L|296:200,1,105,2|0,0:0|0:0,0:0:0:0:
336,200,52960,1,0,0:0:0:0:
200,200,53303,1,2,0:0:0:0:
400,192,53731,6,0,L|288:192,1,105,2|0,0:0|0:0,0:0:0:0:
192,192,54160,1,2,0:0:0:0:
288,192,54374,1,2,0:0:0:0:
456,192,54674,1,2,0:0:0:0:
136,192,55017,5,6,0:0:0:0:
320,192,55360,2,0,L|200:192,1,105,2|0,0:0|0:0,0:0:0:0:
160,192,55702,1,0,0:0:0:0:
288,192,56046,1,2,0:0:0:0:
72,184,56474,6,0,L|176:184,1,105,2|0,0:0|0:0,0:0:0:0:
280,192,56902,1,2,0:0:0:0:
184,192,57117,1,2,0:0:0:0:
48,192,57417,1,2,0:0:0:0:
368,192,57760,5,6,0:0:0:0:
200,192,58102,2,0,L|80:192,1,105,2|0,0:0|0:0,0:0:0:0:
165,192,58502,1,2,0:0:0:0:
336,192,58788,1,2,0:0:0:0:
144,200,59217,6,0,L|256:200,1,105,2|0,0:0|0:0,0:0:0:0:
368,200,59645,1,0,0:0:0:0:
464,200,59860,1,2,0:0:0:0:
368,200,60045,2,0,L|432:200,2,46.6666666666667,2|2|2,0:0|0:0|0:0,0:0:0:0:
72,200,60502,5,6,0:0:0:0:
256,200,60845,2,0,L|368:200,1,93.3333333333333,2|0,0:0|0:0,0:0:0:0:
416,200,61188,1,2,0:0:0:0:
288,200,61417,2,0,L|224:200,2,46.6666666666667,2|2|2,0:0|0:0|0:0,0:0:0:0:
352,200,61760,1,2,0:0:0:0:
480,200,61874,5,2,0:0:0:0:
264,200,62217,2,0,L|152:200,1,93.3333333333333,2|0,0:0|0:0,0:0:0:0:
104,200,62560,1,2,0:0:0:0:
192,200,62731,1,2,0:0:0:0:
224,200,62788,2,0,L|288:200,2,46.6666666666667,0|2|2,0:0|0:0|0:0,0:0:0:0:
160,200,63131,1,2,0:0:0:0:
40,200,63245,5,2,0:0:0:0:
248,200,63588,2,0,L|360:200,1,93.3333333333333,2|0,0:0|0:0,0:0:0:0:
408,200,63931,1,2,0:0:0:0:
280,200,64160,2,0,L|216:200,2,46.6666666666667,2|2|2,0:0|0:0|0:0,0:0:0:0:
344,200,64503,1,2,0:0:0:0:
472,200,64617,5,2,0:0:0:0:
288,200,64960,2,0,L|384:200,1,93.3333333333333,2|0,0:0|0:0,0:0:0:0:
320,200,65302,1,2,0:0:0:0:
152,200,65474,1,2,0:0:0:0:
120,200,65531,2,0,L|56:200,2,46.6666666666667,0|2|2,0:0|0:0|0:0,0:0:0:0:
432,200,65988,5,2,0:0:0:0:
151,191,66560,1,0,0:0:0:0:
95,191,66674,1,2,0:0:0:0:
374,191,67245,1,0,0:0:0:0:
429,191,67359,5,2,0:0:0:0:
256,192,67931,1,0,0:0:0:0:
256,192,68045,1,2,0:0:0:0:
32,192,68617,1,0,0:0:0:0:
96,192,68731,6,0,L|224:264,1,140,2|2,0:0|0:0,0:0:0:0:
496,192,69417,2,0,L|368:128,1,140,2|2,0:0|0:0,0:0:0:0:
256,168,70102,5,2,0:0:0:0:
192,168,70217,1,2,0:0:0:0:
256,168,70331,1,2,0:0:0:0:
360,168,70445,1,2,0:0:0:0:
424,168,70559,1,2,0:0:0:0:
488,168,70674,1,2,0:0:0:0:
360,176,70788,5,2,0:0:0:0:
296,176,70902,1,2,0:0:0:0:
360,176,71017,1,2,0:0:0:0:
488,64,71131,1,2,0:0:0:0:
80,280,71474,5,6,0:0:0:0:
24,248,71588,1,0,0:0:0:0:
24,184,71702,1,0,0:0:0:0:
80,160,71817,1,8,0:0:0:0:
232,160,72045,1,2,0:0:0:0:
344,160,72160,2,0,P|416:160|456:96,1,140,2|8,0:0|0:0,0:0:0:0:
264,168,72845,6,0,L|358:168,1,93.3333333333333,2|0,0:0|0:0,0:0:0:0:
424,168,73188,1,8,0:0:0:0:
296,168,73417,1,2,0:0:0:0:
152,168,73531,2,0,P|144:232|216:272,1,140,2|8,0:0|0:0,0:0:0:0:
400,280,74217,5,2,0:0:0:0:
456,248,74331,1,0,0:0:0:0:
456,184,74445,1,0,0:0:0:0:
400,160,74560,1,8,0:0:0:0:
272,160,74788,1,2,0:0:0:0:
152,160,74902,2,0,L|8:160,1,140,2|8,0:0|0:0,0:0:0:0:
208,168,75588,6,0,L|114:168,1,93.3333333333333,2|0,0:0|0:0,0:0:0:0:
48,168,75931,1,8,0:0:0:0:
176,168,76160,1,2,0:0:0:0:
336,168,76274,2,0,P|342:234|287:272,1,140,2|8,0:0|0:0,0:0:0:0:
88,280,76960,5,2,0:0:0:0:
24,256,77074,1,0,0:0:0:0:
24,192,77188,1,0,0:0:0:0:
88,168,77302,1,8,0:0:0:0:
216,168,77531,1,2,0:0:0:0:
352,168,77645,2,0,L|496:168,1,140,2|8,0:0|0:0,0:0:0:0:
176,176,78331,6,0,L|72:176,1,93.3333333333333,2|0,0:0|0:0,0:0:0:0:
152,176,78674,2,0,L|248:176,1,93.3333333333333,8|2,0:0|0:0,0:0:0:0:
400,176,79017,2,0,P|424:216|344:232,1,140,2|8,0:0|0:0,0:0:0:0:
176,200,79702,5,2,0:0:0:0:
112,216,79817,1,0,0:0:0:0:
112,280,79931,1,0,0:0:0:0:
176,296,80045,1,8,0:0:0:0:
304,296,80274,1,2,0:0:0:0:
424,200,80388,2,0,P|448:224|408:320,1,140,2|8,0:0|0:0,0:0:0:0:
80,296,81074,6,0,L|170:273,1,93.3333333333333,2|0,0:0|0:0,0:0:0:0:
216,256,81417,2,0,L|320:232,1,93.3333333333333,8|2,0:0|0:0,0:0:0:0:
160,216,81760,2,0,L|24:184,1,140,2|8,0:0|0:0,0:0:0:0:
440,168,82445,5,6,0:0:0:0:
504,192,82560,1,0,0:0:0:0:
504,256,82674,1,0,0:0:0:0:
440,272,82788,1,8,0:0:0:0:
312,272,83017,1,2,0:0:0:0:
192,272,83131,2,0,L|40:272,1,140,2|8,0:0|0:0,0:0:0:0:
256,272,83817,5,2,0:0:0:0:
368,272,84045,1,0,0:0:0:0:
432,272,84160,1,8,0:0:0:0:
304,272,84388,1,2,0:0:0:0:
160,280,84502,2,0,P|72:256|40:200,1,140,2|8,0:0|0:0,0:0:0:0:
256,184,85188,5,2,0:0:0:0:
312,208,85302,1,0,0:0:0:0:
312,272,85417,1,0,0:0:0:0:
256,304,85531,1,8,0:0:0:0:
128,304,85760,1,2,0:0:0:0:
256,304,85874,2,0,L|400:304,1,140,2|8,0:0|0:0,0:0:0:0:
200,296,86560,6,0,L|107:296,1,93.3333333333333,2|0,0:0|0:0,0:0:0:0:
40,296,86902,2,0,L|134:296,1,93.3333333333333,8|2,0:0|0:0,0:0:0:0:
296,304,87245,2,0,P|344:272|384:200,1,140,2|8,0:0|0:0,0:0:0:0:
184,192,87931,5,2,0:0:0:0:
120,208,88045,1,0,0:0:0:0:
120,272,88160,1,0,0:0:0:0:
184,288,88274,1,8,0:0:0:0:
312,296,88502,1,2,0:0:0:0:
184,296,88617,2,0,P|104:280|64:240,1,140,2|8,0:0|0:0,0:0:0:0:
360,272,89302,6,0,L|472:272,1,93.3333333333333,2|0,0:0|0:0,0:0:0:0:
384,280,89645,2,0,L|280:280,1,93.3333333333333,8|2,0:0|0:0,0:0:0:0:
144,280,89988,2,0,P|72:280|144:280,1,140,2|8,0:0|0:0,0:0:0:0:
384,224,90674,5,2,0:0:0:0:
448,224,90788,1,0,0:0:0:0:
384,224,90902,1,0,0:0:0:0:
320,224,91017,2,0,P|256:184|272:120,1,140,0|0,0:0|0:0,0:0:0:0:
392,136,91588,1,0,0:0:0:0:
456,136,91702,1,0,0:0:0:0:
256,144,92045,6,0,L|104:144,1,140,2|0,0:0|0:0,0:0:0:0:
248,144,92617,1,2,0:0:0:0:
338,142,92788,1,2,0:0:0:0:
480,144,93074,1,2,0:0:0:0:
32,232,93417,6,0,P|24:176|104:128,1,140,6|8,0:0|0:0,0:0:0:0:
216,128,93988,1,2,0:0:0:0:
352,128,94102,2,0,L|504:128,2,140,2|8|2,0:0|0:0|0:0,0:0:0:0:
96,128,95131,5,8,0:0:0:0:
256,128,95302,2,0,L|344:128,1,70,0|2,0:0|0:0,0:0:0:0:
72,128,95817,1,8,0:0:0:0:
480,232,96160,6,0,P|488:176|408:128,1,140,2|8,0:0|0:0,0:0:0:0:
296,128,96731,1,2,0:0:0:0:
160,128,96845,2,0,L|8:128,2,140,2|8|2,0:0|0:0|0:0,0:0:0:0:
456,128,97874,5,8,0:0:0:0:
296,128,98045,2,0,L|208:128,1,70,0|2,0:0|0:0,0:0:0:0:
480,128,98560,1,8,0:0:0:0:
72,128,98902,6,0,P|24:168|64:224,1,140,2|8,0:0|0:0,0:0:0:0:
192,224,99474,1,2,0:0:0:0:
336,224,99588,2,0,L|488:224,1,140,2|8,0:0|0:0,0:0:0:0:
232,224,100274,6,0,L|392:224,1,140,2|8,0:0|0:0,0:0:0:0:
80,224,100960,2,0,L|16:224,2,46.6666666666667,2|0|0,0:0|0:0|0:0,0:0:0:0:
144,224,101302,1,8,0:0:0:0:
456,216,101645,6,0,P|472:160|400:136,1,140,2|8,0:0|0:0,0:0:0:0:
280,128,102217,1,2,0:0:0:0:
128,128,102331,2,0,L|64:128,2,46.6666666666667,2|0|0,0:0|0:0|0:0,0:0:0:0:
192,128,102674,1,8,0:0:0:0:
480,128,103017,5,2,0:0:0:0:
472,192,103131,1,0,0:0:0:0:
432,240,103245,1,0,0:0:0:0:
368,248,103360,1,8,0:0:0:0:
232,272,103588,1,2,0:0:0:0:
168,272,103702,2,0,L|16:272,1,140,2|8,0:0|0:0,0:0:0:0:
448,264,104388,5,6,0:0:0:0:
256,264,104731,2,0,L|408:264,1,140,8|2,0:0|0:0,0:0:0:0:
104,264,105417,2,0,L|40:264,2,46.6666666666667,8|0|0,0:0|0:0|0:0,0:0:0:0:
224,264,105760,5,2,0:0:0:0:
432,264,106102,2,0,L|280:264,1,140,8|2,0:0|0:0,0:0:0:0:
496,264,106788,1,8,0:0:0:0:
432,264,106902,1,0,0:0:0:0:
368,264,107017,1,0,0:0:0:0:
232,264,107131,5,2,0:0:0:0:
32,264,107474,2,0,L|176:264,1,140,8|2,0:0|0:0,0:0:0:0:
424,264,108160,2,0,L|470:264,2,46.6666666666667,8|0|0,0:0|0:0|0:0,0:0:0:0:
288,264,108502,5,2,0:0:0:0:
408,272,108845,2,0,L|264:272,1,140,8|2,0:0|0:0,0:0:0:0:
40,264,109531,1,8,0:0:0:0:
104,264,109645,1,0,0:0:0:0:
168,264,109760,1,0,0:0:0:0:
296,264,109874,6,0,L|440:264,2,140,2|8|2,0:0|0:0|0:0,0:0:0:0:
96,264,110902,1,8,0:0:0:0:
32,264,111017,1,0,0:0:0:0:
96,264,111131,1,0,0:0:0:0:
232,264,111245,6,0,L|376:264,1,140,2|8,0:0|0:0,0:0:0:0:
304,256,111817,1,0,0:0:0:0:
176,256,111931,2,0,L|24:256,1,140,2|8,0:0|0:0,0:0:0:0:
168,256,112502,1,0,0:0:0:0:
232,256,112617,6,0,L|344:256,1,93.3333333333333,2|0,0:0|0:0,0:0:0:0:
256,256,112960,2,0,L|152:256,1,93.3333333333333,8|0,0:0|0:0,0:0:0:0:
96,248,113302,2,0,P|48:264|104:288,1,140,2|8,0:0|0:0,0:0:0:0:
232,304,113874,1,0,0:0:0:0:
376,296,113988,5,2,0:0:0:0:
440,288,114102,1,2,0:0:0:0:
480,240,114217,1,2,0:0:0:0:
480,176,114331,1,8,0:0:0:0:
448,120,114445,1,2,0:0:0:0:
384,104,114560,1,2,0:0:0:0:
256,104,114674,2,0,L|104:112,1,140,8|8,0:0|0:0,0:0:0:0:
248,104,115245,1,0,0:0:0:0:
376,104,115360,5,2,0:0:0:0:
440,104,115474,1,0,0:0:0:0:
376,104,115588,1,0,0:0:0:0:
192,80,115931,1,2,0:0:0:0:
256,80,116045,2,0,L|408:80,1,140,2|2,0:0|0:0,0:0:0:0:
256,192,116731,5,2,0:0:0:0:
256,192,116960,1,2,0:0:0:0:
416,200,117302,1,2,0:0:0:0:
352,200,117417,2,0,P|452:200|496:168,1,140,2|2,0:0|0:0,0:0:0:0:
64,136,118102,5,6,0:0:0:0:
8,176,118217,1,0,0:0:0:0:
24,240,118331,1,0,0:0:0:0:
88,240,118445,1,8,0:0:0:0:
296,240,118674,1,2,0:0:0:0:
164,240,118788,2,0,L|20:240,1,140,2|8,0:0|0:0,0:0:0:0:
288,248,119474,6,0,L|400:248,1,93.3333333333333,2|0,0:0|0:0,0:0:0:0:
448,248,119817,1,8,0:0:0:0:
320,248,120045,1,2,0:0:0:0:
168,248,120160,2,0,P|152:192|216:144,1,140,2|8,0:0|0:0,0:0:0:0:
448,136,120845,5,2,0:0:0:0:
504,176,120960,1,0,0:0:0:0:
488,240,121074,1,0,0:0:0:0:
424,240,121188,1,8,0:0:0:0:
304,240,121417,1,2,0:0:0:0:
160,240,121531,1,2,0:0:0:0:
144,176,121645,1,0,0:0:0:0:
176,120,121760,1,0,0:0:0:0:
240,112,121874,1,8,0:0:0:0:
408,240,122217,5,2,0:0:0:0:
472,216,122331,1,0,0:0:0:0:
456,152,122445,1,0,0:0:0:0:
400,120,122560,1,8,0:0:0:0:
264,120,122788,1,2,0:0:0:0:
112,112,122902,2,0,L|56:112,2,46.6666666666667,2|0|0,0:0|0:0|0:0,0:0:0:0:
176,112,123245,1,8,0:0:0:0:
408,240,123588,5,2,0:0:0:0:
472,216,123702,1,0,0:0:0:0:
472,152,123817,1,0,0:0:0:0:
408,128,123931,1,8,0:0:0:0:
280,120,124160,1,2,0:0:0:0:
128,128,124274,2,0,P|128:200|192:224,1,140,2|8,0:0|0:0,0:0:0:0:
480,280,124960,6,0,L|384:256,1,93.3333333333333,2|0,0:0|0:0,0:0:0:0:
328,248,125303,2,0,L|224:224,1,93.3333333333333,8|2,0:0|0:0,0:0:0:0:
392,224,125646,2,0,P|464:208|488:152,1,140,2|8,0:0|0:0,0:0:0:0:
72,168,126331,5,6,0:0:0:0:
8,192,126446,1,0,0:0:0:0:
8,256,126560,1,0,0:0:0:0:
72,272,126674,1,8,0:0:0:0:
200,272,126902,1,2,0:0:0:0:
352,272,127017,2,0,L|496:272,1,140,2|8,0:0|0:0,0:0:0:0:
264,272,127702,6,0,L|160:272,1,93.3333333333333,2|0,0:0|0:0,0:0:0:0:
104,272,128045,1,8,0:0:0:0:
232,272,128274,1,2,0:0:0:0:
376,280,128388,2,0,P|424:256|368:208,1,140,2|8,0:0|0:0,0:0:0:0:
184,232,129074,5,2,0:0:0:0:
128,200,129188,1,0,0:0:0:0:
128,136,129302,1,0,0:0:0:0:
184,112,129417,1,8,0:0:0:0:
312,112,129645,1,2,0:0:0:0:
168,112,129760,2,0,L|24:112,1,140,2|8,0:0|0:0,0:0:0:0:
280,112,130445,6,0,L|384:112,1,93.3333333333333,2|0,0:0|0:0,0:0:0:0:
440,112,130788,1,8,0:0:0:0:
312,112,131017,1,2,0:0:0:0:
176,112,131131,2,0,P|136:136|200:160,1,140,2|8,0:0|0:0,0:0:0:0:
392,168,131817,5,2,0:0:0:0:
456,192,131931,1,0,0:0:0:0:
456,256,132045,1,0,0:0:0:0:
400,272,132160,1,8,0:0:0:0:
264,272,132388,1,2,0:0:0:0:
128,272,132502,2,0,P|56:248|40:176,1,140,2|8,0:0|0:0,0:0:0:0:
304,168,133188,6,0,L|192:168,1,93.3333333333333,2|0,0:0|0:0,0:0:0:0:
144,168,133531,2,0,L|248:168,1,93.3333333333333,8|2,0:0|0:0,0:0:0:0:
384,168,133874,2,0,P|440:168|464:40,1,210.000008010865,2|8,0:0|0:0,0:0:0:0:
32,96,134560,5,2,0:0:0:0:
56,152,134674,1,0,0:0:0:0:
112,160,134788,1,0,0:0:0:0:
183,164,134902,2,0,P|102:133|111:69,1,163.333333333333,2|2,0:0|0:0,0:0:0:0:
204,84,135474,1,0,0:0:0:0:
259,87,135588,1,2,0:0:0:0:
370,99,135817,1,0,0:0:0:0:
314,99,135931,6,0,L|156:96,1,140,2|0,0:0|0:0,0:0:0:0:
259,87,136502,1,2,0:0:0:0:
315,87,136617,1,0,0:0:0:0:
86,173,136845,1,0,0:0:0:0:
29,172,136960,1,2,0:0:0:0:
61,126,137074,1,0,0:0:0:0:
356,274,137302,6,0,P|460:213|272:46,1,466.666666666667,6|0,0:0|0:0,0:0:0:0:
200,72,138674,6,0,P|152:192|432:160,2,560,2|0|0,0:0|0:0|0:0,0:0:0:0:
304,96,141674,1,0,0:0:0:0:
352,96,141760,6,0,P|380:206|256:200,1,262.5,2|0,0:0|0:0,0:0:0:0:
256,192,142788,12,0,144845,0:0:0:0:
