osu file format v14

[General]
AudioFilename: audio.mp3
AudioLeadIn: 0
PreviewTime: 71474
Countdown: 0
SampleSet: Soft
StackLeniency: 0.7
Mode: 2
LetterboxInBreaks: 0
EpilepsyWarning: 1
WidescreenStoryboard: 1

[Editor]
DistanceSpacing: 1.3
BeatDivisor: 6
GridSize: 8
TimelineZoom: 1.9

[Metadata]
Title:Crescendo (feat. MYLK)
TitleUnicode:Crescendo (feat. MYLK)
Artist:Muzzy
ArtistUnicode:Muzzy
Creator:WildOne94
Version:Cup
Source:
Tags:monstercat kurokami DnB d&b Drum and Bass
BeatmapID:1121402
BeatmapSetID:526032

[Difficulty]
HPDrainRate:3
CircleSize:2
OverallDifficulty:5.5
ApproachRate:5.5
SliderMultiplier:1
SliderTickRate:1

[Events]
//Background and Video events
0,0,"Muzzy Wallpaper Resize.jpg",0,0
Video,-89,"Muzzy Crescendo Osu Video.mp4"
//Break Periods
//Storyboard Layer 0 (Background)
//Storyboard Layer 1 (Fail)
//Storyboard Layer 2 (Pass)
//Storyboard Layer 3 (Foreground)
//Storyboard Sound Samples

[TimingPoints]
160,342.857142857143,4,2,1,80,1,0
49531,-100,4,2,0,80,0,0
60045,-100,4,2,1,90,0,0
60845,-100,4,2,0,80,0,0
61417,-100,4,2,1,90,0,0
62217,-100,4,2,0,80,0,0
62731,-100,4,2,1,90,0,0
63588,-100,4,2,0,80,0,0
64160,-100,4,2,1,90,0,0
64960,-100,4,2,0,80,0,0
65360,-100,4,2,1,90,0,0
71474,-100,4,2,1,90,0,1
90674,-100,4,2,1,90,0,0
91017,-100,4,2,0,80,0,0
93417,-100,4,2,1,90,0,1
104388,-100,4,2,1,90,0,0
115931,-100,4,2,0,80,0,0
117588,-100,4,2,1,90,0,0
118102,-100,4,2,1,90,0,1
134560,-100,4,2,1,90,0,0
134902,-100,4,2,0,80,0,0
136788,-100,4,2,1,90,0,0
137302,-100,4,2,0,80,0,0
137388,-100,4,2,0,60,0,0
142788,-100,4,2,0,30,0,0
143474,-100,4,2,0,20,0,0
144160,-100,4,2,0,10,0,0
144845,-100,4,2,1,5,0,0

[Colours]
Combo1 : 220,22,22
Combo2 : 95,95,95
Combo3 : 234,113,32
Combo4 : 223,223,223
Combo5 : 255,192,0

[HitObjects]
256,192,160,12,0,4960,0:0:0:0:
256,192,5302,5,2,0:0:0:0:
112,192,5645,6,0,L|224:192,1,100,6|0,0:0|0:0,0:0:0:0:
312,192,6331,2,0,L|424:192,1,100,8|2,0:0|0:0,0:0:0:0:
256,192,7017,6,0,L|144:192,2,100,2|0|8,0:0|0:0|0:0,0:0:0:0:
384,192,8045,1,2,0:0:0:0:
256,192,8388,6,0,L|144:192,1,100,2|0,0:0|0:0,0:0:0:0:
288,192,9074,1,8,0:0:0:0:
416,192,9417,1,2,0:0:0:0:
288,192,9760,6,0,L|176:192,1,100,2|0,0:0|0:0,0:0:0:0:
352,192,10445,2,0,L|402:192,2,50,8|0|8,0:0|0:0|0:0,0:0:0:0:
256,192,11131,6,0,P|186:179|161:111,2,150,2|2|2,0:0|0:0|0:0,0:0:0:0:
384,192,12502,5,2,0:0:0:0:
192,192,13017,1,2,0:0:0:0:
128,192,13188,2,0,L|232:192,1,100,8|8,0:0|0:0,0:0:0:0:
348,192,13874,6,0,L|240:193,1,100,10|0,0:0|0:0,0:0:0:0:
368,194,14560,2,0,B|473:193|354:195,1,100,2|0,0:0|0:0,0:0:0:0:
256,192,15245,6,0,L|144:192,1,100,2|2,0:0|0:0,0:0:0:0:
24,192,15931,2,0,L|128:192,1,100,2|2,0:0|0:0,0:0:0:0:
256,192,16617,6,0,L|368:192,2,100,6|0|8,0:0|0:0|0:0,0:0:0:0:
128,192,17645,1,2,0:0:0:0:
256,192,17988,6,0,L|360:192,1,100,2|0,0:0|0:0,0:0:0:0:
224,192,18674,2,0,L|336:192,1,100,8|2,0:0|0:0,0:0:0:0:
456,192,19360,5,2,0:0:0:0:
328,192,19702,1,0,0:0:0:0:
200,192,20045,2,0,L|88:192,1,100,8|2,0:0|0:0,0:0:0:0:
168,192,20560,1,0,0:0:0:0:
232,192,20731,6,0,L|344:192,1,100,2|0,0:0|0:0,0:0:0:0:
200,200,21417,2,0,L|136:200,2,50,8|0|8,0:0|0:0|0:0,0:0:0:0:
344,200,22102,6,0,P|424:192|472:144,2,150,2|2|2,0:0|0:0|0:0,0:0:0:0:
216,200,23474,5,2,0:0:0:0:
24,200,23988,1,2,0:0:0:0:
88,200,24160,2,0,L|200:200,1,100,8|8,0:0|0:0,0:0:0:0:
320,200,24845,6,0,L|432:200,1,100,10|0,0:0|0:0,0:0:0:0:
288,200,25531,2,0,L|176:200,1,100,2|0,0:0|0:0,0:0:0:0:
56,200,26217,5,2,0:0:0:0:
184,200,26560,1,0,0:0:0:0:
312,200,26902,2,0,L|208:200,1,100,2|8,0:0|0:0,0:0:0:0:
280,200,27417,1,8,0:0:0:0:
344,200,27588,5,6,0:0:0:0:
216,200,27931,2,0,L|104:200,2,100,8|2|8,0:0|0:0|0:0,0:0:0:0:
344,200,28960,6,0,L|456:200,1,100,2|8,0:0|0:0,0:0:0:0:
312,200,29645,1,2,0:0:0:0:
440,200,29988,1,8,0:0:0:0:
312,192,30331,6,0,L|208:192,2,100,2|8|2,0:0|0:0|0:0,0:0:0:0:
184,192,31360,1,8,0:0:0:0:
56,192,31702,6,0,L|168:192,1,100,2|8,0:0|0:0,0:0:0:0:
288,192,32388,2,0,L|400:192,1,100,2|8,0:0|0:0,0:0:0:0:
256,192,33074,6,0,L|96:192,2,150,2|2|2,0:0|0:0|0:0,0:0:0:0:
384,192,34445,6,0,L|272:192,1,100,2|0,0:0|0:0,0:0:0:0:
168,192,35131,2,0,L|272:192,1,100,8|8,0:0|0:0,0:0:0:0:
336,192,35645,1,0,0:0:0:0:
272,192,35817,5,10,0:0:0:0:
144,192,36160,2,0,L|44:192,2,100,8|2|8,0:0|0:0|0:0,0:0:0:0:
256,192,37188,6,0,L|360:192,1,100,2|8,0:0|0:0,0:0:0:0:
224,192,37874,1,2,0:0:0:0:
96,192,38217,1,8,0:0:0:0:
256,192,38560,6,0,L|368:192,2,100,6|8|2,0:0|0:0|0:0,0:0:0:0:
384,192,39588,1,8,0:0:0:0:
256,192,39931,6,0,L|152:192,1,100,2|8,0:0|0:0,0:0:0:0:
24,192,40617,2,0,L|136:192,1,100,2|8,0:0|0:0,0:0:0:0:
256,192,41302,6,0,L|360:192,2,100,2|8|2,0:0|0:0|0:0,0:0:0:0:
128,200,42331,1,0,0:0:0:0:
256,200,42674,6,0,L|144:200,1,100,2|8,0:0|0:0,0:0:0:0:
288,200,43360,2,0,L|400:200,1,100,2|8,0:0|0:0,0:0:0:0:
256,200,44045,5,2,0:0:0:0:
384,200,44388,1,8,0:0:0:0:
256,200,44731,1,2,0:0:0:0:
128,200,45074,1,8,0:0:0:0:
256,200,45417,6,0,L|144:200,1,100,2|8,0:0|0:0,0:0:0:0:
24,200,46102,1,2,0:0:0:0:
152,200,46445,1,8,0:0:0:0:
216,200,46617,1,0,0:0:0:0:
280,200,46788,6,0,L|392:200,2,100,2|8|2,0:0|0:0|0:0,0:0:0:0:
136,200,47817,1,8,0:0:0:0:
264,200,48160,6,0,L|368:200,1,100,2|8,0:0|0:0,0:0:0:0:
496,200,48845,2,0,L|384:200,1,100,2|8,0:0|0:0,0:0:0:0:
256,192,49531,5,6,0:0:0:0:
384,192,49874,2,0,P|445:229|408:336,1,200,2|2,0:0|0:0,0:0:0:0:
288,264,50902,6,0,L|176:264,1,100,0|0,0:0|0:0,0:0:0:0:
320,264,51631,1,2,0:0:0:0:
464,264,51931,1,2,0:0:0:0:
320,264,52274,5,6,0:0:0:0:
192,264,52617,2,0,P|120:264|48:368,1,200,2|2,0:0|0:0,0:0:0:0:
192,336,53645,6,0,L|304:336,1,100,0|0,0:0|0:0,0:0:0:0:
160,336,54374,1,2,0:0:0:0:
24,328,54674,1,2,0:0:0:0:
160,336,55017,5,6,0:0:0:0:
256,328,55360,2,0,L|456:328,1,200,2|2,0:0|0:0,0:0:0:0:
328,328,56388,6,0,L|224:328,1,100,0|0,0:0|0:0,0:0:0:0:
80,328,57117,1,2,0:0:0:0:
224,328,57417,1,2,0:0:0:0:
368,328,57760,5,6,0:0:0:0:
216,328,58102,1,2,0:0:0:0:
96,328,58445,1,0,0:0:0:0:
216,328,58788,1,2,0:0:0:0:
336,328,59131,6,0,L|448:328,2,100,0|0|2,0:0|0:0|0:0,0:0:0:0:
216,328,60160,1,2,0:0:0:0:
336,328,60502,5,6,0:0:0:0:
216,328,60845,2,0,L|104:328,1,100,2|2,0:0|0:0,0:0:0:0:
240,328,61531,1,2,0:0:0:0:
360,328,61874,5,2,0:0:0:0:
260,328,62217,2,0,L|372:328,1,100,2|2,0:0|0:0,0:0:0:0:
480,328,62902,1,2,0:0:0:0:
360,328,63245,5,2,0:0:0:0:
480,328,63588,2,0,L|380:328,1,100,2|2,0:0|0:0,0:0:0:0:
256,328,64274,1,2,0:0:0:0:
136,328,64617,5,2,0:0:0:0:
256,328,64960,2,0,L|360:328,2,100,2|2|2,0:0|0:0|0:0,0:0:0:0:
136,328,65988,5,2,0:0:0:0:
336,328,66674,1,2,0:0:0:0:
120,328,67360,1,2,0:0:0:0:
400,328,68045,1,2,0:0:0:0:
256,320,68731,6,0,L|360:320,2,100,2|2|2,0:0|0:0|0:0,0:0:0:0:
128,320,69760,1,2,0:0:0:0:
256,320,70102,5,2,0:0:0:0:
344,320,70331,1,2,0:0:0:0:
384,320,70445,1,2,0:0:0:0:
256,320,70788,1,2,0:0:0:0:
168,320,71017,1,2,0:0:0:0:
128,320,71131,1,2,0:0:0:0:
296,328,71474,6,0,L|416:328,1,100,6|8,0:0|0:0,0:0:0:0:
264,336,72160,2,0,L|136:336,1,100,2|8,0:0|0:0,0:0:0:0:
312,328,72845,6,0,L|432:328,1,100,2|8,0:0|0:0,0:0:0:0:
304,328,73417,1,2,0:0:0:0:
264,328,73531,2,0,P|232:296|272:272,1,100,2|8,0:0|0:0,0:0:0:0:
384,264,74217,6,0,L|484:264,1,100,2|8,0:0|0:0,0:0:0:0:
352,272,74902,1,2,0:0:0:0:
228,272,75245,1,8,0:0:0:0:
96,272,75588,6,0,L|200:272,1,100,2|8,0:0|0:0,0:0:0:0:
296,272,76160,1,2,0:0:0:0:
336,272,76274,2,0,P|376:256|344:224,1,100,2|8,0:0|0:0,0:0:0:0:
208,192,76960,6,0,L|328:192,1,100,2|8,0:0|0:0,0:0:0:0:
176,192,77645,2,0,L|76:192,1,100,2|8,0:0|0:0,0:0:0:0:
208,192,78331,6,0,L|320:192,1,100,2|8,0:0|0:0,0:0:0:0:
392,192,78902,1,2,0:0:0:0:
432,192,79017,2,0,P|480:192|416:192,1,100,2|8,0:0|0:0,0:0:0:0:
296,192,79702,6,0,L|408:192,1,100,2|8,0:0|0:0,0:0:0:0:
264,192,80388,2,0,P|211:190|264:192,1,100,2|8,0:0|0:0,0:0:0:0:
408,200,81074,5,2,0:0:0:0:
280,200,81417,1,8,0:0:0:0:
432,200,81760,1,2,0:0:0:0:
304,200,82102,1,8,0:0:0:0:
144,200,82445,6,0,L|40:200,1,100,6|8,0:0|0:0,0:0:0:0:
192,200,83131,1,2,0:0:0:0:
328,200,83474,1,8,0:0:0:0:
200,200,83817,6,0,L|88:200,1,100,2|8,0:0|0:0,0:0:0:0:
176,200,84388,1,2,0:0:0:0:
216,200,84502,2,0,P|248:176|216:128,1,100,2|8,0:0|0:0,0:0:0:0:
336,200,85188,5,2,0:0:0:0:
208,200,85531,1,8,0:0:0:0:
336,200,85874,2,0,L|440:200,1,100,2|8,0:0|0:0,0:0:0:0:
304,200,86560,6,0,L|204:200,1,100,2|8,0:0|0:0,0:0:0:0:
120,208,87131,1,2,0:0:0:0:
80,208,87245,2,0,P|64:200|72:128,1,100,2|8,0:0|0:0,0:0:0:0:
224,144,87931,5,2,0:0:0:0:
96,144,88274,1,8,0:0:0:0:
256,144,88617,2,0,L|384:144,1,100,2|8,0:0|0:0,0:0:0:0:
208,144,89302,6,0,L|96:144,1,100,2|8,0:0|0:0,0:0:0:0:
232,144,89874,1,2,0:0:0:0:
280,144,89988,2,0,P|320:128|272:96,1,100,2|8,0:0|0:0,0:0:0:0:
160,88,90674,5,2,0:0:0:0:
296,104,91017,2,0,P|344:88|336:40,1,100,0|0,0:0|0:0,0:0:0:0:
256,104,91702,1,0,0:0:0:0:
128,104,92045,6,0,L|296:104,1,166.666666666667,2|2,0:0|0:0,0:0:0:0:
360,104,92788,1,2,0:0:0:0:
256,120,93074,1,2,0:0:0:0:
88,128,93417,6,0,P|48:144|88:160,1,100,6|8,0:0|0:0,0:0:0:0:
208,168,94102,2,0,L|320:168,2,100,2|8|2,0:0|0:0|0:0,0:0:0:0:
72,168,95131,6,0,L|22:168,2,50,8|0|2,0:0|0:0|0:0,0:0:0:0:
200,168,95817,1,8,0:0:0:0:
352,168,96160,6,0,P|392:192|352:224,1,100,2|8,0:0|0:0,0:0:0:0:
256,232,96845,2,0,L|144:232,2,100,2|8|2,0:0|0:0|0:0,0:0:0:0:
368,232,97874,6,0,L|432:232,2,50,8|0|2,0:0|0:0|0:0,0:0:0:0:
240,232,98560,1,8,0:0:0:0:
112,240,98902,6,0,P|72:256|112:272,1,100,2|8,0:0|0:0,0:0:0:0:
256,288,99588,2,0,L|368:288,1,100,2|8,0:0|0:0,0:0:0:0:
224,288,100274,6,0,L|112:288,1,100,2|8,0:0|0:0,0:0:0:0:
256,288,100960,2,0,L|320:288,2,50,2|0|8,0:0|0:0|0:0,0:0:0:0:
124,288,101645,6,0,P|92:280|132:272,1,100,2|8,0:0|0:0,0:0:0:0:
256,256,102331,2,0,L|368:256,1,100,2|8,0:0|0:0,0:0:0:0:
248,256,103017,6,0,L|247:143,1,100,2|8,0:0|0:0,0:0:0:0:
337,122,103588,1,2,0:0:0:0:
293,122,103702,2,0,L|181:122,1,100,2|8,0:0|0:0,0:0:0:0:
360,264,104388,5,6,0:0:0:0:
232,264,104731,2,0,L|128:264,2,100,8|2|8,0:0|0:0|0:0,0:0:0:0:
320,264,105645,1,0,0:0:0:0:
360,264,105760,6,0,L|256:264,1,100,2|8,0:0|0:0,0:0:0:0:
128,264,106445,2,0,L|240:264,1,100,2|8,0:0|0:0,0:0:0:0:
312,264,107017,1,0,0:0:0:0:
352,264,107131,6,0,L|464:264,1,100,2|8,0:0|0:0,0:0:0:0:
320,264,107817,2,0,L|432:264,1,100,2|8,0:0|0:0,0:0:0:0:
336,264,108388,1,0,0:0:0:0:
272,264,108502,6,0,L|160:264,1,100,2|8,0:0|0:0,0:0:0:0:
304,264,109188,2,0,L|192:264,1,100,2|8,0:0|0:0,0:0:0:0:
120,264,109760,1,0,0:0:0:0:
156,264,109874,6,0,L|256:264,2,100,2|8|2,0:0|0:0|0:0,0:0:0:0:
288,264,110902,1,8,0:0:0:0:
156,264,111245,6,0,L|56:264,2,100,2|8|2,0:0|0:0|0:0,0:0:0:0:
56,264,112274,1,8,0:0:0:0:
224,264,112617,6,0,L|336:264,3,100,2|8|2|8,0:0|0:0|0:0|0:0,0:0:0:0:
190,264,113988,5,2,0:0:0:0:
324,264,114331,1,8,0:0:0:0:
192,264,114674,2,0,P|168:224|200:184,1,100,8|8,0:0|0:0,0:0:0:0:
280,184,115245,1,0,0:0:0:0:
320,184,115360,6,0,L|400:184,1,66.6666666666667,2|0,0:0|0:0,0:0:0:0:
256,200,115931,1,2,0:0:0:0:
216,200,116045,2,0,L|104:200,1,100,2|2,0:0|0:0,0:0:0:0:
256,200,116731,6,0,L|256:128,1,66.6666666666667,2|2,0:0|0:0,0:0:0:0:
128,136,117302,1,2,0:0:0:0:
88,136,117417,2,0,L|200:136,1,100,2|2,0:0|0:0,0:0:0:0:
344,136,118102,6,0,L|456:136,1,100,6|8,0:0|0:0,0:0:0:0:
312,136,118788,2,0,L|200:136,1,100,2|8,0:0|0:0,0:0:0:0:
72,136,119474,6,0,L|176:136,1,100,2|8,0:0|0:0,0:0:0:0:
256,136,120045,1,2,0:0:0:0:
296,136,120160,2,0,P|304:112|256:64,1,100,2|8,0:0|0:0,0:0:0:0:
376,136,120845,5,2,0:0:0:0:
504,136,121188,1,8,0:0:0:0:
376,136,121531,2,0,L|272:136,1,100,2|8,0:0|0:0,0:0:0:0:
160,136,122217,6,0,L|56:136,1,100,2|8,0:0|0:0,0:0:0:0:
208,136,122902,2,0,L|312:136,1,100,2|8,0:0|0:0,0:0:0:0:
192,136,123588,6,0,L|88:136,1,100,2|8,0:0|0:0,0:0:0:0:
256,144,124274,2,0,P|296:128|256:120,1,100,2|8,0:0|0:0,0:0:0:0:
112,104,124960,5,2,0:0:0:0:
240,104,125302,1,8,0:0:0:0:
72,104,125645,1,2,0:0:0:0:
200,104,125988,1,8,0:0:0:0:
336,104,126331,6,0,L|448:104,1,100,6|8,0:0|0:0,0:0:0:0:
288,104,127017,2,0,L|176:104,1,100,2|8,0:0|0:0,0:0:0:0:
56,104,127702,6,0,L|156:104,1,100,2|8,0:0|0:0,0:0:0:0:
248,112,128274,1,2,0:0:0:0:
288,112,128388,2,0,P|304:80|256:48,1,100,2|8,0:0|0:0,0:0:0:0:
128,48,129074,5,2,0:0:0:0:
259,47,129417,1,8,0:0:0:0:
392,48,129760,2,0,L|504:48,1,100,2|8,0:0|0:0,0:0:0:0:
360,56,130445,6,0,L|248:56,1,100,2|8,0:0|0:0,0:0:0:0:
184,104,131017,1,2,0:0:0:0:
144,104,131131,2,0,P|112:72|144:40,1,100,2|8,0:0|0:0,0:0:0:0:
272,40,131817,5,2,0:0:0:0:
144,48,132160,1,8,0:0:0:0:
272,48,132502,2,0,L|376:48,1,100,2|8,0:0|0:0,0:0:0:0:
232,64,133188,6,0,L|120:64,1,100,2|8,0:0|0:0,0:0:0:0:
264,64,133760,1,2,0:0:0:0:
304,64,133874,2,0,P|360:64|312:64,1,100,2|8,0:0|0:0,0:0:0:0:
176,64,134560,5,2,0:0:0:0:
304,64,134902,2,0,P|360:64|304:144,1,200,2|2,0:0|0:0,0:0:0:0:
208,64,135931,6,0,P|152:64|208:144,1,200,2|0,0:0|0:0,0:0:0:0:
328,144,136960,1,2,0:0:0:0:
208,160,137302,6,0,P|96:112|224:56,1,333.333333333333,6|0,0:0|0:0,0:0:0:0:
176,120,138674,6,0,P|104:136|200:32,2,400,2|0|0,0:0|0:0|0:0,0:0:0:0:
296,144,141760,6,0,P|272:216|165:221,1,187.5,2|0,0:0|0:0,0:0:0:0:
256,192,142788,12,0,144845,0:0:0:0:
