osu file format v14

[General]
AudioFilename: audio1.mp3
AudioLeadIn: 0
PreviewTime: 93771
Countdown: 1
SampleSet: Normal
StackLeniency: 0.7
Mode: 1
LetterboxInBreaks: 0
WidescreenStoryboard: 0

[Editor]
Bookmarks: 18848,56310,66846,77382,87918,93771,103137,113673,124209,131233,149964,178060,189767,224887,262349
DistanceSpacing: 1.6
BeatDivisor: 4
GridSize: 32
TimelineZoom: 8

[Metadata]
Title:Calling Out (feat. KG & Skyelle) [205 BPM ver.]
TitleUnicode:Calling Out (feat. KG & Skyelle) [205 BPM ver.]
Artist:Muzzy
ArtistUnicode:Muzzy
Creator:Arnon
Version:Oni
Source:
Tags:drum and bass dnb AnarchyMitsukai speed up
BeatmapID:1150902
BeatmapSetID:542988

[Difficulty]
HPDrainRate:6
CircleSize:2
OverallDifficulty:6
ApproachRate:5
SliderMultiplier:1.4
SliderTickRate:1

[Events]
//Background and Video events
0,0,"Konachan.com - 200133 armor blonde_hair dress fate_stay_night fire saber seeker sword weapon.jpg",0,70
//Break Periods
//Storyboard Layer 0 (Background)
//Storyboard Layer 1 (Fail)
//Storyboard Layer 2 (Pass)
//Storyboard Layer 3 (Foreground)
//Storyboard Sound Samples

[TimingPoints]
118,292.682926829268,4,1,0,60,1,0
18848,-100,4,1,0,50,0,0
37579,-100,4,1,0,55,0,0
46944,-100,4,1,0,60,0,0
93703,-95.2380952380952,4,1,0,60,0,0
93776,-90.9090909090909,4,1,0,65,0,1
112795,-86.9565217391304,4,1,0,65,0,1
131239,-86.9565217391304,4,1,0,65,0,0
132410,-100,4,1,0,5,0,0
147622,-100,4,1,0,15,0,0
149964,-100,4,1,0,30,0,0
154939,-100,4,1,0,45,0,0
164012,-100,4,1,0,30,0,0
178060,-100,4,1,0,45,0,0
187133,-100,4,1,0,60,0,0
224825,-95.2380952380952,4,1,0,60,0,0
224898,-90.9090909090909,4,1,0,65,0,1
243910,-86.9565217391304,4,1,0,65,0,1
262361,-86.9565217391304,4,1,0,65,0,0

[HitObjects]
256,192,118,5,0,0:0:0:0:
256,192,410,1,2,0:0:0:0:
256,192,483,1,0,0:0:0:0:
256,192,557,1,0,0:0:0:0:
256,192,849,1,2,0:0:0:0:
256,192,996,1,0,0:0:0:0:
256,192,1288,1,0,0:0:0:0:
256,192,1581,1,0,0:0:0:0:
256,192,1727,1,0,0:0:0:0:
256,192,1874,1,2,0:0:0:0:
256,192,1947,1,2,0:0:0:0:
256,192,2020,1,2,0:0:0:0:
256,192,2166,1,0,0:0:0:0:
256,192,2459,1,2,0:0:0:0:
256,192,2752,1,2,0:0:0:0:
256,192,2898,1,0,0:0:0:0:
256,192,3044,1,0,0:0:0:0:
256,192,3118,1,0,0:0:0:0:
256,192,3191,1,2,0:0:0:0:
256,192,3337,1,2,0:0:0:0:
256,192,3630,1,0,0:0:0:0:
256,192,3922,1,2,0:0:0:0:
256,192,3996,1,0,0:0:0:0:
256,192,4069,1,0,0:0:0:0:
256,192,4215,1,0,0:0:0:0:
256,192,4361,1,0,0:0:0:0:
256,192,4508,1,2,0:0:0:0:
256,192,4800,1,2,0:0:0:0:
256,192,4874,1,0,0:0:0:0:
256,192,4947,1,0,0:0:0:0:
256,192,5093,1,2,0:0:0:0:
256,192,5239,1,0,0:0:0:0:
256,192,5386,1,2,0:0:0:0:
256,192,5532,1,0,0:0:0:0:
256,192,5678,1,2,0:0:0:0:
256,192,5971,1,2,0:0:0:0:
288,192,6264,1,2,0:0:0:0:
256,192,6410,1,0,0:0:0:0:
288,192,6557,1,2,0:0:0:0:
256,192,6703,1,2,0:0:0:0:
256,192,6849,1,0,0:0:0:0:
256,192,7142,1,0,0:0:0:0:
256,192,7435,1,2,0:0:0:0:
256,192,7581,1,0,0:0:0:0:
256,192,7727,1,0,0:0:0:0:
256,192,7874,1,2,0:0:0:0:
256,192,8020,1,2,0:0:0:0:
256,192,8313,1,0,0:0:0:0:
256,192,8605,1,2,0:0:0:0:
256,192,8752,1,0,0:0:0:0:
256,192,9044,1,2,0:0:0:0:
256,192,9191,1,0,0:0:0:0:
256,192,9483,1,0,0:0:0:0:
256,192,9776,1,0,0:0:0:0:
256,192,9922,1,0,0:0:0:0:
256,192,10215,1,2,0:0:0:0:
256,192,10361,1,0,0:0:0:0:
256,192,10654,1,0,0:0:0:0:
256,192,10727,1,0,0:0:0:0:
256,192,10800,1,0,0:0:0:0:
256,192,10947,1,2,0:0:0:0:
256,192,11093,1,2,0:0:0:0:
256,192,11239,1,0,0:0:0:0:
256,192,11313,1,0,0:0:0:0:
256,192,11386,1,0,0:0:0:0:
256,192,11532,1,2,0:0:0:0:
256,192,11825,1,6,0:0:0:0:
256,192,12118,1,2,0:0:0:0:
256,192,12191,1,0,0:0:0:0:
256,192,12264,1,0,0:0:0:0:
256,192,12410,1,2,0:0:0:0:
256,192,12557,1,0,0:0:0:0:
256,192,12630,1,0,0:0:0:0:
256,192,12703,1,2,0:0:0:0:
256,192,12996,1,0,0:0:0:0:
256,192,13142,1,0,0:0:0:0:
256,192,13215,1,0,0:0:0:0:
256,192,13288,1,0,0:0:0:0:
256,192,13435,1,0,0:0:0:0:
288,192,13727,1,0,0:0:0:0:
288,192,13800,1,0,0:0:0:0:
288,192,13874,1,2,0:0:0:0:
288,192,14166,1,2,0:0:0:0:
256,192,14459,1,2,0:0:0:0:
256,192,14605,1,0,0:0:0:0:
256,192,14752,1,0,0:0:0:0:
256,192,14898,1,2,0:0:0:0:
256,192,15044,1,2,0:0:0:0:
256,192,15337,1,0,0:0:0:0:
256,192,15630,1,2,0:0:0:0:
256,192,15776,1,0,0:0:0:0:
256,192,15922,1,0,0:0:0:0:
256,192,16069,1,2,0:0:0:0:
256,192,16215,1,2,0:0:0:0:
256,192,16508,1,0,0:0:0:0:
256,192,16800,1,2,0:0:0:0:
256,192,16947,1,0,0:0:0:0:
256,192,17093,1,0,0:0:0:0:
256,192,17239,1,0,0:0:0:0:
256,192,17386,1,2,0:0:0:0:
256,192,17678,1,0,0:0:0:0:
256,192,17825,1,2,0:0:0:0:
256,192,17971,1,2,0:0:0:0:
256,192,18118,1,2,0:0:0:0:
256,192,18410,1,0,0:0:0:0:
256,192,18557,1,2,0:0:0:0:
256,192,18630,1,0,0:0:0:0:
256,192,18703,1,0,0:0:0:0:
256,192,18776,1,0,0:0:0:0:
256,192,18849,1,2,0:0:0:0:
256,192,18996,1,2,0:0:0:0:
256,192,19288,1,0,0:0:0:0:
256,192,19435,1,2,0:0:0:0:
256,192,19727,1,0,0:0:0:0:
256,192,19874,1,2,0:0:0:0:
256,192,20020,1,0,0:0:0:0:
256,192,20093,1,0,0:0:0:0:
256,192,20166,1,2,0:0:0:0:
256,192,20459,1,0,0:0:0:0:
256,192,20605,1,2,0:0:0:0:
256,192,20898,1,0,0:0:0:0:
256,192,21044,1,2,0:0:0:0:
256,192,21191,1,0,0:0:0:0:
256,192,21264,1,0,0:0:0:0:
256,192,21337,1,2,0:0:0:0:
256,192,21630,1,0,0:0:0:0:
256,192,21776,1,2,0:0:0:0:
256,192,22069,1,0,0:0:0:0:
160,32,22215,1,8,0:0:0:0:
256,192,22361,1,0,0:0:0:0:
256,192,22435,1,0,0:0:0:0:
160,32,22508,1,8,0:0:0:0:
256,192,22654,1,0,0:0:0:0:
256,192,22800,1,0,0:0:0:0:
256,192,22874,1,0,0:0:0:0:
160,32,22947,1,8,0:0:0:0:
256,192,23020,1,0,0:0:0:0:
256,192,23093,1,0,0:0:0:0:
256,192,23239,1,0,0:0:0:0:
160,32,23386,1,8,0:0:0:0:
256,192,23532,1,0,0:0:0:0:
256,192,23605,1,0,0:0:0:0:
160,32,23678,1,8,0:0:0:0:
256,192,23971,1,0,0:0:0:0:
160,32,24118,1,8,0:0:0:0:
256,192,24410,1,0,0:0:0:0:
160,32,24557,1,8,0:0:0:0:
256,192,24703,1,0,0:0:0:0:
256,192,24776,1,0,0:0:0:0:
160,32,24849,1,8,0:0:0:0:
256,192,25142,1,0,0:0:0:0:
160,32,25288,1,8,0:0:0:0:
256,192,25581,1,0,0:0:0:0:
160,32,25727,1,8,0:0:0:0:
256,192,25874,1,0,0:0:0:0:
256,192,25947,1,0,0:0:0:0:
160,32,26020,1,8,0:0:0:0:
256,192,26313,1,0,0:0:0:0:
160,32,26459,1,8,0:0:0:0:
256,192,26752,1,0,0:0:0:0:
160,32,26898,1,8,0:0:0:0:
256,192,27044,1,0,0:0:0:0:
256,192,27118,1,0,0:0:0:0:
160,32,27191,1,8,0:0:0:0:
256,192,27264,1,0,0:0:0:0:
256,192,27337,1,0,0:0:0:0:
288,192,27483,1,0,0:0:0:0:
160,32,27630,1,8,0:0:0:0:
256,192,27776,1,0,0:0:0:0:
256,192,27922,1,0,0:0:0:0:
256,192,27996,1,0,0:0:0:0:
160,32,28069,1,8,0:0:0:0:
256,192,28215,1,0,0:0:0:0:
256,192,28288,1,0,0:0:0:0:
160,32,28361,1,8,0:0:0:0:
256,192,28508,1,2,0:0:0:0:
256,192,28654,1,0,0:0:0:0:
160,32,28800,1,8,0:0:0:0:
256,192,29093,1,0,0:0:0:0:
160,32,29239,1,8,0:0:0:0:
256,192,29386,1,0,0:0:0:0:
256,192,29459,1,0,0:0:0:0:
256,192,29532,1,2,0:0:0:0:
256,192,29825,1,0,0:0:0:0:
160,32,29971,1,8,0:0:0:0:
256,192,30264,1,0,0:0:0:0:
160,32,30410,1,8,0:0:0:0:
256,192,30557,1,0,0:0:0:0:
256,192,30630,1,0,0:0:0:0:
160,32,30703,1,8,0:0:0:0:
256,192,30996,1,0,0:0:0:0:
160,32,31142,1,8,0:0:0:0:
256,192,31435,1,0,0:0:0:0:
160,32,31581,1,8,0:0:0:0:
256,192,31727,1,0,0:0:0:0:
256,192,31800,1,0,0:0:0:0:
160,32,31874,1,8,0:0:0:0:
256,192,31947,1,0,0:0:0:0:
256,192,32020,1,0,0:0:0:0:
256,192,32166,1,0,0:0:0:0:
160,32,32313,1,8,0:0:0:0:
256,192,32605,1,0,0:0:0:0:
160,32,32752,1,8,0:0:0:0:
256,192,32898,1,0,0:0:0:0:
256,192,32971,1,0,0:0:0:0:
160,32,33044,1,8,0:0:0:0:
256,192,33118,1,0,0:0:0:0:
256,192,33191,1,0,0:0:0:0:
256,192,33337,1,0,0:0:0:0:
160,32,33483,1,8,0:0:0:0:
256,192,33776,1,0,0:0:0:0:
160,32,33922,1,8,0:0:0:0:
256,192,34069,1,0,0:0:0:0:
256,192,34142,1,0,0:0:0:0:
160,32,34215,1,8,0:0:0:0:
256,192,34288,1,0,0:0:0:0:
256,192,34361,1,0,0:0:0:0:
256,192,34508,1,0,0:0:0:0:
160,32,34654,1,8,0:0:0:0:
256,192,34947,1,0,0:0:0:0:
160,32,35093,1,8,0:0:0:0:
256,192,35239,1,0,0:0:0:0:
256,192,35313,1,0,0:0:0:0:
160,32,35386,1,8,0:0:0:0:
256,192,35678,1,0,0:0:0:0:
160,32,35825,1,8,0:0:0:0:
256,192,36118,1,0,0:0:0:0:
160,32,36264,1,8,0:0:0:0:
256,192,36410,1,0,0:0:0:0:
256,192,36483,1,0,0:0:0:0:
160,32,36557,1,8,0:0:0:0:
256,192,36630,1,0,0:0:0:0:
256,192,36703,1,0,0:0:0:0:
256,192,36849,1,0,0:0:0:0:
160,32,36996,1,8,0:0:0:0:
256,192,37288,1,0,0:0:0:0:
256,192,37435,1,2,0:0:0:0:
256,192,37581,1,0,0:0:0:0:
256,192,37654,1,0,0:0:0:0:
256,192,37727,1,2,0:0:0:0:
256,192,37874,1,2,0:0:0:0:
256,192,38020,1,0,0:0:0:0:
256,192,38166,1,2,0:0:0:0:
256,192,38313,1,2,0:0:0:0:
256,192,38459,1,0,0:0:0:0:
256,192,38532,1,0,0:0:0:0:
256,192,38605,1,2,0:0:0:0:
256,192,38678,1,0,0:0:0:0:
256,192,38752,1,2,0:0:0:0:
256,192,38898,1,2,0:0:0:0:
256,192,39044,1,0,0:0:0:0:
256,192,39118,1,0,0:0:0:0:
256,192,39191,1,2,0:0:0:0:
256,192,39337,1,2,0:0:0:0:
256,192,39483,1,0,0:0:0:0:
256,192,39557,1,0,0:0:0:0:
256,192,39630,1,2,0:0:0:0:
256,192,39776,1,2,0:0:0:0:
256,192,39922,1,0,0:0:0:0:
256,192,39996,1,0,0:0:0:0:
256,192,40069,1,2,0:0:0:0:
256,192,40215,1,2,0:0:0:0:
256,192,40288,1,0,0:0:0:0:
256,192,40361,1,0,0:0:0:0:
256,192,40508,1,0,0:0:0:0:
256,192,40654,1,2,0:0:0:0:
256,192,40727,1,0,0:0:0:0:
256,192,40800,1,0,0:0:0:0:
256,192,40947,1,0,0:0:0:0:
256,192,41093,1,2,0:0:0:0:
256,192,41166,1,0,0:0:0:0:
256,192,41239,1,2,0:0:0:0:
224,160,41313,1,0,0:0:0:0:
224,160,41386,1,0,0:0:0:0:
256,192,41532,1,2,0:0:0:0:
256,192,41678,1,0,0:0:0:0:
224,160,41752,1,0,0:0:0:0:
256,192,41825,1,0,0:0:0:0:
256,192,41971,1,2,0:0:0:0:
256,192,42118,1,0,0:0:0:0:
224,160,42191,1,0,0:0:0:0:
224,160,42264,1,2,0:0:0:0:
224,160,42337,1,2,0:0:0:0:
256,192,42410,1,2,0:0:0:0:
256,192,42557,1,2,0:0:0:0:
256,192,42703,1,0,0:0:0:0:
256,192,42776,1,0,0:0:0:0:
256,192,42849,1,2,0:0:0:0:
256,192,42996,1,2,0:0:0:0:
256,192,43142,1,0,0:0:0:0:
256,192,43215,1,0,0:0:0:0:
256,192,43288,1,2,0:0:0:0:
256,192,43435,1,2,0:0:0:0:
256,192,43581,1,0,0:0:0:0:
256,192,43654,1,0,0:0:0:0:
256,192,43727,1,0,0:0:0:0:
256,192,43874,1,2,0:0:0:0:
256,192,44020,1,2,0:0:0:0:
256,192,44093,1,0,0:0:0:0:
256,192,44166,1,0,0:0:0:0:
256,192,44313,1,2,0:0:0:0:
256,192,44459,1,2,0:0:0:0:
256,192,44605,1,0,0:0:0:0:
256,192,44678,1,0,0:0:0:0:
256,192,44752,1,2,0:0:0:0:
256,192,44825,1,0,0:0:0:0:
256,192,44898,1,2,0:0:0:0:
256,192,45044,1,0,0:0:0:0:
256,192,45118,1,0,0:0:0:0:
256,192,45191,1,2,0:0:0:0:
256,192,45337,1,2,0:0:0:0:
256,192,45483,1,0,0:0:0:0:
256,192,45630,1,2,0:0:0:0:
256,192,45776,1,2,0:0:0:0:
256,192,45922,1,2,0:0:0:0:
256,192,45996,1,0,0:0:0:0:
256,192,46069,1,0,0:0:0:0:
256,192,46142,1,0,0:0:0:0:
256,192,46215,1,2,0:0:0:0:
256,192,46361,1,2,0:0:0:0:
256,192,46508,1,0,0:0:0:0:
256,192,46654,1,2,0:0:0:0:
256,192,46727,1,0,0:0:0:0:
256,192,46800,1,2,0:0:0:0:
256,192,46874,1,0,0:0:0:0:
256,192,46947,1,0,0:0:0:0:
256,192,47020,1,0,0:0:0:0:
256,192,47093,1,2,0:0:0:0:
256,192,47239,1,2,0:0:0:0:
256,192,47386,1,0,0:0:0:0:
256,192,47459,1,0,0:0:0:0:
256,192,47532,1,2,0:0:0:0:
256,192,47678,1,2,0:0:0:0:
256,192,47825,1,0,0:0:0:0:
256,192,47898,1,0,0:0:0:0:
256,192,47971,1,2,0:0:0:0:
256,192,48118,1,2,0:0:0:0:
256,192,48264,1,0,0:0:0:0:
256,192,48337,1,0,0:0:0:0:
288,192,48410,1,0,0:0:0:0:
256,192,48557,1,2,0:0:0:0:
256,192,48703,1,2,0:0:0:0:
256,192,48776,1,0,0:0:0:0:
256,192,48849,1,0,0:0:0:0:
256,192,48996,1,2,0:0:0:0:
256,192,49069,1,0,0:0:0:0:
256,192,49142,1,2,0:0:0:0:
256,192,49215,1,0,0:0:0:0:
256,192,49288,1,0,0:0:0:0:
256,192,49361,1,0,0:0:0:0:
256,192,49435,1,2,0:0:0:0:
256,192,49581,1,2,0:0:0:0:
256,192,49727,1,0,0:0:0:0:
256,192,49800,1,0,0:0:0:0:
256,192,49874,1,2,0:0:0:0:
256,192,50020,1,2,0:0:0:0:
256,192,50166,1,0,0:0:0:0:
256,192,50239,1,0,0:0:0:0:
256,192,50313,1,2,0:0:0:0:
256,192,50459,1,2,0:0:0:0:
256,192,50532,1,0,0:0:0:0:
256,192,50605,1,2,0:0:0:0:
256,192,50678,1,0,0:0:0:0:
256,192,50752,1,0,0:0:0:0:
256,192,50825,1,0,0:0:0:0:
256,192,50898,1,2,0:0:0:0:
256,192,50971,1,0,0:0:0:0:
256,192,51044,1,2,0:0:0:0:
256,192,51191,1,0,0:0:0:0:
256,192,51337,1,2,0:0:0:0:
256,192,51410,1,0,0:0:0:0:
256,192,51483,1,2,0:0:0:0:
256,192,51557,1,0,0:0:0:0:
256,192,51630,1,0,0:0:0:0:
256,192,51703,1,0,0:0:0:0:
256,192,51776,1,2,0:0:0:0:
256,192,51922,1,0,0:0:0:0:
224,192,52069,1,0,0:0:0:0:
224,192,52142,1,0,0:0:0:0:
256,192,52215,1,2,0:0:0:0:
224,192,52361,1,0,0:0:0:0:
224,192,52508,1,0,0:0:0:0:
224,192,52581,1,0,0:0:0:0:
256,192,52654,1,2,0:0:0:0:
224,192,52727,1,0,0:0:0:0:
224,192,52800,1,0,0:0:0:0:
224,192,52874,1,0,0:0:0:0:
256,192,52947,1,2,0:0:0:0:
256,192,53093,1,2,0:0:0:0:
224,192,53239,1,0,0:0:0:0:
224,192,53313,1,0,0:0:0:0:
256,192,53386,1,2,0:0:0:0:
256,192,53532,1,2,0:0:0:0:
224,192,53678,1,0,0:0:0:0:
224,192,53752,1,0,0:0:0:0:
256,192,53825,1,2,0:0:0:0:
224,192,53898,1,0,0:0:0:0:
224,192,53971,1,0,0:0:0:0:
224,192,54044,1,0,0:0:0:0:
256,192,54118,1,2,0:0:0:0:
224,192,54264,1,0,0:0:0:0:
224,192,54410,1,0,0:0:0:0:
224,192,54483,1,0,0:0:0:0:
256,192,54557,1,2,0:0:0:0:
256,192,54703,1,0,0:0:0:0:
256,192,54849,1,2,0:0:0:0:
256,192,54922,1,2,0:0:0:0:
256,192,54996,1,2,0:0:0:0:
256,192,55069,12,0,55947,0:0:0:0:
256,192,56020,5,4,0:0:0:0:
256,192,56166,1,4,0:0:0:0:
256,192,56313,1,0,0:0:0:0:
256,192,56386,1,0,0:0:0:0:
256,192,56459,1,2,0:0:0:0:
256,192,56605,1,2,0:0:0:0:
256,192,56752,1,0,0:0:0:0:
256,192,56898,1,2,0:0:0:0:
256,192,56971,1,2,0:0:0:0:
256,192,57044,1,0,0:0:0:0:
256,192,57118,1,0,0:0:0:0:
256,192,57191,1,2,0:0:0:0:
256,192,57337,1,2,0:0:0:0:
256,192,57410,1,2,0:0:0:0:
256,192,57483,1,0,0:0:0:0:
256,192,57630,1,0,0:0:0:0:
256,192,57776,1,2,0:0:0:0:
256,192,57922,1,0,0:0:0:0:
256,192,57996,1,0,0:0:0:0:
256,192,58069,1,2,0:0:0:0:
256,192,58215,1,0,0:0:0:0:
256,192,58361,1,2,0:0:0:0:
256,192,58508,1,0,0:0:0:0:
256,192,58654,1,0,0:0:0:0:
256,192,58727,1,0,0:0:0:0:
256,192,58800,1,0,0:0:0:0:
256,192,58947,1,2,0:0:0:0:
256,192,59093,1,0,0:0:0:0:
256,192,59166,1,0,0:0:0:0:
256,192,59239,1,2,0:0:0:0:
256,192,59386,1,0,0:0:0:0:
256,192,59532,1,2,0:0:0:0:
256,192,59605,1,0,0:0:0:0:
256,192,59678,1,0,0:0:0:0:
256,192,59825,1,0,0:0:0:0:
256,192,59898,1,0,0:0:0:0:
256,192,59971,1,2,0:0:0:0:
256,192,60118,1,2,0:0:0:0:
256,192,60264,1,0,0:0:0:0:
256,192,60410,1,2,0:0:0:0:
256,192,60483,1,0,0:0:0:0:
256,192,60557,1,0,0:0:0:0:
256,192,60630,1,0,0:0:0:0:
256,192,60703,1,2,0:0:0:0:
256,192,60776,1,2,0:0:0:0:
256,192,60849,1,0,0:0:0:0:
256,192,60996,1,0,0:0:0:0:
256,192,61069,1,0,0:0:0:0:
256,192,61142,1,2,0:0:0:0:
256,192,61288,1,2,0:0:0:0:
256,192,61361,1,2,0:0:0:0:
256,192,61435,1,0,0:0:0:0:
256,192,61581,1,0,0:0:0:0:
256,192,61727,1,0,0:0:0:0:
256,192,61874,1,2,0:0:0:0:
256,192,62020,1,2,0:0:0:0:
256,192,62166,1,0,0:0:0:0:
256,192,62239,1,0,0:0:0:0:
256,192,62313,1,2,0:0:0:0:
256,192,62386,1,2,0:0:0:0:
256,192,62459,1,2,0:0:0:0:
256,192,62605,1,0,0:0:0:0:
256,192,62678,1,0,0:0:0:0:
256,192,62752,1,2,0:0:0:0:
256,192,62825,1,2,0:0:0:0:
256,192,62898,1,0,0:0:0:0:
256,192,63044,1,2,0:0:0:0:
256,192,63191,1,0,0:0:0:0:
256,192,63337,1,0,0:0:0:0:
256,192,63410,1,0,0:0:0:0:
256,192,63483,1,2,0:0:0:0:
256,192,63630,1,2,0:0:0:0:
256,192,63703,1,0,0:0:0:0:
256,192,63776,1,0,0:0:0:0:
256,192,63849,1,0,0:0:0:0:
256,192,63922,1,2,0:0:0:0:
256,192,64069,1,2,0:0:0:0:
256,192,64215,1,2,0:0:0:0:
256,192,64361,1,2,0:0:0:0:
256,192,64508,1,0,0:0:0:0:
256,192,64581,1,0,0:0:0:0:
256,192,64654,1,2,0:0:0:0:
256,192,64800,1,2,0:0:0:0:
256,192,64874,1,2,0:0:0:0:
256,192,64947,1,0,0:0:0:0:
256,192,65020,1,0,0:0:0:0:
256,192,65093,1,2,0:0:0:0:
256,192,65239,1,0,0:0:0:0:
256,192,65386,1,2,0:0:0:0:
256,192,65532,1,2,0:0:0:0:
256,192,65678,1,0,0:0:0:0:
256,192,65752,1,0,0:0:0:0:
256,192,65825,1,0,0:0:0:0:
256,192,65971,1,2,0:0:0:0:
256,192,66118,1,0,0:0:0:0:
256,192,66264,1,2,0:0:0:0:
256,192,66337,1,2,0:0:0:0:
256,192,66410,1,2,0:0:0:0:
256,192,66483,1,2,0:0:0:0:
256,192,66557,1,2,0:0:0:0:
256,192,66703,1,2,0:0:0:0:
256,192,66849,1,0,0:0:0:0:
256,192,66922,1,0,0:0:0:0:
256,192,66996,1,2,0:0:0:0:
256,192,67142,1,2,0:0:0:0:
256,192,67288,1,0,0:0:0:0:
256,192,67435,1,2,0:0:0:0:
256,192,67508,1,2,0:0:0:0:
256,192,67581,1,0,0:0:0:0:
256,192,67654,1,0,0:0:0:0:
256,192,67727,1,2,0:0:0:0:
256,192,67874,1,2,0:0:0:0:
256,192,67947,1,2,0:0:0:0:
256,192,68020,1,0,0:0:0:0:
256,192,68166,1,0,0:0:0:0:
256,192,68313,1,2,0:0:0:0:
256,192,68459,1,0,0:0:0:0:
256,192,68532,1,0,0:0:0:0:
256,192,68605,1,2,0:0:0:0:
256,192,68752,1,0,0:0:0:0:
256,192,68898,1,2,0:0:0:0:
256,192,69044,1,0,0:0:0:0:
256,192,69191,1,0,0:0:0:0:
256,192,69264,1,0,0:0:0:0:
256,192,69337,1,0,0:0:0:0:
256,192,69483,1,2,0:0:0:0:
256,192,69630,1,0,0:0:0:0:
256,192,69703,1,0,0:0:0:0:
256,192,69776,1,2,0:0:0:0:
256,192,69922,1,0,0:0:0:0:
256,192,70069,1,2,0:0:0:0:
256,192,70142,1,0,0:0:0:0:
256,192,70215,1,0,0:0:0:0:
256,192,70361,1,0,0:0:0:0:
256,192,70435,1,0,0:0:0:0:
256,192,70508,1,2,0:0:0:0:
256,192,70654,1,2,0:0:0:0:
256,192,70800,1,0,0:0:0:0:
256,192,70947,1,2,0:0:0:0:
256,192,71020,1,0,0:0:0:0:
256,192,71093,1,0,0:0:0:0:
256,192,71166,1,0,0:0:0:0:
256,192,71239,1,2,0:0:0:0:
256,192,71313,1,2,0:0:0:0:
256,192,71386,1,0,0:0:0:0:
256,192,71532,1,0,0:0:0:0:
256,192,71605,1,0,0:0:0:0:
256,192,71678,1,2,0:0:0:0:
256,192,71825,1,2,0:0:0:0:
256,192,71898,1,2,0:0:0:0:
256,192,71971,1,0,0:0:0:0:
256,192,72118,1,0,0:0:0:0:
256,192,72264,1,0,0:0:0:0:
256,192,72410,1,2,0:0:0:0:
256,192,72557,1,2,0:0:0:0:
256,192,72703,1,0,0:0:0:0:
256,192,72776,1,0,0:0:0:0:
256,192,72849,1,2,0:0:0:0:
256,192,72996,1,2,0:0:0:0:
256,192,73069,1,0,0:0:0:0:
256,192,73142,1,0,0:0:0:0:
256,192,73215,1,2,0:0:0:0:
256,192,73288,1,2,0:0:0:0:
256,192,73435,1,0,0:0:0:0:
256,192,73581,1,2,0:0:0:0:
256,192,73727,1,0,0:0:0:0:
256,192,73874,1,0,0:0:0:0:
256,192,73947,1,0,0:0:0:0:
256,192,74020,1,2,0:0:0:0:
256,192,74166,1,2,0:0:0:0:
256,192,74239,1,0,0:0:0:0:
256,192,74313,1,0,0:0:0:0:
256,192,74386,1,0,0:0:0:0:
256,192,74459,1,2,0:0:0:0:
256,192,74605,1,2,0:0:0:0:
256,192,74752,1,2,0:0:0:0:
256,192,74898,1,2,0:0:0:0:
256,192,75044,1,0,0:0:0:0:
256,192,75118,1,0,0:0:0:0:
256,192,75191,1,2,0:0:0:0:
256,192,75630,1,2,0:0:0:0:
256,192,75678,1,2,0:0:0:0:
256,192,75727,1,2,0:0:0:0:
256,192,75776,1,0,0:0:0:0:
256,192,75922,1,2,0:0:0:0:
256,192,76069,1,2,0:0:0:0:
256,192,76215,1,0,0:0:0:0:
256,192,76288,1,0,0:0:0:0:
256,192,76361,1,0,0:0:0:0:
256,192,76508,1,2,0:0:0:0:
256,192,76654,1,0,0:0:0:0:
256,192,76800,1,2,0:0:0:0:
256,192,76874,1,0,0:0:0:0:
256,192,76947,1,0,0:0:0:0:
256,192,77020,1,2,0:0:0:0:
256,192,77093,1,2,0:0:0:0:
256,192,77239,1,2,0:0:0:0:
256,192,77386,1,0,0:0:0:0:
256,192,77459,1,0,0:0:0:0:
256,192,77532,1,2,0:0:0:0:
256,192,77678,1,2,0:0:0:0:
256,192,77825,1,0,0:0:0:0:
256,192,77971,1,2,0:0:0:0:
256,192,78044,1,2,0:0:0:0:
256,192,78118,1,0,0:0:0:0:
256,192,78191,1,0,0:0:0:0:
256,192,78264,1,2,0:0:0:0:
256,192,78410,1,2,0:0:0:0:
256,192,78483,1,2,0:0:0:0:
256,192,78557,1,0,0:0:0:0:
256,192,78703,1,0,0:0:0:0:
256,192,78849,1,2,0:0:0:0:
256,192,78996,1,0,0:0:0:0:
256,192,79069,1,0,0:0:0:0:
256,192,79142,1,2,0:0:0:0:
256,192,79288,1,0,0:0:0:0:
256,192,79435,1,2,0:0:0:0:
256,192,79581,1,0,0:0:0:0:
256,192,79727,1,0,0:0:0:0:
256,192,79800,1,0,0:0:0:0:
256,192,79874,1,0,0:0:0:0:
256,192,80020,1,2,0:0:0:0:
256,192,80166,1,0,0:0:0:0:
256,192,80239,1,0,0:0:0:0:
256,192,80313,1,2,0:0:0:0:
256,192,80459,1,0,0:0:0:0:
256,192,80605,1,2,0:0:0:0:
256,192,80678,1,0,0:0:0:0:
256,192,80752,1,0,0:0:0:0:
256,192,80898,1,0,0:0:0:0:
256,192,80971,1,0,0:0:0:0:
256,192,81044,1,2,0:0:0:0:
256,192,81191,1,2,0:0:0:0:
256,192,81337,1,0,0:0:0:0:
256,192,81483,1,2,0:0:0:0:
256,192,81557,1,0,0:0:0:0:
256,192,81630,1,0,0:0:0:0:
256,192,81703,1,0,0:0:0:0:
256,192,81776,1,2,0:0:0:0:
256,192,81849,1,2,0:0:0:0:
256,192,81922,1,0,0:0:0:0:
256,192,82069,1,0,0:0:0:0:
256,192,82142,1,0,0:0:0:0:
256,192,82215,1,2,0:0:0:0:
256,192,82361,1,2,0:0:0:0:
256,192,82435,1,2,0:0:0:0:
256,192,82508,1,0,0:0:0:0:
256,192,82654,1,0,0:0:0:0:
256,192,82800,1,0,0:0:0:0:
256,192,82947,1,2,0:0:0:0:
256,192,83093,1,2,0:0:0:0:
256,192,83239,1,0,0:0:0:0:
256,192,83313,1,0,0:0:0:0:
256,192,83386,1,2,0:0:0:0:
256,192,83532,1,2,0:0:0:0:
256,192,83605,1,0,0:0:0:0:
256,192,83678,1,0,0:0:0:0:
256,192,83752,1,2,0:0:0:0:
256,192,83825,1,2,0:0:0:0:
256,192,83971,1,0,0:0:0:0:
256,192,84118,1,2,0:0:0:0:
256,192,84264,1,0,0:0:0:0:
256,192,84410,1,0,0:0:0:0:
256,192,84483,1,0,0:0:0:0:
256,192,84557,1,2,0:0:0:0:
256,192,84703,1,2,0:0:0:0:
256,192,84776,1,0,0:0:0:0:
256,192,84849,1,0,0:0:0:0:
256,192,84922,1,0,0:0:0:0:
256,192,84996,1,2,0:0:0:0:
256,192,85142,1,2,0:0:0:0:
256,192,85288,1,2,0:0:0:0:
256,192,85435,1,2,0:0:0:0:
256,192,85581,1,2,0:0:0:0:
256,192,85654,1,0,0:0:0:0:
256,192,85727,1,0,0:0:0:0:
256,192,85874,1,2,0:0:0:0:
256,192,86020,1,2,0:0:0:0:
256,192,86313,1,2,0:0:0:0:
256,192,86459,1,2,0:0:0:0:
256,192,86752,1,0,0:0:0:0:
256,192,86825,1,0,0:0:0:0:
256,192,86898,1,0,0:0:0:0:
256,192,87044,1,2,0:0:0:0:
256,192,87191,1,0,0:0:0:0:
256,192,87337,1,0,0:0:0:0:
256,192,87410,1,0,0:0:0:0:
256,192,87483,1,2,0:0:0:0:
256,192,87557,1,2,0:0:0:0:
256,192,87630,1,2,0:0:0:0:
256,192,87776,1,0,0:0:0:0:
256,192,87922,1,2,0:0:0:0:
256,192,87996,1,0,0:0:0:0:
256,192,88069,1,0,0:0:0:0:
256,192,88215,1,2,0:0:0:0:
256,192,88288,1,2,0:0:0:0:
256,192,88361,1,2,0:0:0:0:
256,192,88435,1,0,0:0:0:0:
256,192,88508,1,0,0:0:0:0:
256,192,88654,1,2,0:0:0:0:
256,192,88800,1,2,0:0:0:0:
256,192,89093,1,0,0:0:0:0:
256,192,89166,1,0,0:0:0:0:
256,192,89239,1,2,0:0:0:0:
256,192,89386,1,2,0:0:0:0:
256,192,89459,1,2,0:0:0:0:
256,192,89532,1,0,0:0:0:0:
256,192,89605,1,0,0:0:0:0:
256,192,89678,1,2,0:0:0:0:
256,192,89825,1,2,0:0:0:0:
256,192,89971,1,2,0:0:0:0:
256,192,90044,1,0,0:0:0:0:
256,192,90118,1,0,0:0:0:0:
256,192,90264,1,2,0:0:0:0:
256,192,90337,1,0,0:0:0:0:
256,192,90410,1,0,0:0:0:0:
256,192,90557,1,2,0:0:0:0:
256,192,90630,1,2,0:0:0:0:
256,192,90703,1,2,0:0:0:0:
256,192,90776,1,0,0:0:0:0:
256,192,90849,1,0,0:0:0:0:
256,192,90996,1,2,0:0:0:0:
256,192,91142,1,2,0:0:0:0:
256,192,91435,1,2,0:0:0:0:
256,192,91581,1,2,0:0:0:0:
256,192,91727,1,0,0:0:0:0:
256,192,91800,1,0,0:0:0:0:
256,192,91874,1,2,0:0:0:0:
256,192,91947,1,2,0:0:0:0:
256,192,92020,1,2,0:0:0:0:
256,192,92166,1,2,0:0:0:0:
256,192,92459,1,2,0:0:0:0:
256,192,92605,1,2,0:0:0:0:
256,192,92898,1,2,0:0:0:0:
256,192,93044,1,2,0:0:0:0:
256,192,93337,1,2,0:0:0:0:
256,192,93483,1,2,0:0:0:0:
256,192,93630,1,0,0:0:0:0:
256,192,93703,1,0,0:0:0:0:
256,192,93776,1,0,0:0:0:0:
256,192,93922,1,2,0:0:0:0:
256,192,94069,1,2,0:0:0:0:
256,192,94215,1,0,0:0:0:0:
256,192,94288,1,0,0:0:0:0:
256,192,94361,1,2,0:0:0:0:
256,192,94508,1,0,0:0:0:0:
256,192,94654,1,2,0:0:0:0:
256,192,94800,1,2,0:0:0:0:
256,192,94947,1,0,0:0:0:0:
256,192,95020,1,0,0:0:0:0:
256,192,95093,1,2,0:0:0:0:
256,192,95239,1,2,0:0:0:0:
256,192,95313,1,2,0:0:0:0:
256,192,95386,1,0,0:0:0:0:
256,192,95459,1,0,0:0:0:0:
256,192,95532,1,2,0:0:0:0:
256,192,95678,1,0,0:0:0:0:
256,192,95752,1,0,0:0:0:0:
256,192,95825,1,2,0:0:0:0:
256,192,95971,1,2,0:0:0:0:
256,192,96044,1,0,0:0:0:0:
256,192,96118,1,0,0:0:0:0:
256,192,96264,1,2,0:0:0:0:
256,192,96410,1,2,0:0:0:0:
256,192,96483,1,0,0:0:0:0:
256,192,96557,1,0,0:0:0:0:
256,192,96630,1,2,0:0:0:0:
256,192,96703,1,2,0:0:0:0:
256,192,96849,1,0,0:0:0:0:
256,192,96996,1,2,0:0:0:0:
256,192,97142,1,2,0:0:0:0:
256,192,97288,1,0,0:0:0:0:
256,192,97361,1,0,0:0:0:0:
256,192,97435,1,2,0:0:0:0:
256,192,97581,1,2,0:0:0:0:
256,192,97727,1,0,0:0:0:0:
256,160,97800,1,0,0:0:0:0:
256,192,97874,1,2,0:0:0:0:
256,192,98020,1,0,0:0:0:0:
256,192,98166,1,2,0:0:0:0:
256,192,98313,1,2,0:0:0:0:
256,192,98459,1,0,0:0:0:0:
256,192,98532,1,0,0:0:0:0:
256,192,98605,1,2,0:0:0:0:
256,192,98752,1,2,0:0:0:0:
256,192,98825,1,0,0:0:0:0:
256,192,98898,1,0,0:0:0:0:
256,224,98971,1,0,0:0:0:0:
256,192,99044,1,2,0:0:0:0:
256,192,99118,1,2,0:0:0:0:
256,192,99191,1,0,0:0:0:0:
256,192,99337,1,2,0:0:0:0:
256,192,99483,1,2,0:0:0:0:
256,192,99630,1,0,0:0:0:0:
256,192,99703,1,0,0:0:0:0:
256,192,99776,1,2,0:0:0:0:
256,192,99922,1,2,0:0:0:0:
256,192,99996,1,0,0:0:0:0:
256,192,100069,1,0,0:0:0:0:
256,192,100142,1,2,0:0:0:0:
256,192,100215,1,2,0:0:0:0:
256,192,100361,1,0,0:0:0:0:
256,192,100508,1,2,0:0:0:0:
256,192,100654,1,2,0:0:0:0:
256,192,100727,1,0,0:0:0:0:
256,192,100800,1,0,0:0:0:0:
256,192,100947,1,2,0:0:0:0:
256,192,101093,1,2,0:0:0:0:
256,192,101166,1,0,0:0:0:0:
256,192,101239,1,0,0:0:0:0:
256,192,101313,1,0,0:0:0:0:
256,192,101386,1,2,0:0:0:0:
256,192,101532,1,0,0:0:0:0:
256,192,101678,1,2,0:0:0:0:
256,192,101825,1,2,0:0:0:0:
256,192,101971,1,0,0:0:0:0:
256,192,102044,1,0,0:0:0:0:
256,192,102118,1,2,0:0:0:0:
256,192,102264,1,2,0:0:0:0:
256,192,102410,1,0,0:0:0:0:
256,192,102483,1,0,0:0:0:0:
256,192,102557,1,2,0:0:0:0:
256,192,102630,1,0,0:0:0:0:
256,192,102703,1,0,0:0:0:0:
256,192,102849,1,2,0:0:0:0:
256,192,102996,1,2,0:0:0:0:
256,192,103069,1,0,0:0:0:0:
256,192,103142,1,0,0:0:0:0:
256,192,103288,1,2,0:0:0:0:
256,192,103435,1,2,0:0:0:0:
256,192,103581,1,0,0:0:0:0:
256,192,103654,1,0,0:0:0:0:
256,192,103727,1,2,0:0:0:0:
256,192,103874,1,0,0:0:0:0:
256,192,104020,1,2,0:0:0:0:
256,192,104166,1,2,0:0:0:0:
256,192,104313,1,0,0:0:0:0:
256,192,104386,1,0,0:0:0:0:
256,192,104459,1,2,0:0:0:0:
256,192,104605,1,2,0:0:0:0:
256,192,104678,1,2,0:0:0:0:
256,192,104752,1,0,0:0:0:0:
256,192,104825,1,0,0:0:0:0:
256,192,104898,1,2,0:0:0:0:
256,192,105044,1,0,0:0:0:0:
256,192,105118,1,0,0:0:0:0:
256,192,105191,1,2,0:0:0:0:
256,192,105337,1,2,0:0:0:0:
256,192,105410,1,0,0:0:0:0:
256,192,105483,1,0,0:0:0:0:
256,192,105630,1,2,0:0:0:0:
256,192,105776,1,2,0:0:0:0:
256,192,105849,1,0,0:0:0:0:
256,192,105922,1,0,0:0:0:0:
256,192,105996,1,2,0:0:0:0:
256,192,106069,1,2,0:0:0:0:
256,192,106215,1,0,0:0:0:0:
256,192,106361,1,2,0:0:0:0:
256,192,106508,1,2,0:0:0:0:
256,192,106654,1,0,0:0:0:0:
256,192,106727,1,0,0:0:0:0:
256,192,106800,1,2,0:0:0:0:
256,192,106947,1,2,0:0:0:0:
256,192,107093,1,0,0:0:0:0:
256,160,107166,1,0,0:0:0:0:
256,192,107239,1,2,0:0:0:0:
256,192,107386,1,0,0:0:0:0:
256,192,107532,1,2,0:0:0:0:
256,192,107678,1,2,0:0:0:0:
256,192,107825,1,0,0:0:0:0:
256,192,107898,1,0,0:0:0:0:
256,192,107971,1,2,0:0:0:0:
256,192,108118,1,2,0:0:0:0:
256,192,108191,1,0,0:0:0:0:
256,192,108264,1,0,0:0:0:0:
256,224,108337,1,0,0:0:0:0:
256,192,108410,1,2,0:0:0:0:
256,192,108483,1,2,0:0:0:0:
256,192,108557,1,0,0:0:0:0:
256,192,108703,1,2,0:0:0:0:
256,192,108849,1,2,0:0:0:0:
256,192,108996,1,0,0:0:0:0:
256,192,109069,1,0,0:0:0:0:
256,192,109142,1,2,0:0:0:0:
256,192,109288,1,2,0:0:0:0:
256,192,109361,1,0,0:0:0:0:
256,192,109435,1,0,0:0:0:0:
256,192,109508,1,2,0:0:0:0:
256,192,109581,1,2,0:0:0:0:
256,192,109727,1,0,0:0:0:0:
256,192,109874,1,2,0:0:0:0:
256,192,110020,1,2,0:0:0:0:
256,192,110093,1,0,0:0:0:0:
256,192,110166,1,0,0:0:0:0:
256,192,110313,1,2,0:0:0:0:
256,192,110459,1,2,0:0:0:0:
256,192,110532,1,0,0:0:0:0:
256,192,110605,1,0,0:0:0:0:
256,192,110678,1,0,0:0:0:0:
256,192,110752,1,2,0:0:0:0:
256,192,110898,1,0,0:0:0:0:
256,192,111044,1,2,0:0:0:0:
256,192,111191,1,2,0:0:0:0:
256,192,111337,1,0,0:0:0:0:
256,192,111410,1,0,0:0:0:0:
256,192,111483,1,2,0:0:0:0:
256,192,111630,1,2,0:0:0:0:
256,192,111776,1,0,0:0:0:0:
256,192,111849,1,0,0:0:0:0:
256,192,111922,1,2,0:0:0:0:
256,192,111996,1,0,0:0:0:0:
256,192,112069,1,0,0:0:0:0:
256,192,112215,1,2,0:0:0:0:
256,192,112361,1,2,0:0:0:0:
256,192,112435,1,0,0:0:0:0:
256,192,112508,1,0,0:0:0:0:
256,192,112800,1,2,0:0:0:0:
256,192,113239,1,0,0:0:0:0:
256,192,113386,1,2,0:0:0:0:
256,192,113581,1,0,0:0:0:0:
256,192,113630,1,0,0:0:0:0:
256,192,113678,1,2,0:0:0:0:
256,192,113825,1,0,0:0:0:0:
256,192,113898,1,0,0:0:0:0:
256,192,113971,1,2,0:0:0:0:
256,192,114118,1,2,0:0:0:0:
256,192,114264,1,0,0:0:0:0:
256,192,114337,1,0,0:0:0:0:
256,192,114410,1,0,0:0:0:0:
256,192,114483,1,2,0:0:0:0:
256,192,114557,1,2,0:0:0:0:
256,192,114703,1,0,0:0:0:0:
288,192,114776,1,0,0:0:0:0:
288,192,114849,1,2,0:0:0:0:
288,192,114922,1,2,0:0:0:0:
256,192,114996,1,0,0:0:0:0:
288,192,115069,1,0,0:0:0:0:
256,192,115142,1,2,0:0:0:0:
288,192,115288,1,0,0:0:0:0:
256,192,115435,1,0,0:0:0:0:
256,192,115508,1,0,0:0:0:0:
256,192,115581,1,2,0:0:0:0:
256,192,115654,1,2,0:0:0:0:
256,192,115727,1,2,0:0:0:0:
256,192,115874,1,0,0:0:0:0:
256,192,116020,1,2,0:0:0:0:
256,192,116166,1,0,0:0:0:0:
256,192,116239,1,0,0:0:0:0:
256,192,116313,1,2,0:0:0:0:
256,192,116459,1,2,0:0:0:0:
256,192,116605,1,0,0:0:0:0:
256,192,116678,1,2,0:0:0:0:
256,192,116752,1,2,0:0:0:0:
256,192,116898,1,2,0:0:0:0:
256,192,117044,1,0,0:0:0:0:
256,192,117118,1,0,0:0:0:0:
256,192,117191,1,2,0:0:0:0:
256,192,117264,1,2,0:0:0:0:
256,192,117337,1,0,0:0:0:0:
256,192,117410,1,0,0:0:0:0:
256,192,117483,1,2,0:0:0:0:
256,192,117630,1,0,0:0:0:0:
256,192,117776,1,0,0:0:0:0:
256,192,117849,1,0,0:0:0:0:
256,192,117922,1,2,0:0:0:0:
256,192,118069,1,2,0:0:0:0:
256,192,118215,1,0,0:0:0:0:
256,192,118361,1,2,0:0:0:0:
256,192,118508,1,0,0:0:0:0:
256,192,118581,1,0,0:0:0:0:
256,192,118654,1,0,0:0:0:0:
256,192,118800,1,2,0:0:0:0:
256,192,118874,1,0,0:0:0:0:
256,192,118947,1,0,0:0:0:0:
256,192,119093,1,0,0:0:0:0:
256,192,119239,1,2,0:0:0:0:
256,192,119313,1,2,0:0:0:0:
256,192,119386,1,0,0:0:0:0:
256,192,119459,1,0,0:0:0:0:
256,192,119532,1,0,0:0:0:0:
256,192,119605,1,2,0:0:0:0:
256,192,119678,1,0,0:0:0:0:
256,192,119752,1,0,0:0:0:0:
256,192,119825,1,2,0:0:0:0:
256,192,119971,1,0,0:0:0:0:
256,192,120118,1,0,0:0:0:0:
256,192,120191,1,0,0:0:0:0:
256,192,120264,1,2,0:0:0:0:
256,192,120337,1,2,0:0:0:0:
256,192,120410,1,2,0:0:0:0:
256,192,120557,1,0,0:0:0:0:
256,192,120630,1,0,0:0:0:0:
256,192,120703,1,2,0:0:0:0:
256,192,120776,1,2,0:0:0:0:
256,192,120849,1,0,0:0:0:0:
256,192,120922,1,0,0:0:0:0:
256,192,120996,1,0,0:0:0:0:
256,192,121142,1,2,0:0:0:0:
256,192,121215,1,2,0:0:0:0:
256,192,121288,1,0,0:0:0:0:
256,192,121435,1,0,0:0:0:0:
256,192,121581,1,2,0:0:0:0:
256,192,121727,1,0,0:0:0:0:
256,192,121874,1,0,0:0:0:0:
256,192,122020,1,0,0:0:0:0:
256,192,122093,1,0,0:0:0:0:
256,192,122166,1,2,0:0:0:0:
256,192,122239,1,2,0:0:0:0:
256,192,122313,1,0,0:0:0:0:
256,192,122459,1,0,0:0:0:0:
256,192,122532,1,0,0:0:0:0:
256,192,122605,1,2,0:0:0:0:
256,192,122678,1,2,0:0:0:0:
256,192,122752,1,0,0:0:0:0:
256,192,122898,1,0,0:0:0:0:
256,192,123044,1,2,0:0:0:0:
256,192,123118,1,0,0:0:0:0:
256,192,123191,1,0,0:0:0:0:
256,192,123337,1,0,0:0:0:0:
256,192,123410,1,0,0:0:0:0:
256,192,123483,1,2,0:0:0:0:
256,192,123630,1,0,0:0:0:0:
256,192,123776,1,0,0:0:0:0:
256,192,123922,1,2,0:0:0:0:
256,192,123996,1,0,0:0:0:0:
256,192,124069,1,0,0:0:0:0:
256,192,124142,1,0,0:0:0:0:
256,192,124215,1,2,0:0:0:0:
256,192,124361,1,0,0:0:0:0:
256,192,124435,1,0,0:0:0:0:
256,192,124508,1,2,0:0:0:0:
256,192,124654,1,2,0:0:0:0:
256,192,124800,1,0,0:0:0:0:
256,192,124874,1,0,0:0:0:0:
256,192,124947,1,0,0:0:0:0:
256,192,125020,1,2,0:0:0:0:
256,192,125093,1,2,0:0:0:0:
256,192,125239,1,0,0:0:0:0:
288,192,125313,1,0,0:0:0:0:
288,192,125386,1,2,0:0:0:0:
288,192,125459,1,2,0:0:0:0:
256,192,125532,1,0,0:0:0:0:
288,192,125605,1,0,0:0:0:0:
256,192,125678,1,2,0:0:0:0:
288,192,125825,1,2,0:0:0:0:
256,192,125971,1,0,0:0:0:0:
256,192,126044,1,0,0:0:0:0:
256,192,126118,1,2,0:0:0:0:
256,192,126191,1,2,0:0:0:0:
256,192,126264,1,2,0:0:0:0:
256,192,126410,1,0,0:0:0:0:
256,192,126557,1,2,0:0:0:0:
256,192,126703,1,0,0:0:0:0:
256,192,126776,1,0,0:0:0:0:
256,192,126849,1,2,0:0:0:0:
256,192,126996,1,2,0:0:0:0:
256,192,127142,1,0,0:0:0:0:
256,192,127215,1,2,0:0:0:0:
256,192,127288,1,2,0:0:0:0:
256,192,127435,1,2,0:0:0:0:
256,192,127581,1,0,0:0:0:0:
256,192,127654,1,0,0:0:0:0:
256,192,127727,1,2,0:0:0:0:
256,192,127800,1,2,0:0:0:0:
256,192,127874,1,0,0:0:0:0:
256,192,127947,1,0,0:0:0:0:
256,192,128020,1,2,0:0:0:0:
256,192,128166,1,0,0:0:0:0:
256,192,128313,1,0,0:0:0:0:
256,192,128386,1,0,0:0:0:0:
256,192,128459,1,2,0:0:0:0:
256,192,128605,1,2,0:0:0:0:
256,192,128752,1,0,0:0:0:0:
256,192,128898,1,2,0:0:0:0:
256,192,129044,1,0,0:0:0:0:
256,192,129118,1,0,0:0:0:0:
256,192,129191,1,0,0:0:0:0:
256,192,129337,1,2,0:0:0:0:
256,192,129410,1,0,0:0:0:0:
256,192,129483,1,0,0:0:0:0:
256,192,129630,1,0,0:0:0:0:
256,192,129776,1,2,0:0:0:0:
256,192,129849,1,2,0:0:0:0:
256,192,129922,1,0,0:0:0:0:
256,192,129996,1,0,0:0:0:0:
256,192,130069,1,0,0:0:0:0:
256,192,130142,1,2,0:0:0:0:
256,192,130215,1,0,0:0:0:0:
256,192,130288,1,0,0:0:0:0:
256,192,130361,1,2,0:0:0:0:
256,192,130435,1,2,0:0:0:0:
256,192,130508,1,0,0:0:0:0:
256,192,130581,1,0,0:0:0:0:
256,192,130654,1,2,0:0:0:0:
256,192,130727,1,0,0:0:0:0:
256,192,130800,1,0,0:0:0:0:
256,192,130874,1,2,0:0:0:0:
256,192,130947,1,2,0:0:0:0:
256,192,131020,1,0,0:0:0:0:
256,192,131093,1,2,0:0:0:0:
256,192,131166,1,0,0:0:0:0:
256,192,131239,1,2,0:0:0:0:
256,192,135922,1,0,0:0:0:0:
256,192,136069,1,0,0:0:0:0:
256,192,136215,1,2,0:0:0:0:
256,192,136508,1,0,0:0:0:0:
256,192,136654,1,2,0:0:0:0:
256,192,136947,1,0,0:0:0:0:
256,192,137093,1,2,0:0:0:0:
256,192,137386,1,0,0:0:0:0:
256,192,137532,1,2,0:0:0:0:
256,192,137678,1,2,0:0:0:0:
256,192,137825,1,0,0:0:0:0:
256,192,137971,1,2,0:0:0:0:
256,192,138264,1,0,0:0:0:0:
256,192,138411,1,0,0:0:0:0:
256,192,138557,1,2,0:0:0:0:
256,192,138850,1,0,0:0:0:0:
256,192,138996,1,2,0:0:0:0:
256,192,139289,1,0,0:0:0:0:
256,192,139435,1,2,0:0:0:0:
256,192,139728,1,0,0:0:0:0:
256,192,139874,1,2,0:0:0:0:
256,192,140020,1,2,0:0:0:0:
256,192,140166,1,0,0:0:0:0:
256,192,140313,1,2,0:0:0:0:
256,192,140605,1,2,0:0:0:0:
256,192,140752,1,0,0:0:0:0:
256,192,140898,1,2,0:0:0:0:
256,192,141191,1,2,0:0:0:0:
256,192,141337,1,0,0:0:0:0:
256,192,141630,1,2,0:0:0:0:
256,192,141776,1,2,0:0:0:0:
256,192,142069,1,0,0:0:0:0:
256,192,142215,1,2,0:0:0:0:
256,192,142361,1,2,0:0:0:0:
256,192,142508,1,0,0:0:0:0:
256,192,142654,1,2,0:0:0:0:
256,192,142947,1,0,0:0:0:0:
256,192,143093,1,0,0:0:0:0:
256,192,143239,1,2,0:0:0:0:
256,192,143532,1,0,0:0:0:0:
256,192,143678,1,2,0:0:0:0:
256,192,143971,1,0,0:0:0:0:
256,192,144118,1,2,0:0:0:0:
256,192,144410,1,0,0:0:0:0:
256,192,144557,1,2,0:0:0:0:
256,160,144703,1,2,0:0:0:0:
256,160,144849,1,0,0:0:0:0:
256,192,144996,1,2,0:0:0:0:
256,192,145288,1,0,0:0:0:0:
256,192,145435,1,0,0:0:0:0:
256,192,145581,1,2,0:0:0:0:
256,192,145874,1,0,0:0:0:0:
256,192,146020,1,2,0:0:0:0:
256,192,146313,1,0,0:0:0:0:
256,192,146459,1,2,0:0:0:0:
256,192,146752,1,0,0:0:0:0:
256,192,146898,1,2,0:0:0:0:
256,192,147044,1,2,0:0:0:0:
256,192,147191,1,0,0:0:0:0:
256,192,147337,1,2,0:0:0:0:
256,192,147630,1,0,0:0:0:0:
256,192,147775,1,0,0:0:0:0:
256,192,147922,1,2,0:0:0:0:
256,192,148214,1,0,0:0:0:0:
256,192,148361,1,2,0:0:0:0:
256,192,148653,1,0,0:0:0:0:
256,192,148800,1,2,0:0:0:0:
256,192,149092,1,0,0:0:0:0:
256,192,149239,1,2,0:0:0:0:
256,192,149386,1,2,0:0:0:0:
256,192,149532,1,0,0:0:0:0:
256,192,149678,1,2,0:0:0:0:
256,192,149971,1,0,0:0:0:0:
256,192,150264,1,2,0:0:0:0:
256,192,150410,1,0,0:0:0:0:
256,192,150557,1,2,0:0:0:0:
256,192,150703,1,2,0:0:0:0:
256,192,150849,1,0,0:0:0:0:
256,192,150996,1,2,0:0:0:0:
256,192,151142,1,2,0:0:0:0:
256,192,151288,1,0,0:0:0:0:
256,192,151435,1,2,0:0:0:0:
256,192,151581,1,2,0:0:0:0:
256,192,151727,1,0,0:0:0:0:
256,192,151874,1,2,0:0:0:0:
256,192,152020,1,2,0:0:0:0:
256,192,152313,1,0,0:0:0:0:
256,192,152605,1,2,0:0:0:0:
256,192,152752,1,0,0:0:0:0:
256,192,152898,1,2,0:0:0:0:
256,192,153044,1,2,0:0:0:0:
256,192,153191,1,0,0:0:0:0:
256,192,153337,1,2,0:0:0:0:
256,192,153483,1,2,0:0:0:0:
256,192,153630,1,0,0:0:0:0:
256,192,153776,1,2,0:0:0:0:
256,192,153922,1,2,0:0:0:0:
256,192,154069,1,0,0:0:0:0:
256,192,154215,1,2,0:0:0:0:
256,192,154361,1,2,0:0:0:0:
256,192,154654,1,0,0:0:0:0:
256,192,154947,1,2,0:0:0:0:
256,192,155093,1,0,0:0:0:0:
256,192,155239,1,2,0:0:0:0:
256,192,155386,1,2,0:0:0:0:
256,192,155532,1,0,0:0:0:0:
256,192,155678,1,2,0:0:0:0:
256,192,155825,1,2,0:0:0:0:
256,192,155971,1,0,0:0:0:0:
256,192,156118,1,2,0:0:0:0:
256,192,156264,1,2,0:0:0:0:
256,192,156410,1,0,0:0:0:0:
256,192,156557,1,2,0:0:0:0:
256,192,156703,1,2,0:0:0:0:
256,192,156996,1,0,0:0:0:0:
256,192,157288,1,2,0:0:0:0:
256,192,157435,1,0,0:0:0:0:
256,192,157581,1,2,0:0:0:0:
256,192,157727,1,2,0:0:0:0:
256,192,157874,1,0,0:0:0:0:
256,192,158020,1,2,0:0:0:0:
256,192,158166,1,2,0:0:0:0:
256,192,158313,1,0,0:0:0:0:
256,160,158459,1,2,0:0:0:0:
256,192,158605,1,2,0:0:0:0:
256,192,158752,1,0,0:0:0:0:
256,192,158898,1,2,0:0:0:0:
256,192,159044,1,2,0:0:0:0:
256,192,159337,1,0,0:0:0:0:
256,192,159630,1,2,0:0:0:0:
256,192,159776,1,0,0:0:0:0:
256,192,159922,1,2,0:0:0:0:
256,192,160069,1,2,0:0:0:0:
256,192,160215,1,0,0:0:0:0:
256,192,160361,1,2,0:0:0:0:
256,192,160508,1,2,0:0:0:0:
256,192,160654,1,0,0:0:0:0:
256,192,160800,1,2,0:0:0:0:
256,160,160947,1,2,0:0:0:0:
256,192,161093,1,0,0:0:0:0:
256,192,161239,1,2,0:0:0:0:
256,192,161386,1,2,0:0:0:0:
256,192,161678,1,0,0:0:0:0:
256,192,161971,1,2,0:0:0:0:
256,192,162118,1,0,0:0:0:0:
256,192,162264,1,2,0:0:0:0:
256,192,162410,1,2,0:0:0:0:
256,192,162557,1,0,0:0:0:0:
256,192,162703,1,2,0:0:0:0:
256,192,162849,1,2,0:0:0:0:
256,192,162996,1,0,0:0:0:0:
256,192,163142,1,2,0:0:0:0:
256,192,163288,1,2,0:0:0:0:
256,192,163435,1,0,0:0:0:0:
256,192,163581,1,2,0:0:0:0:
256,192,163727,1,2,0:0:0:0:
256,192,164020,1,2,0:0:0:0:
256,192,164166,1,0,0:0:0:0:
256,192,164313,1,0,0:0:0:0:
256,192,164459,1,2,0:0:0:0:
256,192,164605,1,0,0:0:0:0:
256,192,164752,1,0,0:0:0:0:
256,192,164898,1,2,0:0:0:0:
256,192,165044,1,0,0:0:0:0:
256,192,165191,1,0,0:0:0:0:
256,192,165337,1,2,0:0:0:0:
256,192,165483,1,0,0:0:0:0:
256,192,165630,1,0,0:0:0:0:
256,192,165776,1,2,0:0:0:0:
256,192,165922,1,0,0:0:0:0:
256,192,166069,1,0,0:0:0:0:
256,192,166361,1,0,0:0:0:0:
256,192,166654,1,2,0:0:0:0:
256,192,166800,1,0,0:0:0:0:
256,192,166947,1,0,0:0:0:0:
256,192,167093,1,2,0:0:0:0:
256,192,167239,1,0,0:0:0:0:
256,192,167386,1,0,0:0:0:0:
256,192,167532,1,2,0:0:0:0:
256,192,167678,1,0,0:0:0:0:
256,192,167825,1,0,0:0:0:0:
256,192,167971,1,2,0:0:0:0:
256,192,168118,1,0,0:0:0:0:
256,192,168264,1,0,0:0:0:0:
256,192,168410,1,0,0:0:0:0:
256,192,168703,1,2,0:0:0:0:
256,192,168996,1,0,0:0:0:0:
256,192,169142,1,2,0:0:0:0:
256,192,169288,1,2,0:0:0:0:
256,192,169435,1,0,0:0:0:0:
256,192,169581,1,2,0:0:0:0:
256,192,169727,1,2,0:0:0:0:
256,192,169874,1,2,0:0:0:0:
256,192,170020,1,0,0:0:0:0:
256,192,170166,1,0,0:0:0:0:
256,192,170313,1,2,0:0:0:0:
256,192,170459,1,0,0:0:0:0:
256,192,170605,1,0,0:0:0:0:
256,192,170752,1,0,0:0:0:0:
256,192,171044,1,0,0:0:0:0:
256,192,171337,1,0,0:0:0:0:
256,192,171483,1,2,0:0:0:0:
256,192,171630,1,2,0:0:0:0:
256,192,171776,1,0,0:0:0:0:
256,192,171922,1,2,0:0:0:0:
256,192,172069,1,2,0:0:0:0:
256,192,172215,1,2,0:0:0:0:
256,192,172361,1,0,0:0:0:0:
256,192,172508,1,0,0:0:0:0:
256,192,172654,1,2,0:0:0:0:
256,192,172800,1,0,0:0:0:0:
256,192,172947,1,0,0:0:0:0:
256,192,173093,1,0,0:0:0:0:
256,192,173386,1,0,0:0:0:0:
256,192,173678,1,0,0:0:0:0:
256,192,173825,1,2,0:0:0:0:
256,192,173971,1,2,0:0:0:0:
256,192,174118,1,0,0:0:0:0:
256,192,174264,1,2,0:0:0:0:
256,192,174410,1,2,0:0:0:0:
256,192,174557,1,2,0:0:0:0:
256,192,174703,1,0,0:0:0:0:
256,192,174849,1,0,0:0:0:0:
256,192,174996,1,2,0:0:0:0:
256,192,175142,1,0,0:0:0:0:
256,192,175288,1,0,0:0:0:0:
256,192,175435,1,0,0:0:0:0:
256,192,175727,1,0,0:0:0:0:
256,192,176020,1,0,0:0:0:0:
256,192,176166,1,2,0:0:0:0:
256,192,176313,1,2,0:0:0:0:
256,192,176459,1,0,0:0:0:0:
256,192,176605,1,2,0:0:0:0:
256,192,176752,1,2,0:0:0:0:
256,192,176898,1,2,0:0:0:0:
256,192,177044,1,0,0:0:0:0:
256,192,177191,1,0,0:0:0:0:
256,192,177337,1,2,0:0:0:0:
256,192,177483,1,0,0:0:0:0:
256,192,177630,1,0,0:0:0:0:
256,192,177776,1,0,0:0:0:0:
256,192,178069,1,2,0:0:0:0:
256,192,178215,1,2,0:0:0:0:
256,192,178361,1,0,0:0:0:0:
256,192,178654,1,2,0:0:0:0:
256,192,178800,1,0,0:0:0:0:
256,192,178947,1,0,0:0:0:0:
256,192,179093,1,2,0:0:0:0:
256,192,179239,1,0,0:0:0:0:
256,192,179386,1,2,0:0:0:0:
256,192,179532,1,0,0:0:0:0:
256,192,179825,1,2,0:0:0:0:
256,192,179971,1,0,0:0:0:0:
256,192,180118,1,0,0:0:0:0:
256,192,180264,1,2,0:0:0:0:
256,192,180410,1,0,0:0:0:0:
256,192,180557,1,2,0:0:0:0:
256,192,180703,1,0,0:0:0:0:
256,192,180996,1,2,0:0:0:0:
256,192,181142,1,0,0:0:0:0:
256,192,181288,1,0,0:0:0:0:
128,352,181361,1,0,0:0:0:0:
256,192,181435,1,2,0:0:0:0:
256,192,181581,1,0,0:0:0:0:
256,192,181727,1,2,0:0:0:0:
256,192,181874,1,0,0:0:0:0:
256,192,182166,1,2,0:0:0:0:
256,192,182313,1,0,0:0:0:0:
256,192,182459,1,0,0:0:0:0:
256,192,182605,1,2,0:0:0:0:
256,192,182752,1,0,0:0:0:0:
256,192,182898,1,2,0:0:0:0:
256,192,183044,1,0,0:0:0:0:
256,192,183191,1,0,0:0:0:0:
256,192,183337,1,2,0:0:0:0:
256,192,183483,1,0,0:0:0:0:
256,192,183776,1,2,0:0:0:0:
256,192,183922,1,0,0:0:0:0:
256,192,184069,1,2,0:0:0:0:
256,192,184215,1,2,0:0:0:0:
256,192,184508,1,2,0:0:0:0:
256,192,184654,1,2,0:0:0:0:
256,192,184800,1,0,0:0:0:0:
256,192,184947,1,2,0:0:0:0:
256,192,185093,1,2,0:0:0:0:
256,192,185239,1,2,0:0:0:0:
256,192,185386,1,0,0:0:0:0:
256,192,185532,1,0,0:0:0:0:
256,192,185678,1,2,0:0:0:0:
256,192,185825,1,0,0:0:0:0:
256,192,185971,5,0,0:0:0:0:
256,192,186118,1,2,0:0:0:0:
256,192,186264,1,0,0:0:0:0:
256,192,187142,5,4,0:0:0:0:
256,192,187288,1,4,0:0:0:0:
256,192,187435,1,0,0:0:0:0:
256,192,187508,1,0,0:0:0:0:
256,192,187581,1,2,0:0:0:0:
256,192,187727,1,4,0:0:0:0:
256,192,189483,1,2,0:0:0:0:
256,192,189776,1,0,0:0:0:0:
256,192,189849,1,0,0:0:0:0:
256,192,189922,1,0,0:0:0:0:
256,192,190069,1,2,0:0:0:0:
256,192,190215,1,0,0:0:0:0:
256,192,190288,1,0,0:0:0:0:
256,192,190361,1,2,0:0:0:0:
256,192,190508,1,0,0:0:0:0:
256,192,190654,1,2,0:0:0:0:
256,192,190727,1,0,0:0:0:0:
256,192,190800,1,0,0:0:0:0:
256,192,190947,1,0,0:0:0:0:
256,192,191020,1,0,0:0:0:0:
256,192,191093,1,2,0:0:0:0:
256,192,191239,1,2,0:0:0:0:
256,192,191386,1,0,0:0:0:0:
256,192,191532,1,2,0:0:0:0:
256,192,191605,1,0,0:0:0:0:
256,192,191678,1,0,0:0:0:0:
256,192,191752,1,0,0:0:0:0:
256,192,191825,1,2,0:0:0:0:
256,192,191898,1,2,0:0:0:0:
256,192,191971,1,0,0:0:0:0:
256,192,192118,1,0,0:0:0:0:
256,192,192191,1,0,0:0:0:0:
256,192,192264,1,2,0:0:0:0:
256,192,192410,1,2,0:0:0:0:
256,192,192483,1,2,0:0:0:0:
256,192,192557,1,0,0:0:0:0:
256,192,192703,1,0,0:0:0:0:
256,192,192849,1,0,0:0:0:0:
256,192,192996,1,2,0:0:0:0:
256,192,193142,1,2,0:0:0:0:
256,192,193288,1,0,0:0:0:0:
256,192,193361,1,0,0:0:0:0:
256,192,193435,1,2,0:0:0:0:
256,192,193581,1,2,0:0:0:0:
256,192,193654,1,0,0:0:0:0:
256,192,193727,1,0,0:0:0:0:
256,192,193800,1,2,0:0:0:0:
256,192,193874,1,2,0:0:0:0:
256,192,194020,1,0,0:0:0:0:
256,192,194166,1,2,0:0:0:0:
256,192,194313,1,0,0:0:0:0:
256,192,194459,1,0,0:0:0:0:
256,192,194532,1,0,0:0:0:0:
256,192,194605,1,2,0:0:0:0:
256,192,194752,1,2,0:0:0:0:
256,192,194825,1,0,0:0:0:0:
256,192,194898,1,0,0:0:0:0:
256,192,194971,1,0,0:0:0:0:
256,192,195044,1,2,0:0:0:0:
256,192,195191,1,2,0:0:0:0:
256,192,195337,1,2,0:0:0:0:
256,192,195483,1,2,0:0:0:0:
256,192,195630,1,0,0:0:0:0:
256,192,195703,1,0,0:0:0:0:
256,192,195776,1,2,0:0:0:0:
256,192,195922,1,2,0:0:0:0:
256,192,195996,1,2,0:0:0:0:
256,192,196069,1,0,0:0:0:0:
256,192,196142,1,0,0:0:0:0:
256,192,196215,1,2,0:0:0:0:
256,192,196361,1,0,0:0:0:0:
256,192,196508,1,2,0:0:0:0:
256,192,196654,1,2,0:0:0:0:
256,192,196800,1,0,0:0:0:0:
256,192,196874,1,0,0:0:0:0:
256,192,196947,1,0,0:0:0:0:
256,192,197093,1,2,0:0:0:0:
256,192,197239,1,0,0:0:0:0:
256,192,197386,1,2,0:0:0:0:
256,192,197459,1,2,0:0:0:0:
256,192,197532,1,2,0:0:0:0:
256,192,197605,1,2,0:0:0:0:
256,192,197678,1,2,0:0:0:0:
256,192,197825,1,2,0:0:0:0:
256,192,197971,1,0,0:0:0:0:
256,192,198044,1,0,0:0:0:0:
256,192,198118,1,2,0:0:0:0:
256,192,198264,1,2,0:0:0:0:
256,192,198410,1,0,0:0:0:0:
256,192,198557,1,2,0:0:0:0:
256,192,198630,1,2,0:0:0:0:
256,192,198703,1,0,0:0:0:0:
256,192,198776,1,0,0:0:0:0:
256,192,198849,1,2,0:0:0:0:
256,192,198996,1,2,0:0:0:0:
256,192,199069,1,2,0:0:0:0:
256,192,199142,1,0,0:0:0:0:
256,192,199288,1,0,0:0:0:0:
256,192,199435,1,2,0:0:0:0:
256,192,199581,1,0,0:0:0:0:
256,192,199654,1,0,0:0:0:0:
256,192,199727,1,2,0:0:0:0:
256,192,199874,1,0,0:0:0:0:
256,192,200020,1,2,0:0:0:0:
256,192,200166,1,0,0:0:0:0:
256,192,200313,1,0,0:0:0:0:
256,192,200386,1,0,0:0:0:0:
256,192,200459,1,0,0:0:0:0:
256,192,200605,1,2,0:0:0:0:
256,192,200752,1,0,0:0:0:0:
256,192,200825,1,0,0:0:0:0:
256,192,200898,1,2,0:0:0:0:
256,192,201044,1,0,0:0:0:0:
256,192,201191,1,2,0:0:0:0:
256,192,201264,1,0,0:0:0:0:
256,192,201337,1,0,0:0:0:0:
256,192,201483,1,0,0:0:0:0:
256,192,201557,1,0,0:0:0:0:
256,192,201630,1,2,0:0:0:0:
256,192,201776,1,2,0:0:0:0:
256,192,201922,1,0,0:0:0:0:
256,192,202069,1,2,0:0:0:0:
256,192,202142,1,0,0:0:0:0:
256,192,202215,1,0,0:0:0:0:
256,192,202288,1,0,0:0:0:0:
256,192,202361,1,2,0:0:0:0:
256,192,202435,1,2,0:0:0:0:
256,192,202508,1,0,0:0:0:0:
256,192,202654,1,0,0:0:0:0:
256,192,202727,1,0,0:0:0:0:
256,192,202800,1,2,0:0:0:0:
256,192,202947,1,2,0:0:0:0:
256,192,203020,1,2,0:0:0:0:
256,192,203093,1,0,0:0:0:0:
256,192,203239,1,0,0:0:0:0:
256,192,203386,1,0,0:0:0:0:
256,192,203532,1,2,0:0:0:0:
256,192,203678,1,2,0:0:0:0:
256,192,203825,1,0,0:0:0:0:
256,192,203898,1,0,0:0:0:0:
256,192,203971,1,2,0:0:0:0:
256,192,204118,1,2,0:0:0:0:
256,192,204191,1,0,0:0:0:0:
256,192,204264,1,0,0:0:0:0:
256,192,204337,1,2,0:0:0:0:
256,192,204410,1,2,0:0:0:0:
256,192,204557,1,0,0:0:0:0:
256,192,204703,1,2,0:0:0:0:
256,192,204849,1,0,0:0:0:0:
256,192,204996,1,0,0:0:0:0:
256,192,205069,1,0,0:0:0:0:
256,192,205142,1,2,0:0:0:0:
256,192,205288,1,2,0:0:0:0:
256,192,205361,1,0,0:0:0:0:
256,192,205435,1,0,0:0:0:0:
256,192,205508,1,0,0:0:0:0:
256,192,205581,1,2,0:0:0:0:
256,192,205727,1,2,0:0:0:0:
256,192,205874,1,2,0:0:0:0:
256,192,206020,1,2,0:0:0:0:
256,192,206166,1,0,0:0:0:0:
256,192,206239,1,0,0:0:0:0:
256,192,206313,1,2,0:0:0:0:
256,192,206752,1,2,0:0:0:0:
256,192,206800,1,2,0:0:0:0:
256,192,206849,1,2,0:0:0:0:
256,192,206898,1,0,0:0:0:0:
256,192,207044,1,2,0:0:0:0:
256,192,207191,1,2,0:0:0:0:
256,192,207337,1,0,0:0:0:0:
256,192,207410,1,0,0:0:0:0:
256,192,207483,1,0,0:0:0:0:
256,192,207630,1,2,0:0:0:0:
256,192,207776,1,0,0:0:0:0:
256,192,207922,1,2,0:0:0:0:
256,192,207996,1,0,0:0:0:0:
256,192,208069,1,0,0:0:0:0:
256,192,208142,1,2,0:0:0:0:
256,192,208215,1,2,0:0:0:0:
256,192,208361,1,2,0:0:0:0:
256,192,208508,1,0,0:0:0:0:
256,192,208581,1,0,0:0:0:0:
256,192,208654,1,2,0:0:0:0:
256,192,208800,1,2,0:0:0:0:
256,192,208947,1,0,0:0:0:0:
256,192,209093,1,2,0:0:0:0:
256,192,209166,1,2,0:0:0:0:
256,192,209239,1,0,0:0:0:0:
256,192,209313,1,0,0:0:0:0:
256,192,209386,1,2,0:0:0:0:
256,192,209532,1,2,0:0:0:0:
256,192,209605,1,2,0:0:0:0:
256,192,209678,1,0,0:0:0:0:
256,192,209825,1,0,0:0:0:0:
256,192,209971,1,2,0:0:0:0:
256,192,210118,1,0,0:0:0:0:
256,192,210191,1,0,0:0:0:0:
256,192,210264,1,2,0:0:0:0:
256,192,210410,1,0,0:0:0:0:
256,192,210557,1,2,0:0:0:0:
256,192,210703,1,0,0:0:0:0:
256,192,210849,1,0,0:0:0:0:
256,192,210922,1,0,0:0:0:0:
256,192,210996,1,0,0:0:0:0:
256,192,211142,1,2,0:0:0:0:
256,192,211288,1,0,0:0:0:0:
256,192,211361,1,0,0:0:0:0:
256,192,211435,1,2,0:0:0:0:
256,192,211581,1,0,0:0:0:0:
256,192,211727,1,2,0:0:0:0:
256,192,211800,1,0,0:0:0:0:
256,192,211874,1,0,0:0:0:0:
256,192,212020,1,0,0:0:0:0:
256,192,212093,1,0,0:0:0:0:
256,192,212166,1,2,0:0:0:0:
256,192,212313,1,2,0:0:0:0:
256,192,212459,1,0,0:0:0:0:
256,192,212605,1,2,0:0:0:0:
256,192,212678,1,0,0:0:0:0:
256,192,212752,1,0,0:0:0:0:
256,192,212825,1,0,0:0:0:0:
256,192,212898,1,2,0:0:0:0:
256,192,212971,1,2,0:0:0:0:
256,192,213044,1,0,0:0:0:0:
256,192,213191,1,0,0:0:0:0:
256,192,213264,1,0,0:0:0:0:
256,192,213337,1,2,0:0:0:0:
256,192,213483,1,2,0:0:0:0:
256,192,213557,1,2,0:0:0:0:
256,192,213630,1,0,0:0:0:0:
256,192,213776,1,0,0:0:0:0:
256,192,213922,1,0,0:0:0:0:
256,192,214069,1,2,0:0:0:0:
256,192,214215,1,2,0:0:0:0:
256,192,214361,1,0,0:0:0:0:
256,192,214435,1,0,0:0:0:0:
256,192,214508,1,2,0:0:0:0:
256,192,214654,1,2,0:0:0:0:
256,192,214727,1,0,0:0:0:0:
256,192,214800,1,0,0:0:0:0:
256,192,214874,1,2,0:0:0:0:
256,192,214947,1,2,0:0:0:0:
256,192,215093,1,0,0:0:0:0:
256,192,215239,1,2,0:0:0:0:
256,192,215386,1,0,0:0:0:0:
256,192,215532,1,0,0:0:0:0:
256,192,215605,1,0,0:0:0:0:
256,192,215678,1,2,0:0:0:0:
256,192,215825,1,2,0:0:0:0:
256,192,215898,1,0,0:0:0:0:
256,192,215971,1,0,0:0:0:0:
256,192,216044,1,0,0:0:0:0:
256,192,216118,1,2,0:0:0:0:
256,192,216264,1,2,0:0:0:0:
256,192,216410,1,2,0:0:0:0:
256,192,216557,1,2,0:0:0:0:
256,192,216703,1,2,0:0:0:0:
256,192,216776,1,0,0:0:0:0:
256,192,216849,1,0,0:0:0:0:
256,192,216996,1,2,0:0:0:0:
256,192,217142,1,2,0:0:0:0:
256,192,217435,1,2,0:0:0:0:
256,192,217581,1,2,0:0:0:0:
256,192,217874,1,0,0:0:0:0:
256,192,217947,1,0,0:0:0:0:
256,192,218020,1,0,0:0:0:0:
256,192,218166,1,2,0:0:0:0:
256,192,218313,1,0,0:0:0:0:
256,192,218459,1,0,0:0:0:0:
256,192,218532,1,0,0:0:0:0:
256,192,218605,1,2,0:0:0:0:
256,192,218678,1,2,0:0:0:0:
256,192,218752,1,2,0:0:0:0:
256,192,218898,1,0,0:0:0:0:
256,192,219044,1,2,0:0:0:0:
256,192,219118,1,0,0:0:0:0:
256,192,219191,1,0,0:0:0:0:
256,192,219337,1,2,0:0:0:0:
256,192,219410,1,2,0:0:0:0:
256,192,219483,1,2,0:0:0:0:
256,192,219557,1,0,0:0:0:0:
256,192,219630,1,0,0:0:0:0:
256,192,219776,1,2,0:0:0:0:
256,192,219922,1,2,0:0:0:0:
256,192,220215,1,0,0:0:0:0:
256,192,220288,1,0,0:0:0:0:
256,192,220361,1,2,0:0:0:0:
256,192,220508,1,2,0:0:0:0:
256,192,220581,1,2,0:0:0:0:
256,192,220654,1,0,0:0:0:0:
256,192,220727,1,0,0:0:0:0:
256,192,220800,1,2,0:0:0:0:
256,192,220947,1,2,0:0:0:0:
256,192,221093,1,2,0:0:0:0:
256,192,221166,1,0,0:0:0:0:
256,192,221239,1,0,0:0:0:0:
256,192,221386,1,2,0:0:0:0:
256,192,221459,1,0,0:0:0:0:
256,192,221532,1,0,0:0:0:0:
256,192,221678,1,2,0:0:0:0:
256,192,221752,1,2,0:0:0:0:
256,192,221825,1,2,0:0:0:0:
256,192,221898,1,0,0:0:0:0:
256,192,221971,1,0,0:0:0:0:
256,192,222118,1,2,0:0:0:0:
256,192,222264,1,2,0:0:0:0:
256,192,222557,1,2,0:0:0:0:
256,192,222703,1,2,0:0:0:0:
256,192,222849,1,0,0:0:0:0:
256,192,222922,1,0,0:0:0:0:
256,192,222996,1,2,0:0:0:0:
256,192,223069,1,2,0:0:0:0:
256,192,223142,1,2,0:0:0:0:
256,192,223288,1,2,0:0:0:0:
256,192,223581,5,2,0:0:0:0:
256,192,223727,1,2,0:0:0:0:
256,192,224020,1,2,0:0:0:0:
256,192,224166,1,2,0:0:0:0:
256,192,224459,1,2,0:0:0:0:
256,192,224605,1,2,0:0:0:0:
256,192,224752,1,0,0:0:0:0:
256,192,224825,1,0,0:0:0:0:
256,192,224898,1,0,0:0:0:0:
256,192,225044,1,2,0:0:0:0:
256,192,225191,1,2,0:0:0:0:
256,192,225337,1,0,0:0:0:0:
256,192,225410,1,0,0:0:0:0:
256,192,225483,1,2,0:0:0:0:
256,192,225630,1,0,0:0:0:0:
256,192,225776,1,2,0:0:0:0:
256,192,225922,1,2,0:0:0:0:
256,192,226069,1,0,0:0:0:0:
256,192,226142,1,0,0:0:0:0:
256,192,226215,1,2,0:0:0:0:
256,192,226361,1,2,0:0:0:0:
256,192,226435,1,2,0:0:0:0:
256,192,226508,1,0,0:0:0:0:
256,192,226581,1,0,0:0:0:0:
256,192,226654,1,2,0:0:0:0:
256,192,226800,1,0,0:0:0:0:
256,192,226874,1,0,0:0:0:0:
256,192,226947,1,2,0:0:0:0:
256,192,227093,1,2,0:0:0:0:
256,192,227166,1,0,0:0:0:0:
256,192,227239,1,0,0:0:0:0:
256,192,227386,1,2,0:0:0:0:
256,192,227532,1,2,0:0:0:0:
256,192,227605,1,0,0:0:0:0:
256,192,227678,1,0,0:0:0:0:
256,192,227752,1,2,0:0:0:0:
256,192,227825,1,2,0:0:0:0:
256,192,227971,1,0,0:0:0:0:
256,192,228118,1,2,0:0:0:0:
256,192,228264,1,2,0:0:0:0:
256,192,228410,1,0,0:0:0:0:
256,192,228483,1,0,0:0:0:0:
256,192,228557,1,2,0:0:0:0:
256,192,228703,1,2,0:0:0:0:
256,192,228849,1,0,0:0:0:0:
256,160,228922,1,0,0:0:0:0:
256,192,228996,1,2,0:0:0:0:
256,192,229142,1,0,0:0:0:0:
256,192,229288,1,2,0:0:0:0:
256,192,229435,1,2,0:0:0:0:
256,192,229581,1,0,0:0:0:0:
256,192,229654,1,0,0:0:0:0:
256,192,229727,1,2,0:0:0:0:
256,192,229874,1,2,0:0:0:0:
256,192,229947,1,0,0:0:0:0:
256,192,230020,1,0,0:0:0:0:
256,224,230093,1,0,0:0:0:0:
256,192,230166,1,2,0:0:0:0:
256,192,230239,1,2,0:0:0:0:
256,192,230313,1,0,0:0:0:0:
256,192,230459,1,2,0:0:0:0:
256,192,230605,1,2,0:0:0:0:
256,192,230752,1,0,0:0:0:0:
256,192,230825,1,0,0:0:0:0:
256,192,230898,1,2,0:0:0:0:
256,192,231044,1,2,0:0:0:0:
256,192,231118,1,0,0:0:0:0:
256,192,231191,1,0,0:0:0:0:
256,192,231264,1,2,0:0:0:0:
256,192,231337,1,2,0:0:0:0:
256,192,231483,1,0,0:0:0:0:
256,192,231630,1,2,0:0:0:0:
256,192,231776,1,2,0:0:0:0:
256,192,231849,1,0,0:0:0:0:
256,192,231922,1,0,0:0:0:0:
256,192,232069,1,2,0:0:0:0:
256,192,232215,1,2,0:0:0:0:
256,192,232288,1,0,0:0:0:0:
256,192,232361,1,0,0:0:0:0:
256,192,232435,1,0,0:0:0:0:
256,192,232508,1,2,0:0:0:0:
256,192,232654,1,0,0:0:0:0:
256,192,232800,1,2,0:0:0:0:
256,192,232947,1,2,0:0:0:0:
256,192,233093,1,0,0:0:0:0:
256,192,233166,1,0,0:0:0:0:
256,192,233239,1,2,0:0:0:0:
256,192,233386,1,2,0:0:0:0:
256,192,233532,1,0,0:0:0:0:
256,192,233605,1,0,0:0:0:0:
256,192,233678,1,2,0:0:0:0:
256,192,233752,1,0,0:0:0:0:
256,192,233825,1,0,0:0:0:0:
256,192,233971,1,2,0:0:0:0:
256,192,234118,1,2,0:0:0:0:
256,192,234191,1,0,0:0:0:0:
256,192,234264,1,0,0:0:0:0:
256,192,234410,1,2,0:0:0:0:
256,192,234557,1,2,0:0:0:0:
256,192,234703,1,0,0:0:0:0:
256,192,234776,1,0,0:0:0:0:
256,192,234849,1,2,0:0:0:0:
256,192,234996,1,0,0:0:0:0:
256,192,235142,1,2,0:0:0:0:
256,192,235288,1,2,0:0:0:0:
256,192,235435,1,0,0:0:0:0:
256,192,235508,1,0,0:0:0:0:
256,192,235581,1,2,0:0:0:0:
256,192,235727,1,2,0:0:0:0:
256,192,235800,1,2,0:0:0:0:
256,192,235874,1,0,0:0:0:0:
256,192,235947,1,0,0:0:0:0:
256,192,236020,1,2,0:0:0:0:
256,192,236166,1,0,0:0:0:0:
256,192,236239,1,0,0:0:0:0:
256,192,236313,1,2,0:0:0:0:
256,192,236459,1,2,0:0:0:0:
256,192,236532,1,0,0:0:0:0:
256,192,236605,1,0,0:0:0:0:
256,192,236752,1,2,0:0:0:0:
256,192,236898,1,2,0:0:0:0:
256,192,236971,1,0,0:0:0:0:
256,192,237044,1,0,0:0:0:0:
256,192,237118,1,2,0:0:0:0:
256,192,237191,1,2,0:0:0:0:
256,192,237337,1,0,0:0:0:0:
256,192,237483,1,2,0:0:0:0:
256,192,237630,1,2,0:0:0:0:
256,192,237776,1,0,0:0:0:0:
256,192,237849,1,0,0:0:0:0:
256,192,237922,1,2,0:0:0:0:
256,192,238069,1,2,0:0:0:0:
256,192,238215,1,0,0:0:0:0:
256,160,238288,1,0,0:0:0:0:
256,192,238361,1,2,0:0:0:0:
256,192,238508,1,0,0:0:0:0:
256,192,238654,1,2,0:0:0:0:
256,192,238800,1,2,0:0:0:0:
256,192,238947,1,0,0:0:0:0:
256,192,239020,1,0,0:0:0:0:
256,192,239093,1,2,0:0:0:0:
256,192,239239,1,2,0:0:0:0:
256,192,239313,1,0,0:0:0:0:
256,192,239386,1,0,0:0:0:0:
256,224,239459,1,0,0:0:0:0:
256,192,239532,1,2,0:0:0:0:
256,192,239605,1,2,0:0:0:0:
256,192,239678,1,0,0:0:0:0:
256,192,239825,1,2,0:0:0:0:
256,192,239971,1,2,0:0:0:0:
256,192,240118,1,0,0:0:0:0:
256,192,240191,1,0,0:0:0:0:
256,192,240264,1,2,0:0:0:0:
256,192,240410,1,2,0:0:0:0:
256,192,240483,1,0,0:0:0:0:
256,192,240557,1,0,0:0:0:0:
256,192,240630,1,2,0:0:0:0:
256,192,240703,1,2,0:0:0:0:
256,192,240849,1,0,0:0:0:0:
256,192,240996,1,2,0:0:0:0:
256,192,241142,1,2,0:0:0:0:
256,192,241215,1,0,0:0:0:0:
256,192,241288,1,0,0:0:0:0:
256,192,241435,1,2,0:0:0:0:
256,192,241581,1,2,0:0:0:0:
256,192,241654,1,0,0:0:0:0:
256,192,241727,1,0,0:0:0:0:
256,192,241800,1,0,0:0:0:0:
256,192,241874,1,2,0:0:0:0:
256,192,242020,1,0,0:0:0:0:
256,192,242166,1,2,0:0:0:0:
256,192,242313,1,2,0:0:0:0:
256,192,242459,1,0,0:0:0:0:
256,192,242532,1,0,0:0:0:0:
256,192,242605,1,2,0:0:0:0:
256,192,242752,1,2,0:0:0:0:
256,192,242898,1,0,0:0:0:0:
256,192,242971,1,0,0:0:0:0:
256,192,243044,1,2,0:0:0:0:
256,192,243118,1,0,0:0:0:0:
256,192,243191,1,0,0:0:0:0:
256,192,243337,1,2,0:0:0:0:
256,192,243483,1,2,0:0:0:0:
256,192,243557,1,0,0:0:0:0:
256,192,243630,1,0,0:0:0:0:
256,192,243922,1,2,0:0:0:0:
256,192,244361,1,0,0:0:0:0:
256,192,244508,1,2,0:0:0:0:
256,192,244703,1,0,0:0:0:0:
256,192,244752,1,0,0:0:0:0:
256,192,244800,1,2,0:0:0:0:
256,192,244947,1,0,0:0:0:0:
256,192,245020,1,0,0:0:0:0:
256,192,245093,1,2,0:0:0:0:
256,192,245239,1,2,0:0:0:0:
256,192,245386,1,0,0:0:0:0:
256,192,245459,1,0,0:0:0:0:
256,192,245532,1,0,0:0:0:0:
256,192,245605,1,2,0:0:0:0:
256,192,245678,1,2,0:0:0:0:
256,192,245825,1,0,0:0:0:0:
288,192,245898,1,0,0:0:0:0:
288,192,245971,1,2,0:0:0:0:
288,192,246044,1,2,0:0:0:0:
256,192,246118,1,0,0:0:0:0:
288,192,246191,1,0,0:0:0:0:
256,192,246264,1,2,0:0:0:0:
288,192,246410,1,0,0:0:0:0:
256,192,246557,1,0,0:0:0:0:
256,192,246630,1,0,0:0:0:0:
256,192,246703,1,2,0:0:0:0:
256,192,246776,1,2,0:0:0:0:
256,192,246849,1,2,0:0:0:0:
256,192,246996,1,0,0:0:0:0:
256,192,247142,1,2,0:0:0:0:
256,192,247288,1,0,0:0:0:0:
256,192,247361,1,0,0:0:0:0:
256,192,247435,1,2,0:0:0:0:
256,192,247581,1,2,0:0:0:0:
256,192,247727,1,0,0:0:0:0:
256,192,247800,1,2,0:0:0:0:
256,192,247874,1,2,0:0:0:0:
256,192,248020,1,2,0:0:0:0:
256,192,248166,1,0,0:0:0:0:
256,192,248239,1,0,0:0:0:0:
256,192,248313,1,2,0:0:0:0:
256,192,248386,1,2,0:0:0:0:
256,192,248459,1,0,0:0:0:0:
256,192,248532,1,0,0:0:0:0:
256,192,248605,1,2,0:0:0:0:
256,192,248752,1,0,0:0:0:0:
256,192,248898,1,0,0:0:0:0:
256,192,248971,1,0,0:0:0:0:
256,192,249044,1,2,0:0:0:0:
256,192,249191,1,2,0:0:0:0:
256,192,249337,1,0,0:0:0:0:
256,192,249483,1,2,0:0:0:0:
256,192,249630,1,0,0:0:0:0:
256,192,249703,1,0,0:0:0:0:
256,192,249776,1,0,0:0:0:0:
256,192,249922,1,2,0:0:0:0:
256,192,249996,1,0,0:0:0:0:
256,192,250069,1,0,0:0:0:0:
256,192,250215,1,0,0:0:0:0:
256,192,250361,1,2,0:0:0:0:
256,192,250435,1,2,0:0:0:0:
256,192,250508,1,0,0:0:0:0:
256,192,250581,1,0,0:0:0:0:
256,192,250654,1,0,0:0:0:0:
256,192,250727,1,2,0:0:0:0:
256,192,250800,1,0,0:0:0:0:
256,192,250874,1,0,0:0:0:0:
256,192,250947,1,2,0:0:0:0:
256,192,251093,1,0,0:0:0:0:
256,192,251239,1,0,0:0:0:0:
256,192,251313,1,0,0:0:0:0:
256,192,251386,1,2,0:0:0:0:
256,192,251459,1,2,0:0:0:0:
256,192,251532,1,2,0:0:0:0:
256,192,251678,1,0,0:0:0:0:
256,192,251752,1,0,0:0:0:0:
256,192,251825,1,2,0:0:0:0:
256,192,251898,1,2,0:0:0:0:
256,192,251971,1,0,0:0:0:0:
256,192,252044,1,0,0:0:0:0:
256,192,252118,1,0,0:0:0:0:
256,192,252264,1,2,0:0:0:0:
256,192,252337,1,2,0:0:0:0:
256,192,252410,1,0,0:0:0:0:
256,192,252557,1,0,0:0:0:0:
256,192,252703,1,2,0:0:0:0:
256,192,252849,1,0,0:0:0:0:
256,192,252996,1,0,0:0:0:0:
256,192,253142,1,0,0:0:0:0:
256,192,253215,1,0,0:0:0:0:
256,192,253288,1,2,0:0:0:0:
256,192,253361,1,2,0:0:0:0:
256,192,253435,1,0,0:0:0:0:
256,192,253581,1,0,0:0:0:0:
256,192,253654,1,0,0:0:0:0:
256,192,253727,1,2,0:0:0:0:
256,192,253800,1,2,0:0:0:0:
256,192,253874,1,0,0:0:0:0:
256,192,254020,1,0,0:0:0:0:
256,192,254166,1,2,0:0:0:0:
256,192,254239,1,0,0:0:0:0:
256,192,254313,1,0,0:0:0:0:
256,192,254459,1,0,0:0:0:0:
256,192,254532,1,0,0:0:0:0:
256,192,254605,1,2,0:0:0:0:
256,192,254752,1,0,0:0:0:0:
256,192,254898,1,0,0:0:0:0:
256,192,255044,1,2,0:0:0:0:
256,192,255118,1,0,0:0:0:0:
256,192,255191,1,0,0:0:0:0:
256,192,255264,1,0,0:0:0:0:
256,192,255337,1,2,0:0:0:0:
256,192,255483,1,0,0:0:0:0:
256,192,255557,1,0,0:0:0:0:
256,192,255630,1,2,0:0:0:0:
256,192,255776,1,2,0:0:0:0:
256,192,255922,1,0,0:0:0:0:
256,192,255996,1,0,0:0:0:0:
256,192,256069,1,0,0:0:0:0:
256,192,256142,1,2,0:0:0:0:
256,192,256215,1,2,0:0:0:0:
256,192,256361,1,0,0:0:0:0:
288,192,256435,1,0,0:0:0:0:
288,192,256508,1,2,0:0:0:0:
288,192,256581,1,2,0:0:0:0:
256,192,256654,1,0,0:0:0:0:
288,192,256727,1,0,0:0:0:0:
256,192,256800,1,2,0:0:0:0:
288,192,256947,1,2,0:0:0:0:
256,192,257093,1,0,0:0:0:0:
256,192,257166,1,0,0:0:0:0:
256,192,257239,1,2,0:0:0:0:
256,192,257313,1,2,0:0:0:0:
256,192,257386,1,2,0:0:0:0:
256,192,257532,1,0,0:0:0:0:
256,192,257678,1,2,0:0:0:0:
256,192,257825,1,0,0:0:0:0:
256,192,257898,1,0,0:0:0:0:
256,192,257971,1,2,0:0:0:0:
256,192,258118,1,2,0:0:0:0:
256,192,258264,1,0,0:0:0:0:
256,192,258337,1,2,0:0:0:0:
256,192,258410,1,2,0:0:0:0:
256,192,258557,1,2,0:0:0:0:
256,192,258703,1,0,0:0:0:0:
256,192,258776,1,0,0:0:0:0:
256,192,258849,1,2,0:0:0:0:
256,192,258922,1,2,0:0:0:0:
256,192,258996,1,0,0:0:0:0:
256,192,259069,1,0,0:0:0:0:
256,192,259142,1,2,0:0:0:0:
256,192,259288,1,0,0:0:0:0:
256,192,259435,1,0,0:0:0:0:
256,192,259508,1,0,0:0:0:0:
256,192,259581,1,2,0:0:0:0:
256,192,259727,1,2,0:0:0:0:
256,192,259874,1,0,0:0:0:0:
256,192,260020,1,2,0:0:0:0:
256,192,260166,1,0,0:0:0:0:
256,192,260239,1,0,0:0:0:0:
256,192,260313,1,0,0:0:0:0:
256,192,260459,1,2,0:0:0:0:
256,192,260532,1,0,0:0:0:0:
256,192,260605,1,0,0:0:0:0:
256,192,260752,1,0,0:0:0:0:
256,192,260898,1,2,0:0:0:0:
256,192,260971,1,2,0:0:0:0:
256,192,261044,1,0,0:0:0:0:
256,192,261118,1,0,0:0:0:0:
256,192,261191,1,0,0:0:0:0:
256,192,261264,1,2,0:0:0:0:
256,192,261337,1,0,0:0:0:0:
256,192,261410,1,0,0:0:0:0:
256,192,261483,1,2,0:0:0:0:
256,192,261557,1,2,0:0:0:0:
256,192,261630,1,0,0:0:0:0:
256,192,261703,1,0,0:0:0:0:
256,192,261776,1,2,0:0:0:0:
256,192,261849,1,0,0:0:0:0:
256,192,261922,1,0,0:0:0:0:
256,192,261996,1,2,0:0:0:0:
256,192,262069,1,2,0:0:0:0:
256,192,262142,1,0,0:0:0:0:
256,192,262215,1,2,0:0:0:0:
256,192,262288,1,0,0:0:0:0:
256,192,262361,1,2,0:0:0:0:
