osu file format v14

[General]
AudioFilename: audio.mp3
AudioLeadIn: 0
PreviewTime: 76011
Countdown: 1
SampleSet: Soft
StackLeniency: 0.7
Mode: 0
LetterboxInBreaks: 0
WidescreenStoryboard: 0

[Editor]
DistanceSpacing: 0.5
BeatDivisor: 4
GridSize: 16
TimelineZoom: 1

[Metadata]
Title:Hanashirube
TitleUnicode:Hanashirube
Artist:Mutsumi Nomiyama
ArtistUnicode:Mutsumi Nomiyama
Creator:Uta
Version:Ayesha
Source:
Tags:
BeatmapID:1957800
BeatmapSetID:937223

[Difficulty]
HPDrainRate:5
CircleSize:4.3
OverallDifficulty:6
ApproachRate:8
SliderMultiplier:1.5
SliderTickRate:1

[Events]
//Background and Video events
0,0,"bbbgggg.jpg",0,0
//Break Periods
//Storyboard Layer 0 (Background)
//Storyboard Layer 1 (Fail)
//Storyboard Layer 2 (Pass)
//Storyboard Layer 3 (Foreground)
//Storyboard Sound Samples

[TimingPoints]
675,666.666666666667,4,2,1,40,1,0
22008,667.408231368187,4,2,1,40,1,0
23676,-76.9230769230769,4,2,1,40,0,0
32686,671.140939597315,4,2,1,40,1,0
33021,-76.9230769230769,4,2,1,40,0,0
38055,662.983425414365,4,2,1,40,1,0
38386,-76.9230769230769,4,2,1,40,0,0
43358,671.140939597315,4,2,1,40,1,0
43693,-76.9230769230769,4,2,1,40,0,0
46042,668.896321070234,4,2,1,40,1,0
46209,-76.9230769230769,4,2,1,40,0,0
48717,665.926748057714,4,2,1,40,1,0
49049,-76.9230769230769,4,2,1,40,0,0
54044,666.666666666667,4,2,1,40,1,0
54044,-76.9230769230769,4,2,1,40,0,0
75377,652.173913043478,4,2,1,40,1,0
76681,659.340659340659,4,2,1,40,1,0
77999,666.666666666667,4,2,1,40,1,0
79332,674.157303370787,4,2,1,40,1,0
80680,666.666666666667,4,2,1,40,1,0

[Colours]
Combo1 : 255,182,72
Combo2 : 88,252,88
Combo3 : 88,88,252
Combo4 : 252,112,112
Combo5 : 255,55,255

[HitObjects]
375,54,2341,6,0,P|337:54|301:63,1,75
147,113,3008,2,0,P|184:113|220:122,1,75
311,167,3675,5,0,0:0:0:0:
373,232,4342,1,0,0:0:0:0:
312,298,5008,1,0,0:0:0:0:
324,317,6008,5,0,0:0:0:0:
324,317,6342,2,0,P|373:275|466:297,1,150
310,333,7675,6,0,L|218:326,1,75
72,287,8342,2,0,L|164:280,1,75
258,206,9008,5,0,0:0:0:0:
302,127,9675,1,0,0:0:0:0:
244,57,10342,1,0,0:0:0:0:
231,63,11342,5,0,0:0:0:0:
146,91,11675,2,0,P|143:47|148:23,1,37.5
215,149,12008,1,0,0:0:0:0:
209,165,12342,2,0,P|113:191|99:210,1,112.5
66,258,13008,6,0,P|78:301|79:340,1,75
189,286,13675,2,0,P|242:275|291:281,1,75
361,334,14342,5,0,0:0:0:0:
441,374,15008,1,0,0:0:0:0:
505,310,15675,1,0,0:0:0:0:
484,171,16342,2,0,P|490:229|497:327,2,150
424,98,18342,6,0,P|393:140|389:183,1,75
512,83,19008,2,0,P|491:35|455:10,1,75
255,30,19675,5,0,0:0:0:0:
319,92,20342,1,0,0:0:0:0:
389,36,21008,1,0,0:0:0:0:
307,102,21675,2,0,P|301:160|294:258,2,150
18,237,23676,6,0,P|86:252|139:224,1,97.4999955368044
202,23,24343,2,0,L|212:125,1,97.4999955368044
300,235,25011,2,0,P|368:220|421:248,1,97.4999955368044
447,298,25511,1,0,0:0:0:0:
512,314,25678,2,0,P|467:307|447:309,1,48.7499977684022
338,363,26012,2,0,P|383:356|403:358,1,48.7499977684022
254,313,26346,6,0,P|188:327|123:328,1,97.4999955368044
267,133,27013,2,0,L|255:248,1,97.4999955368044
72,351,27680,2,0,L|60:236,1,97.4999955368044
30,166,28181,1,0,0:0:0:0:
38,102,28348,2,0,P|46:151|46:153,1,48.7499977684022
178,195,28682,2,0,P|129:187|127:187,1,48.7499977684022
151,90,29015,6,0,P|240:79|255:77,1,97.4999955368044
45,21,29683,2,0,P|24:69|34:137,1,97.4999955368044
212,223,30350,2,0,P|141:214|126:214,1,48.7499977684022
96,246,30684,1,0,0:0:0:0:
30,271,30851,2,0,P|101:262|116:262,1,48.7499977684022
183,316,31184,1,0,0:0:0:0:
117,341,31351,2,0,P|188:332|203:332,1,48.7499977684022
286,213,31685,6,0,P|275:303|274:317,1,97.4999955368044
442,189,32352,2,0,P|453:279|454:293,1,97.4999955368044
290,123,33021,2,0,P|266:316|264:346,2,194.999991073609
359,37,34699,5,0,0:0:0:0:
489,118,35034,2,0,P|426:143|373:131,1,97.4999955368044
193,82,35706,2,0,P|256:107|309:95,1,97.4999955368044
367,64,36209,1,0,0:0:0:0:
380,143,36377,2,0,P|376:103|378:82,1,48.7499977684022
473,39,36712,2,0,P|477:79|475:100,1,48.7499977684022
438,207,37048,6,0,P|357:227|322:209,1,97.4999955368044
504,277,37719,2,0,P|503:325|495:374,1,97.4999955368044
281,326,38386,2,0,P|272:266|272:228,1,97.4999955368044
334,64,39049,1,0,0:0:0:0:
351,72,39712,6,0,P|347:185|430:97,1,292.499986610413
368,60,40872,1,0,0:0:0:0:
244,106,41038,2,0,P|193:116|137:97,1,97.4999955368044
32,42,41535,1,0,0:0:0:0:
36,113,41701,2,0,P|26:86|28:34,1,48.7499977684022
153,123,42032,2,0,P|149:147|140:169,1,48.7499977684022
60,282,42364,6,0,L|39:166,1,97.4999955368044
174,342,43027,2,0,L|195:226,1,97.4999955368044
20,363,43693,1,0,0:0:0:0:
9,378,44029,2,0,P|45:369|61:360,1,48.7499977684022
116,308,44364,1,0,0:0:0:0:
43,266,44532,1,0,0:0:0:0:
129,319,44700,2,0,P|161:324|179:323,1,48.7499977684022
279,369,45035,6,0,P|333:337|401:340,1,97.4999955368044
229,250,45706,2,0,P|185:229|136:230,1,97.4999955368044
52,250,46209,2,0,L|41:153,1,97.4999955368044
66,75,46710,2,0,P|92:73|127:78,1,48.7499977684022
209,18,47045,2,0,P|211:42|219:65,1,48.7499977684022
243,206,47379,2,0,P|245:181|253:158,1,48.7499977684022
342,69,47714,6,0,P|362:112|363:161,1,97.4999955368044
310,270,48383,2,0,P|392:246|437:260,1,97.4999955368044
506,130,49049,2,0,P|457:128|414:107,1,97.4999955368044
252,148,49715,1,0,0:0:0:0:
233,67,49882,2,0,L|241:186,1,97.4999955368044
146,58,50381,6,0,L|154:177,1,97.4999955368044
355,131,51047,2,0,P|289:109|234:127,1,97.4999955368044
395,219,51713,1,0,0:0:0:0:
323,224,51880,2,0,P|357:213|401:216,1,48.7499977684022
476,234,52213,2,0,L|479:289,1,48.7499977684022
326,142,52712,6,0,P|394:98|450:118,1,146.249993305207
465,201,53378,2,0,P|438:200|398:187,1,48.7499977684022
243,237,53711,2,0,P|269:236|310:223,1,48.7499977684022
337,45,54044,2,0,B|331:133|331:133|338:131|338:131|331:246,1,194.999991073609
500,345,55044,2,0,P|444:368|391:357,1,97.4999955368044
255,275,55710,6,0,P|294:236|386:262,1,146.249993305207
455,286,56377,2,0,L|462:208,1,48.7499977684022
416,129,56710,1,0,0:0:0:0:
486,169,56877,2,0,L|330:155,1,146.249993305207
224,164,57544,1,0,0:0:0:0:
261,98,57710,2,0,P|257:122|246:158,1,48.7499977684022
145,70,58044,2,0,P|138:46|135:22,1,48.7499977684022
325,47,58377,6,0,P|263:78|207:57,1,97.4999955368044
77,123,59044,2,0,P|139:154|195:133,1,97.4999955368044
322,216,59710,2,0,L|227:240,1,97.4999955368044
74,323,60377,2,0,L|100:228,1,97.4999955368044
46,92,61044,6,0,P|100:69|167:90,1,97.4999955368044
268,19,61710,2,0,P|322:42|389:21,1,97.4999955368044
445,11,62211,1,0,0:0:0:0:
480,72,62378,2,0,P|469:48|462:1,1,48.7499977684022
397,114,62711,2,0,P|390:137|381:159,1,48.7499977684022
306,222,63044,2,0,P|322:236|372:258,1,48.7499977684022
483,191,63378,6,0,P|443:239|414:321,1,146.249993305207
343,379,64044,2,0,L|321:317,1,48.7499977684022
256,227,64377,2,0,P|282:232|304:232,1,48.7499977684022
453,173,64710,2,0,P|426:178|405:178,1,48.7499977684022
289,96,65044,2,0,P|264:96|240:100,1,48.7499977684022
160,206,65377,2,0,P|135:205|111:201,1,48.7499977684022
52,131,65710,1,0,0:0:0:0:
106,63,65877,1,0,0:0:0:0:
50,148,66044,1,0,0:0:0:0:
179,122,66377,6,0,P|190:104|188:22,1,97.4999955368044
36,171,67044,2,0,L|141:208,1,97.4999955368044
221,273,67710,2,0,P|249:258|281:251,1,48.7499977684022
318,191,68044,1,0,0:0:0:0:
390,208,68210,2,0,P|361:193|330:186,1,48.7499977684022
241,141,68544,1,0,0:0:0:0:
169,158,68710,2,0,P|197:143|229:136,1,48.7499977684022
294,54,69044,6,0,P|346:75|415:66,1,97.4999955368044
499,192,69710,2,0,L|517:67,1,97.4999955368044
310,218,70377,2,0,P|390:215|415:194,1,97.4999955368044
290,22,71044,1,0,0:0:0:0:
274,32,71710,6,0,L|293:138,1,97.4999955368044
370,243,72377,2,0,L|264:224,1,97.4999955368044
179,328,73044,5,0,0:0:0:0:
178,84,73377,1,0,0:0:0:0:
368,208,73710,1,0,0:0:0:0:
137,261,74044,1,0,0:0:0:0:
122,255,74377,5,0,0:0:0:0:
336,192,75044,5,0,0:0:0:0:
176,112,75703,5,0,0:0:0:0:
352,208,76355,5,0,0:0:0:0:
235,212,77010,6,0,L|245:110,1,75
189,290,77670,2,0,P|227:302|262:299,1,75
391,353,78332,1,0,0:0:0:0:
457,316,78499,1,0,0:0:0:0:
379,229,78665,2,0,P|375:272|375:295,1,37.5
479,366,78999,2,0,P|475:322|475:300,1,37.5
368,222,79332,2,0,P|364:265|364:288,1,37.5
209,334,79669,6,0,L|308:327,1,75
361,364,80174,2,0,P|366:305|343:266,1,75
286,188,80846,1,0,0:0:0:0:
198,217,81013,2,0,L|297:210,1,75
121,178,81680,2,0,P|116:199|114:231,1,37.5
170,331,82013,2,0,P|167:312|163:294,1,37.5
16,322,82346,6,0,P|65:341|100:337,1,75
143,238,83013,1,0,0:0:0:0:
205,284,83180,1,0,0:0:0:0:
130,251,83346,2,0,L|125:197,1,37.5
223,153,83680,2,0,P|189:153|174:149,1,37.5
57,127,84013,2,0,P|76:126|95:128,1,37.5
220,53,84346,2,0,P|201:50|183:53,1,37.5
42,30,84680,2,0,P|61:29|80:31,1,37.5
185,152,85013,6,0,L|277:145,1,75
328,86,85513,2,0,P|350:156|341:182,1,75
310,218,86013,1,0,0:0:0:0:
304,231,86346,5,0,0:0:0:0:
467,294,86680,1,0,0:0:0:0:
268,143,87013,5,0,0:0:0:0:
102,267,87346,1,0,0:0:0:0:
371,285,87680,6,0,P|388:223|374:186,1,75
319,353,88346,2,0,P|381:370|418:356,1,75
488,344,89013,2,0,L|492:306,1,37.5
468,232,89346,1,0,0:0:0:0:
371,285,89513,2,0,L|356:186,1,75
313,143,90013,2,0,P|334:132|359:128,1,37.5
267,234,90346,6,0,L|177:227,1,75
119,166,90846,2,0,P|97:213|106:259,1,75
43,304,91346,2,0,L|-25:295,1,37.5
104,373,91680,2,0,L|166:360,1,37.5
203,302,92013,2,0,P|239:315|294:322,1,75
430,262,92680,2,0,L|476:256,1,37.5
369,326,93013,6,0,P|344:268|352:230,1,75
386,140,93680,1,0,0:0:0:0:
323,185,93847,1,0,0:0:0:0:
248,171,94013,2,0,P|223:165|194:161,1,37.5
110,196,94347,2,0,L|102:89,1,75
183,18,95013,1,0,0:0:0:0:
22,89,95347,1,0,0:0:0:0:
196,137,95680,6,0,P|225:131|280:124,1,75
358,157,96180,2,0,L|365:72,1,75
338,8,96680,1,0,0:0:0:0:
497,111,97013,5,0,0:0:0:0:
283,219,97347,1,0,0:0:0:0:
463,305,97680,5,0,0:0:0:0:
333,358,98013,1,0,0:0:0:0:
192,256,98347,5,0,0:0:0:0:
320,192,99013,5,0,0:0:0:0:
176,112,99680,5,0,0:0:0:0:
320,176,100347,5,0,0:0:0:0:
176,96,101013,5,0,0:0:0:0:
320,32,101680,5,0,0:0:0:0:
112,176,102347,5,0,0:0:0:0:
98,187,103013,2,0,L|93:236,2,37.5
