osu file format v14

[General]
AudioFilename: audio.mp3
AudioLeadIn: 0
PreviewTime: 53516
Countdown: 0
SampleSet: Drum
StackLeniency: 0.7
Mode: 3
LetterboxInBreaks: 0
SpecialStyle: 0
WidescreenStoryboard: 0

[Editor]
DistanceSpacing: 0.8
BeatDivisor: 4
GridSize: 8
TimelineZoom: 2.599999

[Metadata]
Title:Nijiiro Yuenchi
TitleUnicode:虹色遊園地
Artist:Mutsuhiko Izumi vs. DJ TOTTO
ArtistUnicode:Mutsuhiko Izumi vs. DJ TOTTO
Creator:Rivals_7
Version:Advanced
Source:BeatStream
Tags:ビートストリーム動画制作ラボ animtribe アニムトライヴ gitadora tri-boost re:evolve matixx bemani summer diary 2015 shinshun! omikuji 新春! ギタドラOMIKUJI video game instrumental nasu なす mayo mamiko maeda KONAMI
BeatmapID:2245025
BeatmapSetID:1072682

[Difficulty]
HPDrainRate:7.6
CircleSize:4
OverallDifficulty:7.6
ApproachRate:5
SliderMultiplier:1.4
SliderTickRate:1

[Events]
//Background and Video events
0,0,"700994.jpg",0,0
Video,0,"nijiiro.mp4"
//Break Periods
//Storyboard Layer 0 (Background)
//Storyboard Layer 1 (Fail)
//Storyboard Layer 2 (Pass)
//Storyboard Layer 3 (Foreground)
//Storyboard Layer 4 (Overlay)
//Storyboard Sound Samples

[TimingPoints]
1592,363.636363636364,4,3,1,65,1,0
1592,-75.187969924812,4,3,1,65,0,0
7410,304.568527918782,4,3,1,65,1,0
7410,-89.6057347670251,4,3,1,65,0,0
9143,304.568527918781,4,3,1,65,1,0
9143,-95.2380952380952,4,3,1,65,0,0
9884,272.727272727272,4,3,1,65,1,0
10289,272.727272727273,4,3,1,65,1,0
36470,-100,4,3,1,65,0,1
45198,-100,4,3,1,65,0,0
100834,-100,4,3,1,65,0,1
111743,-100,4,3,1,65,0,0
114198,-100,4,3,1,65,0,1
114470,-100,4,3,1,65,0,0

[HitObjects]
64,192,864,5,8,0:0:0:0:
448,192,864,1,0,0:0:0:0:
192,192,955,1,0,0:0:0:0:
320,192,1046,1,8,0:0:0:0:
64,192,1137,1,8,0:0:0:0:
192,192,1228,1,8,0:0:0:0:
320,192,1319,1,8,0:0:0:0:
448,192,1410,1,2,0:0:0:0:
192,192,1501,1,0,0:0:0:0:
320,192,1592,1,2,0:0:0:0:
448,192,1592,1,4,0:0:0:0:
192,192,1773,1,2,0:0:0:0:
320,192,1955,1,8,0:0:0:0:
64,192,2137,1,4,0:0:0:0:
448,192,2137,1,2,0:0:0:0:
192,192,2319,1,8,0:0:0:0:
320,192,2501,1,8,0:0:0:0:
192,192,2682,1,0,0:0:0:0:
64,192,2864,1,8,0:0:0:0:
320,192,3046,1,2,0:0:0:0:
448,192,3046,1,4,0:0:0:0:
192,192,3228,1,8,0:0:0:0:
64,192,3410,1,8,0:0:0:0:
320,192,3592,1,2,0:0:0:0:
448,192,3592,1,4,0:0:0:0:
192,192,3773,1,8,0:0:0:0:
64,192,3955,1,8,0:0:0:0:
320,192,4137,1,2,0:0:0:0:
192,192,4319,1,0,0:0:0:0:
320,192,4501,1,2,0:0:0:0:
448,192,4501,1,4,0:0:0:0:
192,192,4682,1,8,0:0:0:0:
448,192,4864,1,8,0:0:0:0:
64,192,5046,1,2,0:0:0:0:
192,192,5046,1,4,0:0:0:0:
320,192,5228,1,8,0:0:0:0:
448,192,5410,1,8,0:0:0:0:
64,192,5592,1,8,0:0:0:0:
192,192,5773,1,8,0:0:0:0:
320,192,5864,1,8,0:0:0:0:
64,192,5955,1,2,0:0:0:0:
448,192,5955,1,4,0:0:0:0:
192,192,6137,1,8,0:0:0:0:
320,192,6319,1,8,0:0:0:0:
192,192,6410,1,8,0:0:0:0:
64,192,6501,1,2,0:0:0:0:
448,192,6501,1,4,0:0:0:0:
320,192,6682,1,8,0:0:0:0:
448,192,6773,1,8,0:0:0:0:
192,192,6864,1,2,0:0:0:0:
64,192,7046,1,2,0:0:0:0:
320,192,7228,1,2,0:0:0:0:
192,192,7319,1,2,0:0:0:0:
64,192,7410,1,2,0:0:0:0:
448,192,7410,128,4,8451:0:0:0:0:
64,192,9143,1,8,0:0:0:0:
192,192,9143,1,4,0:0:0:0:
320,192,9447,1,4,0:0:0:0:
448,192,9447,1,8,0:0:0:0:
64,192,9599,1,8,0:0:0:0:
192,192,9599,1,4,0:0:0:0:
320,192,9884,1,2,0:0:0:0:
192,192,10020,1,2,0:0:0:0:
64,192,10156,1,2,0:0:0:0:
320,192,10289,1,2,0:0:0:0:
448,192,10289,1,4,0:0:0:0:
192,192,10425,1,0,0:0:0:0:
64,192,10561,1,8,0:0:0:0:
448,192,10561,1,0,0:0:0:0:
320,192,10698,1,0,0:0:0:0:
192,192,10834,1,2,0:0:0:0:
192,192,10970,1,2,0:0:0:0:
320,192,11107,1,8,0:0:0:0:
448,192,11107,1,0,0:0:0:0:
64,192,11243,1,0,0:0:0:0:
192,192,11379,1,2,0:0:0:0:
320,192,11516,1,2,0:0:0:0:
64,192,11652,1,8,0:0:0:0:
448,192,11652,1,0,0:0:0:0:
64,192,11789,1,8,0:0:0:0:
320,192,11925,1,2,0:0:0:0:
192,192,12061,1,2,0:0:0:0:
64,192,12198,1,8,0:0:0:0:
448,192,12198,1,0,0:0:0:0:
320,192,12334,1,2,0:0:0:0:
192,192,12470,1,2,0:0:0:0:
448,192,12607,1,0,0:0:0:0:
64,192,12743,1,8,0:0:0:0:
320,192,12743,1,0,0:0:0:0:
192,192,12879,1,0,0:0:0:0:
448,192,13016,1,2,0:0:0:0:
448,192,13152,1,2,0:0:0:0:
64,192,13289,1,8,0:0:0:0:
192,192,13289,1,0,0:0:0:0:
320,192,13425,128,0,13561:0:0:0:0:
64,192,13561,1,2,0:0:0:0:
64,192,13698,1,2,0:0:0:0:
320,192,13834,1,8,0:0:0:0:
448,192,13834,1,0,0:0:0:0:
192,192,13970,128,2,14107:0:0:0:0:
320,192,14107,1,8,0:0:0:0:
448,192,14107,1,0,0:0:0:0:
192,192,14243,1,2,0:0:0:0:
64,192,14379,1,2,0:0:0:0:
320,192,14516,1,2,0:0:0:0:
64,192,14652,1,2,0:0:0:0:
448,192,14652,1,4,0:0:0:0:
192,192,14789,1,0,0:0:0:0:
320,192,14925,1,8,0:0:0:0:
448,192,14925,1,0,0:0:0:0:
64,192,15061,1,0,0:0:0:0:
320,192,15198,1,2,0:0:0:0:
320,192,15334,1,2,0:0:0:0:
64,192,15470,1,8,0:0:0:0:
448,192,15470,1,0,0:0:0:0:
192,192,15607,1,0,0:0:0:0:
320,192,15743,1,2,0:0:0:0:
192,192,15879,1,2,0:0:0:0:
64,192,16016,1,8,0:0:0:0:
448,192,16016,1,0,0:0:0:0:
448,192,16152,1,8,0:0:0:0:
192,192,16289,1,2,0:0:0:0:
320,192,16425,1,2,0:0:0:0:
64,192,16561,1,8,0:0:0:0:
448,192,16561,1,0,0:0:0:0:
192,192,16698,1,0,0:0:0:0:
320,192,16834,1,2,0:0:0:0:
448,192,16834,1,4,0:0:0:0:
192,192,16970,1,2,0:0:0:0:
64,192,17107,1,8,0:0:0:0:
448,192,17107,1,0,0:0:0:0:
320,192,17379,128,2,17516:0:0:0:0:
192,192,17516,128,2,17652:0:0:0:0:
64,192,17652,1,8,0:0:0:0:
448,192,17652,1,4,0:0:0:0:
192,192,17925,1,4,0:0:0:0:
320,192,17925,1,8,0:0:0:0:
64,192,18061,128,2,18198:0:0:0:0:
192,192,18198,1,8,0:0:0:0:
448,192,18198,1,0,0:0:0:0:
320,192,18334,1,2,0:0:0:0:
64,192,18470,1,8,0:0:0:0:
448,192,18470,1,0,0:0:0:0:
192,192,18607,1,2,0:0:0:0:
320,192,18743,1,2,0:0:0:0:
448,192,18879,1,0,0:0:0:0:
64,192,19016,1,2,0:0:0:0:
192,192,19016,1,4,0:0:0:0:
320,192,19152,1,0,0:0:0:0:
64,192,19289,1,8,0:0:0:0:
448,192,19289,1,0,0:0:0:0:
192,192,19425,1,0,0:0:0:0:
320,192,19561,1,2,0:0:0:0:
320,192,19698,1,2,0:0:0:0:
64,192,19834,1,8,0:0:0:0:
192,192,19834,1,0,0:0:0:0:
448,192,19970,1,0,0:0:0:0:
320,192,20107,1,2,0:0:0:0:
192,192,20243,1,2,0:0:0:0:
64,192,20379,1,8,0:0:0:0:
448,192,20379,1,0,0:0:0:0:
448,192,20516,1,8,0:0:0:0:
192,192,20652,1,2,0:0:0:0:
320,192,20789,1,2,0:0:0:0:
64,192,20925,1,8,0:0:0:0:
448,192,20925,1,0,0:0:0:0:
192,192,21061,1,2,0:0:0:0:
320,192,21198,1,2,0:0:0:0:
64,192,21334,1,0,0:0:0:0:
192,192,21470,1,8,0:0:0:0:
448,192,21470,1,0,0:0:0:0:
320,192,21607,1,0,0:0:0:0:
64,192,21743,1,2,0:0:0:0:
64,192,21879,1,2,0:0:0:0:
320,192,22016,1,8,0:0:0:0:
448,192,22016,1,0,0:0:0:0:
192,192,22152,128,0,22289:0:0:0:0:
64,192,22289,1,8,0:0:0:0:
448,192,22289,1,4,0:0:0:0:
448,192,22425,1,2,0:0:0:0:
64,192,22561,1,8,0:0:0:0:
192,192,22561,1,4,0:0:0:0:
320,192,22698,1,2,0:0:0:0:
64,192,22834,1,4,0:0:0:0:
192,192,22834,1,8,0:0:0:0:
320,192,22970,128,8,23107:0:0:0:0:
64,192,23107,1,8,0:0:0:0:
448,192,23107,128,0,23243:0:0:0:0:
192,192,23243,128,8,23379:0:0:0:0:
64,192,23379,1,2,0:0:0:0:
448,192,23379,1,4,0:0:0:0:
320,192,23516,1,0,0:0:0:0:
64,192,23652,1,8,0:0:0:0:
192,192,23652,1,0,0:0:0:0:
448,192,23789,1,0,0:0:0:0:
192,192,23925,1,2,0:0:0:0:
192,192,24061,1,2,0:0:0:0:
64,192,24198,1,8,0:0:0:0:
448,192,24198,1,0,0:0:0:0:
320,192,24334,1,0,0:0:0:0:
64,192,24470,1,2,0:0:0:0:
192,192,24470,1,4,0:0:0:0:
320,192,24607,1,2,0:0:0:0:
64,192,24743,1,8,0:0:0:0:
448,192,24743,1,0,0:0:0:0:
64,192,24879,1,8,0:0:0:0:
320,192,25016,1,2,0:0:0:0:
192,192,25152,1,2,0:0:0:0:
64,192,25289,1,8,0:0:0:0:
448,192,25289,1,0,0:0:0:0:
320,192,25425,1,0,0:0:0:0:
64,192,25561,1,2,0:0:0:0:
192,192,25561,1,4,0:0:0:0:
320,192,25698,1,2,0:0:0:0:
64,192,25834,1,8,0:0:0:0:
448,192,25834,1,4,0:0:0:0:
192,192,26107,128,2,26243:0:0:0:0:
320,192,26243,128,2,26379:0:0:0:0:
64,192,26379,1,8,0:0:0:0:
448,192,26379,1,4,0:0:0:0:
192,192,26652,1,4,0:0:0:0:
320,192,26652,1,8,0:0:0:0:
448,192,26789,128,2,26925:0:0:0:0:
64,192,26925,1,8,0:0:0:0:
320,192,26925,1,0,0:0:0:0:
192,192,27061,1,2,0:0:0:0:
320,192,27198,1,2,0:0:0:0:
448,192,27198,1,0,0:0:0:0:
64,192,27334,128,2,27470:0:0:0:0:
192,192,27470,128,8,27607:0:0:0:0:
320,192,27607,128,2,27743:0:0:0:0:
64,192,27743,1,2,0:0:0:0:
448,192,27743,1,4,0:0:0:0:
192,192,27879,1,0,0:0:0:0:
320,192,28016,1,8,0:0:0:0:
448,192,28016,1,0,0:0:0:0:
192,192,28152,1,0,0:0:0:0:
64,192,28289,1,2,0:0:0:0:
320,192,28425,1,2,0:0:0:0:
64,192,28561,1,8,0:0:0:0:
448,192,28561,1,0,0:0:0:0:
192,192,28698,1,0,0:0:0:0:
320,192,28834,1,2,0:0:0:0:
192,192,28970,1,2,0:0:0:0:
64,192,29107,1,8,0:0:0:0:
448,192,29107,1,0,0:0:0:0:
320,192,29243,1,2,0:0:0:0:
192,192,29379,1,2,0:0:0:0:
320,192,29516,1,2,0:0:0:0:
64,192,29652,1,8,0:0:0:0:
448,192,29652,1,0,0:0:0:0:
192,192,29789,1,0,0:0:0:0:
320,192,29925,1,2,0:0:0:0:
448,192,29925,1,4,0:0:0:0:
64,192,30061,1,0,0:0:0:0:
192,192,30198,1,8,0:0:0:0:
320,192,30198,1,0,0:0:0:0:
448,192,30334,1,0,0:0:0:0:
192,192,30470,1,2,0:0:0:0:
64,192,30607,1,2,0:0:0:0:
320,192,30743,1,8,0:0:0:0:
448,192,30743,1,0,0:0:0:0:
192,192,30879,1,0,0:0:0:0:
64,192,31016,1,2,0:0:0:0:
448,192,31152,128,2,31289:0:0:0:0:
64,192,31289,1,8,0:0:0:0:
192,192,31289,1,0,0:0:0:0:
320,192,31425,1,2,0:0:0:0:
448,192,31561,1,2,0:0:0:0:
192,192,31698,1,2,0:0:0:0:
192,192,31834,1,2,0:0:0:0:
448,192,31970,1,2,0:0:0:0:
64,192,32107,1,2,0:0:0:0:
320,192,32107,1,4,0:0:0:0:
192,192,32243,1,0,0:0:0:0:
320,192,32379,1,8,0:0:0:0:
448,192,32379,1,0,0:0:0:0:
64,192,32516,1,0,0:0:0:0:
192,192,32652,1,2,0:0:0:0:
320,192,32789,1,2,0:0:0:0:
64,192,32925,1,8,0:0:0:0:
448,192,32925,1,0,0:0:0:0:
192,192,33061,1,0,0:0:0:0:
320,192,33198,1,2,0:0:0:0:
64,192,33334,1,2,0:0:0:0:
320,192,33470,1,8,0:0:0:0:
448,192,33470,1,0,0:0:0:0:
192,192,33607,1,2,0:0:0:0:
448,192,33743,1,2,0:0:0:0:
320,192,33879,1,2,0:0:0:0:
64,192,34016,1,8,0:0:0:0:
192,192,34016,1,0,0:0:0:0:
448,192,34152,1,8,0:0:0:0:
320,192,34220,1,8,0:0:0:0:
64,192,34289,1,2,0:0:0:0:
192,192,34289,1,4,0:0:0:0:
320,192,34425,1,2,0:0:0:0:
64,192,34561,1,8,0:0:0:0:
448,192,34561,1,4,0:0:0:0:
192,192,34698,1,0,0:0:0:0:
320,192,34834,1,2,0:0:0:0:
448,192,34834,1,4,0:0:0:0:
192,192,34970,1,2,0:0:0:0:
64,192,35107,1,8,0:0:0:0:
448,192,35107,1,4,0:0:0:0:
320,192,35243,1,0,0:0:0:0:
64,192,35379,1,2,0:0:0:0:
192,192,35379,1,4,0:0:0:0:
320,192,35516,1,8,0:0:0:0:
192,192,35584,1,8,0:0:0:0:
64,192,35652,1,8,0:0:0:0:
448,192,35652,1,0,0:0:0:0:
320,192,35789,1,8,0:0:0:0:
64,192,35925,1,8,0:0:0:0:
192,192,35925,1,0,0:0:0:0:
320,192,36061,1,2,0:0:0:0:
448,192,36198,1,2,0:0:0:0:
192,192,36334,1,2,0:0:0:0:
64,192,36470,1,2,0:0:0:0:
448,192,36470,1,4,0:0:0:0:
320,192,36607,1,2,0:0:0:0:
64,192,36743,1,8,0:0:0:0:
448,192,36743,1,0,0:0:0:0:
192,192,36879,1,2,0:0:0:0:
320,192,37016,1,2,0:0:0:0:
320,192,37152,1,2,0:0:0:0:
64,192,37289,1,8,0:0:0:0:
192,192,37289,1,0,0:0:0:0:
448,192,37425,1,0,0:0:0:0:
320,192,37561,1,2,0:0:0:0:
192,192,37698,1,2,0:0:0:0:
64,192,37834,1,8,0:0:0:0:
448,192,37834,1,0,0:0:0:0:
320,192,37970,1,8,0:0:0:0:
192,192,38107,1,2,0:0:0:0:
192,192,38243,1,2,0:0:0:0:
64,192,38379,1,8,0:0:0:0:
448,192,38379,1,0,0:0:0:0:
192,192,38516,1,2,0:0:0:0:
320,192,38652,1,2,0:0:0:0:
448,192,38652,1,4,0:0:0:0:
64,192,38789,1,2,0:0:0:0:
192,192,38925,1,8,0:0:0:0:
448,192,38925,1,0,0:0:0:0:
320,192,39061,1,2,0:0:0:0:
64,192,39198,1,2,0:0:0:0:
64,192,39334,1,2,0:0:0:0:
320,192,39470,1,8,0:0:0:0:
448,192,39470,1,0,0:0:0:0:
192,192,39607,128,0,39743:0:0:0:0:
448,192,39743,1,2,0:0:0:0:
448,192,39879,1,2,0:0:0:0:
64,192,40016,1,8,0:0:0:0:
192,192,40016,1,0,0:0:0:0:
320,192,40152,1,2,0:0:0:0:
192,192,40289,1,2,0:0:0:0:
320,192,40425,1,2,0:0:0:0:
64,192,40561,1,8,0:0:0:0:
448,192,40561,1,0,0:0:0:0:
192,192,40698,1,2,0:0:0:0:
64,192,40834,1,4,0:0:0:0:
448,192,40834,1,2,0:0:0:0:
320,192,40970,1,2,0:0:0:0:
64,192,41107,1,8,0:0:0:0:
192,192,41107,1,0,0:0:0:0:
448,192,41243,1,2,0:0:0:0:
192,192,41379,1,2,0:0:0:0:
192,192,41516,1,2,0:0:0:0:
64,192,41652,1,8,0:0:0:0:
448,192,41652,1,0,0:0:0:0:
320,192,41789,1,0,0:0:0:0:
192,192,41925,1,2,0:0:0:0:
320,192,42061,1,2,0:0:0:0:
64,192,42198,1,8,0:0:0:0:
448,192,42198,1,0,0:0:0:0:
192,192,42334,1,2,0:0:0:0:
320,192,42470,1,2,0:0:0:0:
320,192,42607,1,2,0:0:0:0:
64,192,42743,1,8,0:0:0:0:
448,192,42743,1,0,0:0:0:0:
320,192,42879,1,2,0:0:0:0:
64,192,43016,1,4,0:0:0:0:
192,192,43016,1,2,0:0:0:0:
320,192,43152,1,2,0:0:0:0:
64,192,43289,1,8,0:0:0:0:
448,192,43289,1,0,0:0:0:0:
192,192,43561,128,2,43698:0:0:0:0:
320,192,43698,128,2,43834:0:0:0:0:
64,192,43834,1,8,0:0:0:0:
448,192,43834,1,4,0:0:0:0:
64,192,44107,1,8,0:0:0:0:
320,192,44107,1,4,0:0:0:0:
448,192,44243,1,2,0:0:0:0:
192,192,44379,1,8,0:0:0:0:
320,192,44516,1,2,0:0:0:0:
64,192,44652,1,2,0:0:0:0:
448,192,44652,1,0,0:0:0:0:
192,192,44789,1,2,0:0:0:0:
320,192,44925,1,2,0:0:0:0:
448,192,44925,1,4,0:0:0:0:
64,192,45198,1,2,0:0:0:0:
192,192,45198,1,4,0:0:0:0:
320,192,45334,1,2,0:0:0:0:
64,192,45470,1,8,0:0:0:0:
448,192,45470,1,0,0:0:0:0:
192,192,45607,1,2,0:0:0:0:
320,192,45743,1,2,0:0:0:0:
64,192,45879,1,2,0:0:0:0:
192,192,46016,1,2,0:0:0:0:
448,192,46152,1,2,0:0:0:0:
192,192,46289,1,2,0:0:0:0:
448,192,46425,1,2,0:0:0:0:
64,192,46561,1,2,0:0:0:0:
320,192,46698,1,2,0:0:0:0:
448,192,46834,1,2,0:0:0:0:
192,192,46970,1,2,0:0:0:0:
64,192,47107,1,8,0:0:0:0:
448,192,47107,1,0,0:0:0:0:
320,192,47243,1,2,0:0:0:0:
192,192,47379,1,2,0:0:0:0:
64,192,47516,1,0,0:0:0:0:
320,192,47652,1,8,0:0:0:0:
448,192,47652,1,0,0:0:0:0:
192,192,47789,1,2,0:0:0:0:
64,192,47925,1,2,0:0:0:0:
320,192,48061,1,2,0:0:0:0:
448,192,48198,1,2,0:0:0:0:
192,192,48334,1,2,0:0:0:0:
320,192,48470,1,2,0:0:0:0:
448,192,48470,1,0,0:0:0:0:
320,192,48607,1,2,0:0:0:0:
64,192,48743,1,2,0:0:0:0:
192,192,48743,1,0,0:0:0:0:
192,192,48879,1,2,0:0:0:0:
64,192,49016,1,2,0:0:0:0:
448,192,49016,1,0,0:0:0:0:
448,192,49152,1,2,0:0:0:0:
64,192,49289,1,8,0:0:0:0:
320,192,49289,1,0,0:0:0:0:
64,192,49425,1,8,0:0:0:0:
448,192,49425,1,0,0:0:0:0:
192,192,49561,1,4,0:0:0:0:
448,192,49561,1,2,0:0:0:0:
320,192,49698,1,2,0:0:0:0:
64,192,49834,1,8,0:0:0:0:
192,192,49834,1,0,0:0:0:0:
448,192,49970,1,2,0:0:0:0:
320,192,50107,1,2,0:0:0:0:
64,192,50243,1,2,0:0:0:0:
192,192,50379,1,2,0:0:0:0:
448,192,50516,1,2,0:0:0:0:
192,192,50652,1,2,0:0:0:0:
448,192,50789,1,2,0:0:0:0:
64,192,50925,1,2,0:0:0:0:
192,192,51061,1,2,0:0:0:0:
320,192,51198,1,2,0:0:0:0:
448,192,51334,1,2,0:0:0:0:
64,192,51470,1,8,0:0:0:0:
192,192,51470,1,0,0:0:0:0:
320,192,51607,1,2,0:0:0:0:
448,192,51743,1,2,0:0:0:0:
192,192,51879,1,0,0:0:0:0:
64,192,52016,1,8,0:0:0:0:
448,192,52016,1,0,0:0:0:0:
320,192,52152,1,2,0:0:0:0:
192,192,52289,1,2,0:0:0:0:
64,192,52425,1,2,0:0:0:0:
320,192,52561,1,2,0:0:0:0:
64,192,52698,1,8,0:0:0:0:
448,192,52698,1,0,0:0:0:0:
192,192,52970,1,2,0:0:0:0:
320,192,52970,1,4,0:0:0:0:
192,192,53243,1,2,0:0:0:0:
320,192,53243,1,4,0:0:0:0:
192,192,53516,1,4,0:0:0:0:
320,192,53516,1,2,0:0:0:0:
64,192,53652,1,8,0:0:0:0:
448,192,53743,1,8,0:0:0:0:
320,192,53834,1,8,0:0:0:0:
64,192,53925,1,2,0:0:0:0:
192,192,53925,1,4,0:0:0:0:
320,192,54061,1,0,0:0:0:0:
64,192,54198,1,8,0:0:0:0:
448,192,54198,1,0,0:0:0:0:
192,192,54334,1,0,0:0:0:0:
320,192,54470,1,2,0:0:0:0:
320,192,54607,1,2,0:0:0:0:
64,192,54743,1,8,0:0:0:0:
192,192,54743,1,0,0:0:0:0:
448,192,54879,1,0,0:0:0:0:
320,192,55016,1,2,0:0:0:0:
192,192,55152,1,2,0:0:0:0:
64,192,55289,1,8,0:0:0:0:
448,192,55289,1,0,0:0:0:0:
448,192,55425,1,8,0:0:0:0:
192,192,55561,1,2,0:0:0:0:
320,192,55698,1,2,0:0:0:0:
64,192,55834,1,8,0:0:0:0:
448,192,55834,1,0,0:0:0:0:
192,192,55970,1,2,0:0:0:0:
320,192,56107,1,2,0:0:0:0:
64,192,56243,1,0,0:0:0:0:
192,192,56379,1,8,0:0:0:0:
448,192,56379,1,0,0:0:0:0:
320,192,56516,1,0,0:0:0:0:
64,192,56652,1,2,0:0:0:0:
64,192,56789,1,2,0:0:0:0:
320,192,56925,1,8,0:0:0:0:
448,192,56925,1,0,0:0:0:0:
192,192,57061,1,0,0:0:0:0:
448,192,57198,1,2,0:0:0:0:
448,192,57334,1,2,0:0:0:0:
64,192,57470,1,8,0:0:0:0:
192,192,57470,1,0,0:0:0:0:
320,192,57607,128,2,57743:0:0:0:0:
64,192,57743,1,8,0:0:0:0:
192,192,57743,1,0,0:0:0:0:
320,192,57879,1,2,0:0:0:0:
448,192,58016,1,2,0:0:0:0:
192,192,58152,1,2,0:0:0:0:
64,192,58289,1,4,0:0:0:0:
448,192,58289,1,2,0:0:0:0:
320,192,58425,1,0,0:0:0:0:
64,192,58561,1,8,0:0:0:0:
192,192,58561,1,0,0:0:0:0:
448,192,58698,1,0,0:0:0:0:
192,192,58834,1,2,0:0:0:0:
192,192,58970,1,2,0:0:0:0:
64,192,59107,1,8,0:0:0:0:
448,192,59107,1,0,0:0:0:0:
320,192,59243,1,0,0:0:0:0:
192,192,59379,1,2,0:0:0:0:
320,192,59516,1,2,0:0:0:0:
64,192,59652,1,8,0:0:0:0:
448,192,59652,1,0,0:0:0:0:
64,192,59789,1,8,0:0:0:0:
320,192,59925,1,2,0:0:0:0:
192,192,60061,1,2,0:0:0:0:
64,192,60198,1,8,0:0:0:0:
448,192,60198,1,0,0:0:0:0:
320,192,60334,1,0,0:0:0:0:
64,192,60470,1,4,0:0:0:0:
192,192,60470,1,2,0:0:0:0:
320,192,60607,1,2,0:0:0:0:
64,192,60743,1,8,0:0:0:0:
448,192,60743,1,4,0:0:0:0:
192,192,61016,128,2,61152:0:0:0:0:
320,192,61152,128,2,61289:0:0:0:0:
64,192,61289,1,8,0:0:0:0:
448,192,61289,1,4,0:0:0:0:
192,192,61561,1,8,0:0:0:0:
320,192,61561,1,4,0:0:0:0:
448,192,61698,128,2,61834:0:0:0:0:
64,192,61834,1,8,0:0:0:0:
320,192,61834,1,0,0:0:0:0:
192,192,61970,1,2,0:0:0:0:
64,192,62107,1,8,0:0:0:0:
448,192,62107,1,0,0:0:0:0:
320,192,62243,1,2,0:0:0:0:
192,192,62379,1,2,0:0:0:0:
64,192,62516,1,0,0:0:0:0:
320,192,62652,1,4,0:0:0:0:
448,192,62652,1,2,0:0:0:0:
192,192,62789,1,2,0:0:0:0:
64,192,62925,1,8,0:0:0:0:
448,192,62925,1,0,0:0:0:0:
320,192,63061,1,0,0:0:0:0:
192,192,63198,1,2,0:0:0:0:
192,192,63334,1,2,0:0:0:0:
320,192,63470,1,8,0:0:0:0:
448,192,63470,1,0,0:0:0:0:
64,192,63607,1,0,0:0:0:0:
192,192,63743,1,2,0:0:0:0:
320,192,63879,1,2,0:0:0:0:
64,192,64016,1,8,0:0:0:0:
448,192,64016,1,0,0:0:0:0:
64,192,64152,1,8,0:0:0:0:
320,192,64289,1,2,0:0:0:0:
192,192,64425,1,2,0:0:0:0:
64,192,64561,1,8,0:0:0:0:
448,192,64561,1,0,0:0:0:0:
320,192,64698,1,0,0:0:0:0:
64,192,64834,1,2,0:0:0:0:
192,192,64834,1,4,0:0:0:0:
448,192,64970,1,2,0:0:0:0:
64,192,65107,1,8,0:0:0:0:
320,192,65107,1,0,0:0:0:0:
192,192,65243,1,0,0:0:0:0:
448,192,65379,1,2,0:0:0:0:
448,192,65516,1,2,0:0:0:0:
64,192,65652,1,8,0:0:0:0:
192,192,65652,1,0,0:0:0:0:
320,192,65789,1,2,0:0:0:0:
64,192,65925,1,4,0:0:0:0:
448,192,65925,1,8,0:0:0:0:
192,192,66061,1,2,0:0:0:0:
320,192,66198,1,4,0:0:0:0:
448,192,66198,1,8,0:0:0:0:
192,192,66334,1,2,0:0:0:0:
64,192,66470,128,8,66743:0:0:0:0:
448,192,66470,1,0,0:0:0:0:
320,192,66743,128,2,67016:0:0:0:0:
64,192,67016,1,4,0:0:0:0:
448,192,67016,1,2,0:0:0:0:
192,192,67152,1,2,0:0:0:0:
320,192,67289,1,8,0:0:0:0:
448,192,67289,1,0,0:0:0:0:
64,192,67425,1,0,0:0:0:0:
320,192,67561,1,2,0:0:0:0:
320,192,67698,1,2,0:0:0:0:
64,192,67834,1,8,0:0:0:0:
448,192,67834,1,0,0:0:0:0:
192,192,67970,1,0,0:0:0:0:
320,192,68107,1,4,0:0:0:0:
448,192,68107,1,2,0:0:0:0:
192,192,68243,1,2,0:0:0:0:
64,192,68379,1,8,0:0:0:0:
448,192,68379,1,0,0:0:0:0:
448,192,68516,1,8,0:0:0:0:
192,192,68652,1,2,0:0:0:0:
320,192,68789,1,2,0:0:0:0:
64,192,68925,1,8,0:0:0:0:
448,192,68925,1,0,0:0:0:0:
192,192,69061,1,0,0:0:0:0:
320,192,69198,1,4,0:0:0:0:
448,192,69198,1,2,0:0:0:0:
192,192,69334,1,2,0:0:0:0:
64,192,69470,1,8,0:0:0:0:
448,192,69470,1,4,0:0:0:0:
320,192,69743,128,2,69879:0:0:0:0:
192,192,69879,128,2,70016:0:0:0:0:
64,192,70016,1,8,0:0:0:0:
448,192,70016,1,4,0:0:0:0:
192,192,70289,1,8,0:0:0:0:
320,192,70289,1,4,0:0:0:0:
64,192,70425,128,2,70561:0:0:0:0:
192,192,70561,1,8,0:0:0:0:
448,192,70561,1,0,0:0:0:0:
320,192,70698,1,2,0:0:0:0:
64,192,70834,1,2,0:0:0:0:
192,192,70834,1,0,0:0:0:0:
448,192,70970,128,2,71107:0:0:0:0:
64,192,71107,128,8,71243:0:0:0:0:
192,192,71107,1,0,0:0:0:0:
320,192,71243,128,2,71379:0:0:0:0:
192,192,71379,1,4,0:0:0:0:
448,192,71379,1,2,0:0:0:0:
320,192,71516,1,2,0:0:0:0:
64,192,71652,1,8,0:0:0:0:
192,192,71652,1,0,0:0:0:0:
320,192,71789,1,2,0:0:0:0:
448,192,71925,1,2,0:0:0:0:
192,192,72061,1,2,0:0:0:0:
64,192,72198,1,8,0:0:0:0:
448,192,72198,1,0,0:0:0:0:
320,192,72334,1,2,0:0:0:0:
192,192,72470,1,2,0:0:0:0:
320,192,72607,1,2,0:0:0:0:
64,192,72743,1,8,0:0:0:0:
448,192,72743,1,0,0:0:0:0:
192,192,72879,1,2,0:0:0:0:
320,192,73016,1,2,0:0:0:0:
192,192,73152,1,2,0:0:0:0:
64,192,73289,1,8,0:0:0:0:
448,192,73289,1,0,0:0:0:0:
320,192,73425,1,2,0:0:0:0:
64,192,73561,1,2,0:0:0:0:
192,192,73561,1,4,0:0:0:0:
448,192,73698,1,2,0:0:0:0:
192,192,73834,1,8,0:0:0:0:
320,192,73834,1,0,0:0:0:0:
64,192,73970,1,2,0:0:0:0:
320,192,74107,1,2,0:0:0:0:
448,192,74243,1,2,0:0:0:0:
64,192,74379,1,8,0:0:0:0:
192,192,74379,1,0,0:0:0:0:
320,192,74516,1,2,0:0:0:0:
448,192,74652,1,2,0:0:0:0:
64,192,74789,128,2,74925:0:0:0:0:
320,192,74925,1,8,0:0:0:0:
448,192,74925,1,0,0:0:0:0:
192,192,75061,1,2,0:0:0:0:
64,192,75198,1,2,0:0:0:0:
320,192,75334,1,2,0:0:0:0:
64,192,75470,1,8,0:0:0:0:
448,192,75470,1,0,0:0:0:0:
192,192,75607,1,2,0:0:0:0:
64,192,75743,1,2,0:0:0:0:
448,192,75743,1,4,0:0:0:0:
320,192,75879,1,2,0:0:0:0:
64,192,76016,1,8,0:0:0:0:
192,192,76016,1,0,0:0:0:0:
448,192,76152,1,2,0:0:0:0:
320,192,76289,1,2,0:0:0:0:
192,192,76425,1,2,0:0:0:0:
64,192,76561,1,8,0:0:0:0:
448,192,76561,1,0,0:0:0:0:
320,192,76698,1,2,0:0:0:0:
192,192,76834,1,2,0:0:0:0:
448,192,76970,1,2,0:0:0:0:
64,192,77107,1,8,0:0:0:0:
192,192,77107,1,0,0:0:0:0:
320,192,77243,1,2,0:0:0:0:
64,192,77379,1,2,0:0:0:0:
192,192,77516,1,2,0:0:0:0:
320,192,77652,1,8,0:0:0:0:
448,192,77652,1,0,0:0:0:0:
64,192,77789,1,2,0:0:0:0:
320,192,77925,1,2,0:0:0:0:
448,192,77925,128,4,79016:0:0:0:0:
192,192,80516,1,0,0:0:0:0:
64,192,80754,1,0,0:0:0:0:
320,192,81164,1,0,0:0:0:0:
448,192,81402,1,0,0:0:0:0:
192,192,81879,1,0,0:0:0:0:
320,192,82152,1,0,0:0:0:0:
64,192,82664,1,0,0:0:0:0:
192,192,83107,1,0,0:0:0:0:
320,192,83243,1,0,0:0:0:0:
448,192,83379,128,0,85016:0:0:0:0:
64,192,85561,1,0,0:0:0:0:
320,192,85561,1,0,0:0:0:0:
448,192,85698,1,0,0:0:0:0:
192,192,85834,1,0,0:0:0:0:
320,192,85970,1,0,0:0:0:0:
64,192,86107,128,0,86379:0:0:0:0:
320,192,86379,128,0,86652:0:0:0:0:
64,192,86652,1,0,0:0:0:0:
448,192,86652,1,0,0:0:0:0:
192,192,86789,1,0,0:0:0:0:
320,192,86925,1,0,0:0:0:0:
448,192,87061,1,0,0:0:0:0:
64,192,87198,128,0,87470:0:0:0:0:
448,192,87470,128,0,87743:0:0:0:0:
64,192,87743,1,0,0:0:0:0:
320,192,87743,1,0,0:0:0:0:
192,192,87879,1,0,0:0:0:0:
448,192,88016,1,0,0:0:0:0:
320,192,88152,1,0,0:0:0:0:
192,192,88289,128,0,88561:0:0:0:0:
448,192,88561,128,0,88834:0:0:0:0:
64,192,88834,1,0,0:0:0:0:
320,192,88834,1,0,0:0:0:0:
192,192,88970,1,0,0:0:0:0:
448,192,89107,1,0,0:0:0:0:
64,192,89243,1,0,0:0:0:0:
192,192,89379,128,0,89652:0:0:0:0:
448,192,89652,128,0,89925:0:0:0:0:
64,192,89925,1,2,0:0:0:0:
320,192,89925,1,4,0:0:0:0:
192,192,90470,1,4,0:0:0:0:
448,192,90470,1,0,0:0:0:0:
192,192,91016,1,4,0:0:0:0:
320,192,91016,1,2,0:0:0:0:
448,192,91561,128,0,91834:0:0:0:0:
192,192,91698,1,0,0:0:0:0:
64,192,91834,128,0,92107:0:0:0:0:
320,192,91970,1,0,0:0:0:0:
192,192,92107,1,2,0:0:0:0:
448,192,92107,1,0,0:0:0:0:
320,192,92243,1,0,0:0:0:0:
64,192,92379,1,0,0:0:0:0:
448,192,92516,128,0,92652:0:0:0:0:
192,192,92789,128,0,92925:0:0:0:0:
320,192,92925,1,0,0:0:0:0:
64,192,93061,1,0,0:0:0:0:
320,192,93198,1,0,0:0:0:0:
448,192,93334,1,0,0:0:0:0:
192,192,93470,1,0,0:0:0:0:
320,192,93607,128,0,93743:0:0:0:0:
64,192,93879,128,0,94016:0:0:0:0:
448,192,94016,1,0,0:0:0:0:
320,192,94152,1,0,0:0:0:0:
192,192,94289,1,0,0:0:0:0:
448,192,94425,1,0,0:0:0:0:
64,192,94561,1,0,0:0:0:0:
320,192,94698,128,0,94834:0:0:0:0:
192,192,94970,128,0,95107:0:0:0:0:
448,192,95107,1,0,0:0:0:0:
64,192,95243,1,0,0:0:0:0:
192,192,95311,1,0,0:0:0:0:
320,192,95379,1,0,0:0:0:0:
64,192,95516,1,0,0:0:0:0:
448,192,95652,1,0,0:0:0:0:
192,192,95789,1,0,0:0:0:0:
320,192,95925,1,0,0:0:0:0:
448,192,96061,1,0,0:0:0:0:
64,192,96198,1,0,0:0:0:0:
192,192,96334,1,0,0:0:0:0:
320,192,96470,1,0,0:0:0:0:
448,192,96607,1,0,0:0:0:0:
192,192,96743,1,0,0:0:0:0:
64,192,96879,128,0,97016:0:0:0:0:
320,192,97152,128,0,97289:0:0:0:0:
192,192,97289,1,0,0:0:0:0:
448,192,97425,1,0,0:0:0:0:
192,192,97561,1,0,0:0:0:0:
64,192,97698,1,0,0:0:0:0:
320,192,97834,1,0,0:0:0:0:
192,192,97970,128,0,98107:0:0:0:0:
448,192,98243,128,0,98379:0:0:0:0:
64,192,98379,1,0,0:0:0:0:
192,192,98516,1,0,0:0:0:0:
320,192,98652,1,2,0:0:0:0:
448,192,98652,1,4,0:0:0:0:
64,192,98789,1,0,0:0:0:0:
320,192,98925,1,0,0:0:0:0:
64,192,99198,1,2,0:0:0:0:
448,192,99198,1,4,0:0:0:0:
320,192,99334,1,0,0:0:0:0:
64,192,99470,1,0,0:0:0:0:
320,192,99607,1,8,0:0:0:0:
192,192,99675,1,8,0:0:0:0:
64,192,99743,1,2,0:0:0:0:
448,192,99743,1,4,0:0:0:0:
320,192,99879,1,2,0:0:0:0:
64,192,100016,1,8,0:0:0:0:
192,192,100016,1,0,0:0:0:0:
448,192,100152,1,2,0:0:0:0:
64,192,100289,1,8,0:0:0:0:
192,192,100289,128,0,100425:0:0:0:0:
320,192,100425,128,8,100561:0:0:0:0:
64,192,100561,1,8,0:0:0:0:
192,192,100561,128,0,100698:0:0:0:0:
320,192,100698,128,8,100834:0:0:0:0:
64,192,100834,1,2,0:0:0:0:
448,192,100834,1,4,0:0:0:0:
192,192,100970,1,2,0:0:0:0:
320,192,101107,1,8,0:0:0:0:
64,192,101243,1,2,0:0:0:0:
192,192,101379,1,2,0:0:0:0:
320,192,101516,1,2,0:0:0:0:
64,192,101652,1,8,0:0:0:0:
448,192,101652,1,0,0:0:0:0:
192,192,101789,1,2,0:0:0:0:
64,192,101925,1,2,0:0:0:0:
320,192,101925,1,4,0:0:0:0:
448,192,102061,1,2,0:0:0:0:
64,192,102198,1,8,0:0:0:0:
192,192,102198,1,0,0:0:0:0:
320,192,102334,1,2,0:0:0:0:
448,192,102470,1,2,0:0:0:0:
192,192,102607,1,2,0:0:0:0:
320,192,102743,1,8,0:0:0:0:
448,192,102743,1,0,0:0:0:0:
192,192,102879,1,2,0:0:0:0:
64,192,103016,1,2,0:0:0:0:
448,192,103016,1,4,0:0:0:0:
320,192,103152,1,2,0:0:0:0:
64,192,103289,1,8,0:0:0:0:
192,192,103289,1,0,0:0:0:0:
320,192,103425,1,2,0:0:0:0:
448,192,103561,1,2,0:0:0:0:
192,192,103698,1,2,0:0:0:0:
64,192,103834,1,8,0:0:0:0:
320,192,103834,1,0,0:0:0:0:
448,192,103970,1,2,0:0:0:0:
64,192,104107,1,4,0:0:0:0:
192,192,104107,1,2,0:0:0:0:
320,192,104243,1,8,0:0:0:0:
192,192,104311,1,8,0:0:0:0:
64,192,104379,1,8,0:0:0:0:
448,192,104379,1,0,0:0:0:0:
320,192,104516,1,8,0:0:0:0:
192,192,104652,1,0,0:0:0:0:
64,192,104652,1,8,0:0:0:0:
448,192,104789,1,2,0:0:0:0:
320,192,104925,1,2,0:0:0:0:
192,192,105061,1,2,0:0:0:0:
64,192,105198,1,2,0:0:0:0:
448,192,105198,1,4,0:0:0:0:
320,192,105334,1,2,0:0:0:0:
64,192,105470,1,8,0:0:0:0:
192,192,105470,1,0,0:0:0:0:
448,192,105607,1,2,0:0:0:0:
320,192,105743,1,2,0:0:0:0:
192,192,105879,1,2,0:0:0:0:
64,192,106016,1,8,0:0:0:0:
448,192,106016,1,0,0:0:0:0:
320,192,106152,1,2,0:0:0:0:
192,192,106289,1,2,0:0:0:0:
448,192,106289,1,4,0:0:0:0:
64,192,106425,1,2,0:0:0:0:
320,192,106561,1,8,0:0:0:0:
448,192,106561,1,0,0:0:0:0:
192,192,106698,1,2,0:0:0:0:
64,192,106834,1,2,0:0:0:0:
320,192,106970,1,2,0:0:0:0:
64,192,107107,1,8,0:0:0:0:
192,192,107107,1,0,0:0:0:0:
320,192,107243,1,2,0:0:0:0:
64,192,107379,1,4,0:0:0:0:
448,192,107379,1,2,0:0:0:0:
192,192,107516,1,2,0:0:0:0:
320,192,107652,1,8,0:0:0:0:
448,192,107652,1,0,0:0:0:0:
192,192,107789,1,2,0:0:0:0:
64,192,107925,1,2,0:0:0:0:
320,192,108061,1,2,0:0:0:0:
192,192,108198,1,8,0:0:0:0:
448,192,108198,1,0,0:0:0:0:
64,192,108334,1,2,0:0:0:0:
320,192,108470,1,2,0:0:0:0:
448,192,108470,1,4,0:0:0:0:
192,192,108607,1,2,0:0:0:0:
64,192,108743,1,8,0:0:0:0:
320,192,108743,1,0,0:0:0:0:
192,192,108879,1,8,0:0:0:0:
448,192,108879,1,0,0:0:0:0:
320,192,109016,1,8,0:0:0:0:
192,192,109084,1,8,0:0:0:0:
64,192,109152,1,8,0:0:0:0:
320,192,109220,1,8,0:0:0:0:
448,192,109289,1,2,0:0:0:0:
192,192,109425,1,2,0:0:0:0:
320,192,109561,1,2,0:0:0:0:
448,192,109561,128,4,109834:0:0:0:0:
64,192,109834,128,8,110107:0:0:0:0:
192,192,109834,1,4,0:0:0:0:
320,192,110107,128,6,110379:0:0:0:0:
64,192,110379,1,4,0:0:0:0:
192,192,110379,128,8,110652:0:0:0:0:
448,192,110652,128,6,110925:0:0:0:0:
64,192,110925,128,8,111198:0:0:0:0:
320,192,110925,1,4,0:0:0:0:
448,192,111198,128,6,111470:0:0:0:0:
64,192,111470,128,4,111743:0:0:0:0:
192,192,111470,1,8,0:0:0:0:
448,192,111743,128,2,111879:0:0:0:0:
320,192,111879,128,2,112016:0:0:0:0:
64,192,112016,128,2,112152:0:0:0:0:
192,192,112152,128,2,112289:0:0:0:0:
320,192,112289,128,2,112425:0:0:0:0:
448,192,112425,128,2,112561:0:0:0:0:
64,192,112561,128,2,112698:0:0:0:0:
192,192,112698,128,2,112834:0:0:0:0:
320,192,112834,1,8,0:0:0:0:
448,192,112834,1,0,0:0:0:0:
192,192,112970,1,8,0:0:0:0:
64,192,113107,1,8,0:0:0:0:
320,192,113243,1,8,0:0:0:0:
448,192,113243,1,0,0:0:0:0:
64,192,113516,1,8,0:0:0:0:
192,192,113516,1,0,0:0:0:0:
320,192,113789,1,8,0:0:0:0:
448,192,113789,1,0,0:0:0:0:
64,192,114061,1,8,0:0:0:0:
192,192,114061,1,0,0:0:0:0:
320,192,114198,1,8,0:0:0:0:
448,192,114198,128,4,115970:0:0:0:0:
64,192,116107,1,8,0:0:0:0:
192,192,116107,1,0,0:0:0:0:
320,192,116175,1,2,0:0:0:0:
448,192,116243,1,2,0:0:0:0:
