osu file format v14

[General]
AudioFilename: audio.mp3
AudioLeadIn: 0
PreviewTime: 14489
Countdown: 0
SampleSet: None
StackLeniency: 0.3
Mode: 0
LetterboxInBreaks: 0
WidescreenStoryboard: 1

[Editor]
DistanceSpacing: 1.5
BeatDivisor: 4
GridSize: 8
TimelineZoom: 2.4

[Metadata]
Title:Snow Goose
TitleUnicode:Snow Goose
Artist:Mutsuhiko Izumi
ArtistUnicode:Mutsuhiko Izumi
Creator:emu1337
Version:CS0
Source:jubeat
Tags:
BeatmapID:2254774
BeatmapSetID:1068355

[Difficulty]
HPDrainRate:4
CircleSize:0
OverallDifficulty:8
ApproachRate:9
SliderMultiplier:1.5
SliderTickRate:1

[Events]
//Background and Video events
0,0,"khak6z0f1kr31.png",0,0
//Break Periods
//Storyboard Layer 0 (Background)
//Storyboard Layer 1 (Fail)
//Storyboard Layer 2 (Pass)
//Storyboard Layer 3 (Foreground)
//Storyboard Layer 4 (Overlay)
//Storyboard Sound Samples

[TimingPoints]
2559,300,4,2,0,75,1,0
2559,-133.333333333333,4,2,0,75,0,0
6834,-100,4,2,0,75,0,0
7059,-133.333333333333,4,2,0,75,0,0
8559,-100,4,2,0,75,0,0
12834,-76.9230769230769,4,2,0,75,0,0
13059,-100,4,2,0,75,0,0
14559,-100,4,2,0,75,0,0
24159,-83.3333333333333,4,2,0,75,0,0
45159,-166.666666666667,4,2,0,75,0,0
45759,-83.3333333333334,4,2,0,75,0,0
50109,-166.666666666667,4,2,0,75,0,0
50559,-83.3333333333334,4,2,0,75,0,0
52359,-166.666666666667,4,2,0,75,0,0
52959,-83.3333333333333,4,2,0,75,0,0
84159,-100,4,2,0,75,0,0

[HitObjects]
34,288,2559,5,0,0:0:0:0:
35,294,2634,1,0,0:0:0:0:
36,301,2709,1,0,0:0:0:0:
37,308,2784,1,0,0:0:0:0:
38,315,2859,2,0,L|109:323,1,56.2500021457673
183,240,3159,2,0,P|170:265|176:302,1,56.2500021457673
252,296,3459,2,0,P|258:279|255:249,3,28.1250010728836
323,355,3759,5,0,0:0:0:0:
329,354,3834,1,0,0:0:0:0:
336,353,3909,1,0,0:0:0:0:
343,352,3984,1,0,0:0:0:0:
350,351,4059,2,0,L|358:280,1,56.2500021457673
459,245,4359,2,0,P|431:245|407:231,1,56.2500021457673
371,158,4659,2,0,P|353:169|340:186,3,28.1250010728836
440,96,4959,5,0,0:0:0:0:
439,90,5034,1,0,0:0:0:0:
438,83,5109,1,0,0:0:0:0:
437,76,5184,1,0,0:0:0:0:
436,69,5259,2,0,L|365:61,1,56.2500021457673
262,39,5559,2,0,P|283:26|318:18,1,56.2500021457673
283,116,5859,2,0,P|284:135|273:157,3,28.1250010728836
202,126,6159,5,0,0:0:0:0:
49,54,6384,5,0,0:0:0:0:
16,227,6609,5,0,0:0:0:0:
183,300,6834,5,0,0:0:0:0:
117,181,7059,5,0,0:0:0:0:
117,181,7134,1,0,0:0:0:0:
117,181,7209,1,0,0:0:0:0:
183,300,7359,5,0,0:0:0:0:
194,301,7434,1,0,0:0:0:0:
206,304,7509,1,0,0:0:0:0:
233,289,7584,5,0,0:0:0:0:
244,286,7659,1,0,0:0:0:0:
257,284,7734,1,0,0:0:0:0:
286,295,7809,5,0,0:0:0:0:
298,298,7884,1,0,0:0:0:0:
310,300,7959,1,0,0:0:0:0:
331,285,8034,5,0,0:0:0:0:
351,277,8109,1,0,0:0:0:0:
371,287,8184,1,0,0:0:0:0:
377,319,8259,5,0,0:0:0:0:
401,337,8334,1,0,0:0:0:0:
428,340,8409,1,0,0:0:0:0:
453,331,8484,1,0,0:0:0:0:
472,309,8559,6,0,L|483:217,1,75
416,106,8859,2,0,L|405:198,1,75
242,139,9159,2,0,L|197:132,2,37.5
316,203,9459,1,0,0:0:0:0:
313,221,9534,1,0,0:0:0:0:
311,240,9609,1,0,0:0:0:0:
309,258,9684,1,0,0:0:0:0:
307,277,9759,6,0,B|302:314|302:314|271:351,1,75
136,284,10059,2,0,B|170:269|170:269|218:278,1,75
89,362,10359,2,0,L|51:372,2,37.5
45,263,10659,1,0,0:0:0:0:
51,245,10734,1,0,0:0:0:0:
61,229,10809,1,0,0:0:0:0:
72,214,10884,1,0,0:0:0:0:
87,202,10959,6,0,P|107:168|107:120,1,75
9,103,11259,1,0,0:0:0:0:
11,121,11334,1,0,0:0:0:0:
14,140,11409,1,0,0:0:0:0:
125,115,11559,2,0,P|105:81|105:33,1,75
203,13,11859,1,0,0:0:0:0:
201,31,11934,1,0,0:0:0:0:
198,50,12009,1,0,0:0:0:0:
257,140,12159,5,0,0:0:0:0:
363,10,12384,5,0,0:0:0:0:
495,111,12609,5,0,0:0:0:0:
389,241,12834,5,0,0:0:0:0:
384,132,13059,5,0,0:0:0:0:
384,132,13134,1,0,0:0:0:0:
384,132,13209,1,0,0:0:0:0:
389,241,13359,5,0,0:0:0:0:
369,246,13434,1,0,0:0:0:0:
351,252,13509,1,0,0:0:0:0:
331,241,13584,5,0,0:0:0:0:
312,246,13659,1,0,0:0:0:0:
293,252,13734,1,0,0:0:0:0:
269,243,13809,5,0,0:0:0:0:
249,249,13884,1,0,0:0:0:0:
231,255,13959,1,0,0:0:0:0:
204,266,14034,5,0,0:0:0:0:
183,258,14109,1,0,0:0:0:0:
169,240,14184,1,0,0:0:0:0:
158,210,14259,5,0,0:0:0:0:
129,196,14334,1,0,0:0:0:0:
101,189,14409,1,0,0:0:0:0:
74,188,14484,1,0,0:0:0:0:
47,198,14559,6,0,B|28:207|28:207|3:205,5,37.5
14,125,15009,2,0,B|39:56|39:56|102:105,1,150
217,121,15459,2,0,B|204:86|204:86|170:60,1,75
143,256,15759,5,0,0:0:0:0:
144,268,15834,1,0,0:0:0:0:
146,280,15909,1,0,0:0:0:0:
148,293,15984,1,0,0:0:0:0:
149,305,16059,1,0,0:0:0:0:
151,317,16134,1,0,0:0:0:0:
153,330,16209,2,0,B|194:357|194:357|237:262,1,150
331,236,16659,2,0,L|305:309,1,75
493,343,16959,5,0,0:0:0:0:
500,333,17034,1,0,0:0:0:0:
506,323,17109,1,0,0:0:0:0:
510,312,17184,1,0,0:0:0:0:
511,300,17259,1,0,0:0:0:0:
509,288,17334,1,0,0:0:0:0:
505,276,17409,2,0,B|455:286|455:286|510:181,1,150
430,100,17859,2,0,B|434:149|434:149|418:177,1,75
303,83,18159,5,0,0:0:0:0:
290,85,18234,1,0,0:0:0:0:
278,87,18309,1,0,0:0:0:0:
266,89,18384,1,0,0:0:0:0:
253,91,18459,1,0,0:0:0:0:
241,93,18534,1,0,0:0:0:0:
229,95,18609,1,0,0:0:0:0:
217,97,18684,1,0,0:0:0:0:
198,115,18759,5,0,0:0:0:0:
175,110,18834,1,0,0:0:0:0:
163,133,18909,1,0,0:0:0:0:
127,142,18984,5,0,0:0:0:0:
109,126,19059,1,0,0:0:0:0:
87,140,19134,1,0,0:0:0:0:
52,138,19209,5,0,0:0:0:0:
44,115,19284,1,0,0:0:0:0:
16,118,19359,6,0,L|7:73,5,37.5
0,197,19809,2,0,B|17:281|17:281|71:227,1,150
139,312,20259,2,0,B|102:313|102:313|70:343,1,75
190,212,20559,5,0,0:0:0:0:
202,210,20634,1,0,0:0:0:0:
214,209,20709,1,0,0:0:0:0:
227,211,20784,1,0,0:0:0:0:
239,214,20859,1,0,0:0:0:0:
251,218,20934,1,0,0:0:0:0:
261,224,21009,2,0,B|300:245|300:245|275:134,1,150
193,56,21459,2,0,B|185:82|185:82|197:131,1,75
349,78,21759,5,0,0:0:0:0:
361,79,21834,1,0,0:0:0:0:
373,80,21909,1,0,0:0:0:0:
386,81,21984,1,0,0:0:0:0:
398,82,22059,1,0,0:0:0:0:
411,83,22134,1,0,0:0:0:0:
423,85,22209,2,0,B|467:89|467:89|418:185,1,150
504,245,22659,2,0,B|497:208|497:208|519:159,1,75
425,293,22959,5,0,0:0:0:0:
421,302,23034,1,0,0:0:0:0:
413,309,23109,1,0,0:0:0:0:
401,314,23184,1,0,0:0:0:0:
382,317,23259,1,0,0:0:0:0:
359,317,23334,1,0,0:0:0:0:
333,307,23409,1,0,0:0:0:0:
310,287,23484,1,0,0:0:0:0:
296,254,23559,1,0,0:0:0:0:
296,216,23634,1,0,0:0:0:0:
314,179,23709,1,0,0:0:0:0:
338,146,23784,1,0,0:0:0:0:
340,101,23859,1,0,0:0:0:0:
311,59,23934,1,0,0:0:0:0:
261,45,24009,1,0,0:0:0:0:
213,70,24084,1,0,0:0:0:0:
199,129,24159,6,0,P|133:175|30:156,1,179.999994506836
261,45,24609,2,0,P|289:82|258:217,1,179.999994506836
110,351,25059,2,0,P|94:309|123:245,1,89.9999972534181
356,297,25359,6,0,L|453:307,1,89.9999972534181
269,206,25659,2,0,L|172:216,1,89.9999972534181
391,133,25959,2,0,L|488:143,1,89.9999972534181
304,42,26259,1,0,0:0:0:0:
288,122,26409,1,0,0:0:0:0:
269,206,26559,6,0,B|254:252|227:287|227:287|181:310|125:311,1,179.999994506836
5,139,27009,2,0,B|52:128|96:134|96:134|139:162|167:210,1,179.999994506836
9,324,27459,2,0,P|1:279|14:237,1,89.9999972534181
115,24,27759,6,0,L|126:126,1,89.9999972534181
312,183,28059,2,0,L|301:81,1,89.9999972534181
133,220,28359,2,0,L|144:322,1,89.9999972534181
330,379,28659,2,0,L|319:277,1,89.9999972534181
302,93,28959,6,0,B|371:147|371:147|443:134,1,134.999995880127
438,134,29259,1,0,0:0:0:0:
449,41,29409,2,0,L|485:227,1,179.999994506836
447,384,29859,1,0,0:0:0:0:
467,306,30009,1,0,0:0:0:0:
391,327,30159,6,0,B|350:324|350:324|271:252,1,134.999995880127
262,264,30459,1,0,0:0:0:0:
252,357,30609,2,0,L|216:171,1,179.999994506836
196,72,31059,1,0,0:0:0:0:
196,72,31209,1,0,0:0:0:0:
119,156,31359,6,0,P|75:162|25:147,1,89.9999972534181
23,283,31659,2,0,P|67:277|117:292,1,89.9999972534181
212,267,31959,2,0,P|206:223|221:173,1,89.9999972534181
409,233,32259,1,0,0:0:0:0:
322,230,32409,1,0,0:0:0:0:
310,230,32484,1,0,0:0:0:0:
299,230,32559,6,0,L|340:115,1,89.9999972534181
474,61,32859,2,0,L|433:176,1,89.9999972534181
375,323,33159,1,0,0:0:0:0:
358,325,33234,1,0,0:0:0:0:
341,328,33309,1,0,0:0:0:0:
324,330,33384,1,0,0:0:0:0:
308,333,33459,1,0,0:0:0:0:
291,335,33534,1,0,0:0:0:0:
274,338,33609,1,0,0:0:0:0:
258,340,33684,1,0,0:0:0:0:
241,343,33759,6,0,P|275:266|245:172,1,179.999994506836
55,175,34209,2,0,P|21:252|51:346,1,179.999994506836
154,182,34659,2,0,P|148:133|113:87,1,89.9999972534181
339,0,34959,6,0,L|329:97,1,89.9999972534181
474,188,35259,2,0,L|377:178,1,89.9999972534181
286,323,35559,2,0,L|296:226,1,89.9999972534181
151,135,35859,1,0,0:0:0:0:
232,144,36009,1,0,0:0:0:0:
182,218,36159,6,0,B|127:231|96:206|96:206|75:245|2:266,1,179.999994506836
49,7,36609,2,0,B|35:56|-3:77|-3:77|21:108|8:163,1,179.999994506836
96,384,37059,2,0,P|117:340|109:271,1,89.9999972534181
224,54,37359,6,0,L|233:155,1,89.9999972534181
450,273,37659,2,0,L|457:183,1,89.9999972534181
341,0,37959,2,0,L|350:101,1,89.9999972534181
326,318,38259,1,0,0:0:0:0:
327,295,38334,1,0,0:0:0:0:
329,273,38409,1,0,0:0:0:0:
331,250,38484,1,0,0:0:0:0:
333,228,38559,6,0,B|244:255|244:255|196:344,2,179.999994506836
501,187,39459,1,0,0:0:0:0:
179,156,39759,2,0,B|268:129|268:129|316:40,2,179.999994506836
11,197,40659,1,0,0:0:0:0:
202,331,40959,6,0,L|254:241,1,89.9999972534181
310,53,41259,2,0,L|258:143,1,89.9999972534181
107,93,41559,2,0,L|197:69,1,89.9999972534181
405,291,41859,2,0,L|315:315,1,89.9999972534181
264,130,42159,5,0,0:0:0:0:
286,131,42234,1,0,0:0:0:0:
307,138,42309,1,0,0:0:0:0:
325,151,42384,1,0,0:0:0:0:
339,169,42459,2,0,L|332:218,3,44.999998626709
247,253,42759,1,0,0:0:0:0:
225,252,42834,1,0,0:0:0:0:
204,245,42909,1,0,0:0:0:0:
186,232,42984,1,0,0:0:0:0:
172,214,43059,2,0,L|179:165,3,44.999998626709
112,108,43359,5,0,0:0:0:0:
17,253,43509,2,0,P|15:300|46:345,1,89.9999972534181
81,189,43809,2,0,P|41:163|-13:168,1,89.9999972534181
172,214,44109,5,0,0:0:0:0:
106,278,44259,1,0,0:0:0:0:
155,356,44409,1,0,0:0:0:0:
243,331,44559,1,0,0:0:0:0:
281,246,44709,5,0,0:0:0:0:
265,216,44784,1,0,0:0:0:0:
280,194,44859,1,0,0:0:0:0:
272,177,44934,1,0,0:0:0:0:
277,164,45009,1,0,0:0:0:0:
277,154,45084,1,0,0:0:0:0:
279,147,45159,2,0,B|276:121|276:121|288:94|288:94|284:57,1,89.9999972534181
504,333,45759,5,0,0:0:0:0:
345,369,45909,2,0,P|328:319|338:276,1,89.9999972534181
410,227,46209,2,0,P|427:277|417:320,1,89.9999972534181
336,170,46509,5,0,0:0:0:0:
411,121,46659,1,0,0:0:0:0:
379,36,46809,1,0,0:0:0:0:
289,46,46959,1,0,0:0:0:0:
147,180,47259,5,0,0:0:0:0:
104,188,47334,1,0,0:0:0:0:
86,161,47409,1,0,0:0:0:0:
64,167,47484,1,0,0:0:0:0:
61,152,47559,1,0,0:0:0:0:
51,146,47634,1,0,0:0:0:0:
54,136,47709,1,0,0:0:0:0:
52,126,47784,1,0,0:0:0:0:
59,119,47859,2,0,P|66:95|83:78,3,44.999998626709
152,60,48159,5,0,0:0:0:0:
290,131,48309,2,0,B|321:99|321:99|325:40,1,89.9999972534181
193,145,48609,2,0,B|205:187|205:187|254:220,1,89.9999972534181
415,94,48909,5,0,0:0:0:0:
482,153,49059,1,0,0:0:0:0:
489,242,49209,1,0,0:0:0:0:
433,313,49359,1,0,0:0:0:0:
176,292,49659,5,0,0:0:0:0:
141,284,49734,1,0,0:0:0:0:
128,306,49809,1,0,0:0:0:0:
111,309,49884,1,0,0:0:0:0:
108,325,49959,1,0,0:0:0:0:
98,329,50034,1,0,0:0:0:0:
96,339,50109,2,0,L|88:385,1,44.999998626709
56,135,50559,5,0,0:0:0:0:
63,128,50634,1,0,0:0:0:0:
72,121,50709,1,0,0:0:0:0:
80,117,50784,1,0,0:0:0:0:
90,113,50859,5,0,0:0:0:0:
109,110,50934,1,0,0:0:0:0:
129,109,51009,1,0,0:0:0:0:
149,112,51084,1,0,0:0:0:0:
168,120,51159,5,0,0:0:0:0:
191,138,51234,1,0,0:0:0:0:
207,164,51309,1,0,0:0:0:0:
212,193,51384,1,0,0:0:0:0:
207,223,51459,5,0,0:0:0:0:
187,256,51534,1,0,0:0:0:0:
153,279,51609,1,0,0:0:0:0:
114,284,51684,1,0,0:0:0:0:
74,272,51759,5,0,0:0:0:0:
43,234,51834,1,0,0:0:0:0:
37,184,51909,1,0,0:0:0:0:
54,138,51984,1,0,0:0:0:0:
95,109,52059,5,0,0:0:0:0:
154,97,52134,1,0,0:0:0:0:
214,105,52209,1,0,0:0:0:0:
268,132,52284,1,0,0:0:0:0:
305,176,52359,6,0,B|337:177|337:177|356:166|356:166|391:168,1,89.9999972534181
457,113,52809,1,0,0:0:0:0:
457,113,52959,6,0,B|488:88|488:88|475:193,1,134.999995880127
464,203,53259,2,0,L|479:307,1,89.9999972534181
375,185,53559,1,0,0:0:0:0:
356,278,53709,1,0,0:0:0:0:
263,261,53859,1,0,0:0:0:0:
240,256,53934,1,0,0:0:0:0:
218,252,54009,1,0,0:0:0:0:
196,248,54084,1,0,0:0:0:0:
174,243,54159,6,0,P|158:311|201:384,1,134.999995880127
164,377,54459,2,0,B|123:362|123:362|72:378,1,89.9999972534181
0,210,54759,1,0,0:0:0:0:
37,293,54909,1,0,0:0:0:0:
77,159,55059,1,0,0:0:0:0:
82,137,55134,1,0,0:0:0:0:
87,115,55209,1,0,0:0:0:0:
93,93,55284,1,0,0:0:0:0:
98,71,55359,6,0,B|159:82|159:82|226:54,1,134.999995880127
243,46,55659,2,0,L|263:155,1,89.9999972534181
189,255,55959,1,0,0:0:0:0:
167,159,56109,1,0,0:0:0:0:
281,231,56259,1,0,0:0:0:0:
284,253,56334,1,0,0:0:0:0:
283,275,56409,1,0,0:0:0:0:
275,296,56484,1,0,0:0:0:0:
262,315,56559,5,0,0:0:0:0:
288,357,56634,1,0,0:0:0:0:
342,366,56709,1,0,0:0:0:0:
381,344,56784,1,0,0:0:0:0:
399,302,56859,1,0,0:0:0:0:
392,261,56934,1,0,0:0:0:0:
380,228,57009,1,0,0:0:0:0:
384,191,57084,1,0,0:0:0:0:
397,166,57159,1,0,0:0:0:0:
415,150,57234,1,0,0:0:0:0:
432,143,57309,1,0,0:0:0:0:
445,131,57384,1,0,0:0:0:0:
450,121,57459,1,0,0:0:0:0:
448,112,57534,1,0,0:0:0:0:
444,104,57609,1,0,0:0:0:0:
444,95,57684,1,0,0:0:0:0:
446,89,57759,6,0,B|411:57|411:57|299:78,1,134.999995880127
305,80,58059,1,0,0:0:0:0:
276,168,58209,1,0,0:0:0:0:
217,100,58359,1,0,0:0:0:0:
368,150,58509,1,0,0:0:0:0:
256,255,58659,1,0,0:0:0:0:
234,259,58734,1,0,0:0:0:0:
212,264,58809,1,0,0:0:0:0:
190,269,58884,1,0,0:0:0:0:
168,273,58959,6,0,P|182:207|152:123,1,134.999995880127
142,131,59259,1,0,0:0:0:0:
79,193,59409,1,0,0:0:0:0:
61,102,59559,1,0,0:0:0:0:
14,260,59709,1,0,0:0:0:0:
83,327,59859,1,0,0:0:0:0:
115,319,59934,1,0,0:0:0:0:
148,312,60009,1,0,0:0:0:0:
181,304,60084,1,0,0:0:0:0:
212,297,60159,6,0,L|273:282,1,44.999998626709
331,310,60309,1,0,0:0:0:0:
351,307,60384,2,0,B|369:346|369:346|437:369,1,89.9999972534181
474,309,60609,1,0,0:0:0:0:
482,289,60684,2,0,B|463:249|463:249|395:226,1,89.9999972534181
342,217,60909,1,0,0:0:0:0:
326,227,60984,2,0,B|281:212|281:212|263:172,1,89.9999972534181
312,110,61209,1,0,0:0:0:0:
330,100,61284,1,0,0:0:0:0:
353,105,61359,5,0,0:0:0:0:
365,95,61434,1,0,0:0:0:0:
371,77,61509,1,0,0:0:0:0:
363,55,61584,1,0,0:0:0:0:
340,37,61659,1,0,0:0:0:0:
308,27,61734,1,0,0:0:0:0:
271,33,61809,1,0,0:0:0:0:
241,58,61884,1,0,0:0:0:0:
221,97,61959,1,0,0:0:0:0:
189,132,62034,1,0,0:0:0:0:
142,149,62109,1,0,0:0:0:0:
88,140,62184,1,0,0:0:0:0:
49,94,62259,1,0,0:0:0:0:
48,37,62334,1,0,0:0:0:0:
90,1,62409,1,0,0:0:0:0:
115,5,62484,1,0,0:0:0:0:
132,19,62559,6,0,L|139:75,3,44.999998626709
221,97,62859,2,0,L|228:153,3,44.999998626709
152,194,63159,2,0,L|159:250,3,44.999998626709
241,272,63459,2,0,L|248:328,3,44.999998626709
165,381,63759,5,0,0:0:0:0:
142,377,63834,1,0,0:0:0:0:
121,370,63909,1,0,0:0:0:0:
101,359,63984,1,0,0:0:0:0:
84,345,64059,1,0,0:0:0:0:
70,328,64134,1,0,0:0:0:0:
59,308,64209,1,0,0:0:0:0:
52,287,64284,1,0,0:0:0:0:
49,264,64359,2,0,P|30:251|8:246,3,44.999998626709
136,235,64659,2,0,P|156:225|171:209,3,44.999998626709
220,296,64959,5,0,0:0:0:0:
240,305,65034,1,0,0:0:0:0:
262,311,65109,1,0,0:0:0:0:
284,315,65184,1,0,0:0:0:0:
306,315,65259,1,0,0:0:0:0:
329,312,65334,1,0,0:0:0:0:
350,306,65409,1,0,0:0:0:0:
371,297,65484,1,0,0:0:0:0:
390,286,65559,1,0,0:0:0:0:
408,272,65634,1,0,0:0:0:0:
423,256,65709,1,0,0:0:0:0:
436,237,65784,1,0,0:0:0:0:
447,217,65859,2,0,L|454:162,3,44.999998626709
381,133,66159,5,0,0:0:0:0:
337,131,66234,1,0,0:0:0:0:
302,151,66309,1,0,0:0:0:0:
288,186,66384,1,0,0:0:0:0:
297,222,66459,1,0,0:0:0:0:
281,254,66534,1,0,0:0:0:0:
247,262,66609,1,0,0:0:0:0:
219,247,66684,1,0,0:0:0:0:
211,218,66759,1,0,0:0:0:0:
192,197,66834,1,0,0:0:0:0:
165,194,66909,1,0,0:0:0:0:
145,207,66984,1,0,0:0:0:0:
134,228,67059,2,0,P|112:242|66:241,3,44.999998626709
22,201,67359,5,0,0:0:0:0:
25,178,67434,1,0,0:0:0:0:
28,156,67509,1,0,0:0:0:0:
31,134,67584,1,0,0:0:0:0:
35,113,67659,1,0,0:0:0:0:
56,107,67734,1,0,0:0:0:0:
78,103,67809,1,0,0:0:0:0:
100,99,67884,1,0,0:0:0:0:
123,97,67959,2,0,L|131:36,3,44.999998626709
206,87,68259,2,0,L|214:26,3,44.999998626709
264,149,68559,5,0,0:0:0:0:
290,152,68634,1,0,0:0:0:0:
317,149,68709,1,0,0:0:0:0:
342,135,68784,1,0,0:0:0:0:
360,115,68859,1,0,0:0:0:0:
379,96,68934,1,0,0:0:0:0:
403,82,69009,1,0,0:0:0:0:
430,79,69084,1,0,0:0:0:0:
458,84,69159,1,0,0:0:0:0:
480,99,69234,1,0,0:0:0:0:
491,123,69309,1,0,0:0:0:0:
495,149,69384,1,0,0:0:0:0:
491,175,69459,2,0,P|457:187|410:182,3,44.999998626709
372,231,69759,6,0,L|385:288,1,44.999998626709
339,340,69909,1,0,0:0:0:0:
326,354,69984,2,0,L|230:346,1,89.9999972534181
193,281,70209,1,0,0:0:0:0:
180,267,70284,2,0,L|84:275,1,89.9999972534181
72,201,70509,1,0,0:0:0:0:
84,187,70584,2,0,L|180:179,1,89.9999972534181
228,123,70809,1,0,0:0:0:0:
242,109,70884,1,0,0:0:0:0:
262,99,70959,5,0,0:0:0:0:
270,84,71034,1,0,0:0:0:0:
271,68,71109,1,0,0:0:0:0:
267,45,71184,1,0,0:0:0:0:
249,24,71259,1,0,0:0:0:0:
219,13,71334,1,0,0:0:0:0:
185,12,71409,1,0,0:0:0:0:
154,19,71484,1,0,0:0:0:0:
126,41,71559,1,0,0:0:0:0:
107,75,71634,1,0,0:0:0:0:
99,113,71709,1,0,0:0:0:0:
114,157,71784,1,0,0:0:0:0:
120,212,71859,1,0,0:0:0:0:
107,266,71934,1,0,0:0:0:0:
73,306,72009,1,0,0:0:0:0:
52,311,72084,1,0,0:0:0:0:
33,304,72159,5,0,0:0:0:0:
49,210,72309,2,0,P|90:228|124:276,1,89.9999972534181
188,382,72609,2,0,P|183:337|207:284,1,89.9999972534181
397,239,72909,5,0,0:0:0:0:
363,322,73059,1,0,0:0:0:0:
275,344,73209,1,0,0:0:0:0:
304,258,73359,1,0,0:0:0:0:
249,183,73509,5,0,0:0:0:0:
232,145,73584,1,0,0:0:0:0:
257,127,73659,1,0,0:0:0:0:
250,108,73734,1,0,0:0:0:0:
273,102,73809,1,0,0:0:0:0:
281,88,73884,1,0,0:0:0:0:
293,90,73959,1,0,0:0:0:0:
302,82,74034,1,0,0:0:0:0:
312,86,74109,1,0,0:0:0:0:
320,81,74184,1,0,0:0:0:0:
330,84,74259,2,0,L|322:18,3,44.999998626709
405,47,74559,5,0,0:0:0:0:
456,207,74709,2,0,P|476:251|513:270,1,89.9999972534181
473,126,75009,2,0,P|427:126|383:164,1,89.9999972534181
350,287,75309,5,0,0:0:0:0:
315,203,75459,1,0,0:0:0:0:
244,259,75609,1,0,0:0:0:0:
209,175,75759,1,0,0:0:0:0:
6,19,76059,5,0,0:0:0:0:
18,64,76134,1,0,0:0:0:0:
54,67,76209,1,0,0:0:0:0:
72,95,76284,1,0,0:0:0:0:
100,90,76359,1,0,0:0:0:0:
115,101,76434,1,0,0:0:0:0:
128,96,76509,1,0,0:0:0:0:
138,98,76584,1,0,0:0:0:0:
146,92,76659,2,0,L|208:80,3,44.999998626709
181,171,76959,5,0,0:0:0:0:
22,246,77109,2,0,P|24:289|64:340,1,89.9999972534181
198,281,77409,2,0,P|159:261|95:270,1,89.9999972534181
236,366,77709,5,0,0:0:0:0:
289,293,77859,1,0,0:0:0:0:
279,203,78009,1,0,0:0:0:0:
203,153,78159,1,0,0:0:0:0:
317,9,78459,5,0,0:0:0:0:
328,53,78534,1,0,0:0:0:0:
362,61,78609,1,0,0:0:0:0:
379,83,78684,1,0,0:0:0:0:
400,85,78759,1,0,0:0:0:0:
411,98,78834,1,0,0:0:0:0:
424,97,78909,1,0,0:0:0:0:
432,102,78984,1,0,0:0:0:0:
439,103,79059,2,0,L|456:35,3,44.999998626709
398,180,79359,5,0,0:0:0:0:
387,182,79434,1,0,0:0:0:0:
377,186,79509,1,0,0:0:0:0:
370,191,79584,1,0,0:0:0:0:
360,197,79659,5,0,0:0:0:0:
348,212,79734,1,0,0:0:0:0:
337,229,79809,1,0,0:0:0:0:
330,249,79884,1,0,0:0:0:0:
328,269,79959,5,0,0:0:0:0:
332,298,80034,1,0,0:0:0:0:
346,325,80109,1,0,0:0:0:0:
369,344,80184,1,0,0:0:0:0:
398,354,80259,5,0,0:0:0:0:
437,353,80334,1,0,0:0:0:0:
473,336,80409,1,0,0:0:0:0:
497,304,80484,1,0,0:0:0:0:
506,263,80559,5,0,0:0:0:0:
489,218,80634,1,0,0:0:0:0:
448,187,80709,1,0,0:0:0:0:
401,179,80784,1,0,0:0:0:0:
355,194,80859,5,0,0:0:0:0:
311,233,80934,1,0,0:0:0:0:
257,256,81009,1,0,0:0:0:0:
198,259,81084,1,0,0:0:0:0:
144,234,81159,5,0,0:0:0:0:
119,175,81234,1,0,0:0:0:0:
142,116,81309,1,0,0:0:0:0:
199,90,81384,1,0,0:0:0:0:
264,105,81459,5,0,0:0:0:0:
318,144,81534,1,0,0:0:0:0:
385,143,81609,1,0,0:0:0:0:
439,103,81684,1,0,0:0:0:0:
193,84,84159,5,0,0:0:0:0:
363,129,85359,1,0,0:0:0:0:
318,299,86559,1,0,0:0:0:0:
318,299,87759,5,0,0:0:0:0:
148,254,87984,5,0,0:0:0:0:
193,84,88209,5,0,0:0:0:0:
363,129,88434,5,0,0:0:0:0:
256,192,88659,5,0,0:0:0:0:
256,192,88734,1,0,0:0:0:0:
256,192,88809,1,0,0:0:0:0:
77,179,88959,5,0,0:0:0:0:
81,169,89034,1,0,0:0:0:0:
92,161,89109,1,0,0:0:0:0:
109,156,89184,1,0,0:0:0:0:
131,159,89259,1,0,0:0:0:0:
147,173,89334,1,0,0:0:0:0:
159,197,89409,1,0,0:0:0:0:
161,226,89484,1,0,0:0:0:0:
148,254,89559,1,0,0:0:0:0:
129,284,89634,1,0,0:0:0:0:
128,318,89709,1,0,0:0:0:0:
148,353,89784,1,0,0:0:0:0:
187,376,89859,1,0,0:0:0:0:
230,381,89934,1,0,0:0:0:0:
272,360,90009,1,0,0:0:0:0:
278,346,90084,1,0,0:0:0:0:
272,334,90159,6,0,L|261:287,3,37.5
331,257,90459,2,0,L|342:210,3,37.5
281,164,90759,2,0,L|270:117,3,37.5
340,87,91059,2,0,L|351:40,3,37.5
432,17,91359,5,0,0:0:0:0:
447,26,91434,1,0,0:0:0:0:
462,38,91509,1,0,0:0:0:0:
474,53,91584,1,0,0:0:0:0:
485,67,91659,1,0,0:0:0:0:
494,84,91734,1,0,0:0:0:0:
502,101,91809,1,0,0:0:0:0:
506,119,91884,1,0,0:0:0:0:
509,138,91959,2,0,P|506:169|492:197,3,37.5
424,172,92259,2,0,P|427:203|441:231,3,37.5
379,278,92559,5,0,0:0:0:0:
365,289,92634,1,0,0:0:0:0:
346,295,92709,1,0,0:0:0:0:
325,294,92784,1,0,0:0:0:0:
305,287,92859,1,0,0:0:0:0:
286,271,92934,1,0,0:0:0:0:
263,261,93009,1,0,0:0:0:0:
235,264,93084,1,0,0:0:0:0:
214,281,93159,1,0,0:0:0:0:
208,311,93234,1,0,0:0:0:0:
189,335,93309,1,0,0:0:0:0:
158,343,93384,1,0,0:0:0:0:
123,337,93459,2,0,L|69:355,3,37.5
22,303,93759,5,0,0:0:0:0:
12,292,93834,1,0,0:0:0:0:
5,278,93909,1,0,0:0:0:0:
4,258,93984,1,0,0:0:0:0:
10,235,94059,1,0,0:0:0:0:
30,213,94134,1,0,0:0:0:0:
55,199,94209,1,0,0:0:0:0:
84,195,94284,1,0,0:0:0:0:
112,199,94359,6,0,L|106:133,3,37.5
189,171,94659,2,0,L|183:105,3,37.5
259,223,94959,2,0,L|265:289,3,37.5
182,251,95259,2,0,L|188:317,3,37.5
111,198,95559,5,0,0:0:0:0:
83,194,95634,1,0,0:0:0:0:
54,198,95709,1,0,0:0:0:0:
29,212,95784,1,0,0:0:0:0:
9,234,95859,1,0,0:0:0:0:
3,257,95934,1,0,0:0:0:0:
4,277,96009,1,0,0:0:0:0:
11,291,96084,1,0,0:0:0:0:
256,328,96759,5,0,0:0:0:0:
256,318,96834,1,0,0:0:0:0:
256,309,96909,1,0,0:0:0:0:
256,299,96984,1,0,0:0:0:0:
256,290,97059,1,0,0:0:0:0:
256,200,97209,1,0,0:0:0:0:
256,190,97284,1,0,0:0:0:0:
256,48,97659,5,0,0:0:0:0:
