osu file format v14

[General]
AudioFilename: audio.mp3
AudioLeadIn: 0
PreviewTime: 52959
Countdown: 0
SampleSet: Normal
StackLeniency: 0.5
Mode: 0
LetterboxInBreaks: 0
WidescreenStoryboard: 1

[Editor]
DistanceSpacing: 1
BeatDivisor: 4
GridSize: 32
TimelineZoom: 2.2

[Metadata]
Title:Snow Goose
TitleUnicode:Snow Goose
Artist:Mutsuhiko Izumi
ArtistUnicode:Mutsuhiko Izumi
Creator:Velamy
Version:nathan off osu's Another
Source:jubeat
Tags:Flower nathan off osu Randomina im a trap lmao Silverboxer stream deathstream video game music vgm rhythm instrumental fast electric pomp beatmania IIDX 19 Lincle jubeat plus KONAMI pack jukebeat 12 third 泉陸奥彦
BeatmapID:3991003
BeatmapSetID:1812593

[Difficulty]
HPDrainRate:4
CircleSize:5
OverallDifficulty:7.7
ApproachRate:8.5
SliderMultiplier:1.6
SliderTickRate:1

[Events]
//Background and Video events
0,0,"nathanbg.jpg",0,0
//Break Periods
//Storyboard Layer 0 (Background)
//Storyboard Layer 1 (Fail)
//Storyboard Layer 2 (Pass)
//Storyboard Layer 3 (Foreground)
//Storyboard Layer 4 (Overlay)
//Storyboard Sound Samples

[TimingPoints]
2559,300,4,2,0,50,1,0
2559,-100,4,2,0,50,0,0
6159,-100,4,2,0,25,0,0
7359,-100,4,1,0,25,0,0
7659,-100,4,1,0,30,0,0
7959,-100,4,1,0,35,0,0
8259,-100,4,1,0,40,0,0
8559,-100,4,1,0,50,0,0
23259,-90.9090909090909,4,1,0,50,0,0
23559,-83.3333333333333,4,1,0,50,0,0
23859,-76.9230769230769,4,1,0,50,0,0
24159,-100,4,1,0,60,0,0
52959,-100,4,1,0,65,0,0
71259,-90.9090909090909,4,1,0,65,0,0
71559,-83.3333333333333,4,1,0,65,0,0
71859,-76.9230769230769,4,1,0,65,0,0
72159,-100,4,1,0,65,0,0
82959,-100,4,1,0,15,0,0
84159,-100,4,2,0,50,0,0
87759,-100,4,1,0,50,0,0
97734,-100,4,1,0,5,0,0

[Colours]
Combo1 : 180,185,252
Combo2 : 18,215,237
Combo3 : 128,255,255
Combo4 : 0,0,128

[HitObjects]
144,80,2559,5,2,0:0:0:0:
135,82,2634,1,0,0:0:0:0:
125,84,2709,1,0,0:0:0:0:
212,121,2859,6,0,B|226:83|226:83|213:46,1,80,0|2,0:0|0:0,0:0:0:0:
83,152,3159,2,0,L|98:237,1,80,0|2,0:0|0:0,0:0:0:0:
134,254,3384,1,0,0:0:0:0:
134,254,3459,2,0,L|126:296,3,40,2|0|0|0,0:0|0:0|0:0|0:0,0:0:0:0:
178,365,3759,5,2,0:0:0:0:
168,367,3834,1,0,0:0:0:0:
158,369,3909,1,0,0:0:0:0:
227,303,4059,6,0,L|312:318,1,80,0|2,0:0|0:0,0:0:0:0:
380,201,4359,2,0,L|295:216,1,80,0|2,0:0|0:0,0:0:0:0:
273,193,4584,1,0,0:0:0:0:
273,193,4659,2,0,L|281:151,3,40,2|0|0|0,0:0|0:0|0:0|0:0,0:0:0:0:
222,97,4959,5,2,0:0:0:0:
213,99,5034,1,0,0:0:0:0:
203,101,5109,1,0,0:0:0:0:
278,45,5259,2,0,L|363:60,1,80,0|2,0:0|0:0,0:0:0:0:
430,128,5559,5,0,0:0:0:0:
426,147,5634,1,0,0:0:0:0:
416,164,5709,1,2,0:0:0:0:
400,176,5784,1,0,0:0:0:0:
381,181,5859,2,0,L|339:173,3,40,2|0|0|0,0:0|0:0|0:0|0:0,0:0:0:0:
263,208,6159,6,0,L|271:250,2,40,2|0|0,0:0|0:0|0:0,0:0:0:0:
186,184,6384,2,0,L|194:226,2,40,2|0|0,3:2|3:0|3:0,3:0:0:0:
116,227,6609,2,0,L|124:269,2,40,2|0|0,0:0|0:0|0:0,0:0:0:0:
53,180,6834,2,0,L|61:138,2,40,2|0|0,0:0|0:0|0:0,0:0:0:0:
4,243,7059,5,2,0:0:0:0:
7,263,7134,1,0,0:0:0:0:
10,283,7209,1,0,0:0:0:0:
14,303,7284,1,0,0:0:0:0:
17,322,7359,6,0,L|25:364,2,40
104,377,7584,2,0,L|96:335,2,40
165,284,7809,2,0,L|173:326,2,40
255,351,8034,2,0,L|247:309,2,40
288,226,8259,5,0,0:0:0:0:
315,215,8334,1,0,0:0:0:0:
345,218,8409,1,0,0:0:0:0:
369,236,8484,1,0,0:0:0:0:
382,262,8559,2,0,L|374:304,2,40,4|0|0,0:0|0:0|0:0,0:0:0:0:
483,206,8859,6,0,L|468:121,1,80,8|0,0:0|0:0,0:0:0:0:
333,39,9159,2,0,L|318:124,1,80
261,163,9384,1,0,0:0:0:0:
261,163,9459,2,0,L|269:205,3,40,8|0|0|0,0:0|0:0|0:0|0:0,0:0:0:0:
190,186,9759,2,0,L|198:228,2,40
244,346,10059,6,0,B|282:360|282:360|319:347,1,80,8|0,0:0|0:0,0:0:0:0:
408,246,10359,2,0,B|370:232|370:232|333:245,1,80
389,382,10659,2,0,L|397:340,3,40,8|0|0|0,0:0|0:0|0:0|0:0,0:0:0:0:
462,374,10959,2,0,L|470:332,2,40
408,246,11259,6,0,L|423:161,1,80,8|0,0:0|0:0,0:0:0:0:
366,69,11559,2,0,B|328:55|328:55|291:68,1,80
217,139,11859,5,8,0:0:0:0:
190,152,11934,1,0,0:0:0:0:
160,152,12009,1,0,0:0:0:0:
134,139,12084,1,0,0:0:0:0:
116,115,12159,6,0,L|124:73,2,40,2|0|0,0:0|0:0|0:0,0:0:0:0:
5,166,12384,2,0,L|13:208,2,40,2|8|0,0:0|0:0|0:0,0:0:0:0:
117,252,12609,2,0,L|125:210,2,40,2|0|0,0:0|0:0|0:0,0:0:0:0:
21,305,12834,2,0,L|29:347,2,40,2|0|0,0:0|0:0|0:0,0:0:0:0:
114,376,13059,5,8,0:0:0:0:
143,370,13134,1,0,0:0:0:0:
173,365,13209,1,0,0:0:0:0:
202,360,13284,1,0,0:0:0:0:
232,355,13359,6,0,L|224:313,2,40
303,313,13584,2,0,L|311:271,2,40
236,238,13809,2,0,L|228:196,2,40
305,173,14034,2,0,L|313:131,2,40
247,88,14259,5,0,0:0:0:0:
218,82,14334,1,0,0:0:0:0:
188,77,14409,1,0,0:0:0:0:
159,72,14484,1,0,0:0:0:0:
129,67,14559,6,0,L|137:25,4,40,4|0|0|0|0,0:0|0:0|0:0|0:0|0:0,0:0:0:0:
52,122,15009,2,0,B|65:198|65:198|68:198|68:198|88:311,1,160,2|0,0:0|0:0,0:0:0:0:
147,314,15459,2,0,B|161:276|161:276|148:239,1,80
33,343,15759,6,0,L|41:385,4,40
82,276,16209,2,0,B|138:271|138:271|177:293|177:293|241:288,1,160,2|0,0:0|0:0,0:0:0:0:
305,235,16659,2,0,L|320:150,1,80
273,63,16959,6,0,L|265:21,4,40
349,72,17409,2,0,P|305:132|202:100,1,160,2|0,0:0|0:0,0:0:0:0:
115,36,17859,2,0,L|130:121,1,80
47,186,18159,6,0,L|39:228,3,40
35,244,18459,2,0,L|27:286,3,40,0|0|2|0,0:0|0:0|0:0|0:0,0:0:0:0:
131,329,18759,6,0,L|123:287,3,40,0|2|0|2,0:0|0:2|0:0|0:2,0:0:0:0:
197,243,19059,5,0,0:0:0:0:
210,257,19134,1,2,0:2:0:0:
228,266,19209,1,0,0:0:0:0:
248,268,19284,1,2,0:2:0:0:
267,263,19359,6,0,L|275:221,4,40,4|0|0|0|0,0:0|0:0|0:0|0:0|0:0,0:0:0:0:
342,184,19809,2,0,P|407:181|451:265,1,160,2|0,0:0|0:0,0:0:0:0:
274,223,20259,2,0,B|260:185|260:185|273:148,1,80
377,249,20559,6,0,L|369:291,4,40
300,350,21009,2,0,B|224:336|224:336|223:339|223:339|110:319,1,160,2|0,0:0|0:0,0:0:0:0:
178,173,21459,2,0,B|192:211|192:211|179:248,1,80
76,127,21759,6,0,L|84:85,4,40
113,207,22209,2,0,B|169:202|169:202|208:224|208:224|272:219,1,160,2|0,0:0|0:0,0:0:0:0:
230,68,22659,2,0,B|216:106|216:106|229:143,1,80
283,227,22959,6,0,P|303:208|331:206,3,40,0|0|2|0,0:0|0:0|0:2|0:0,0:0:0:0:
330,134,23259,2,0,P|356:141|372:165,3,44.0000013427735,0|0|2|0,0:2|0:0|0:2|0:0,0:0:0:0:
437,132,23559,2,0,P|443:158|431:184,3,47.9999985351563,0|2|2|2,0:0|0:2|0:2|0:2,0:0:0:0:
488,229,23859,2,0,P|467:248|440:250,3,51.999997619629,2|2|2|2,0:2|0:2|0:2|0:2,0:0:0:0:
406,326,24159,6,2,L|321:311,1,80,6|0,0:0|0:0,0:0:0:0:
208,213,24459,1,8,0:0:0:0:
208,213,24609,2,0,P|113:221|91:280,1,160,2|0,0:0|0:0,0:0:0:0:
181,353,25059,2,0,L|166:268,1,80,10|0,0:0|0:0,0:0:0:0:
290,185,25359,6,2,L|275:270,1,80,2|0,0:0|0:0,0:0:0:0:
410,356,25659,2,0,L|395:271,1,80,8|0,0:0|0:0,0:0:0:0:
453,228,25884,1,0,0:0:0:0:
453,228,25959,2,0,L|461:186,3,40
393,148,26259,2,0,B|379:110|379:110|392:73,1,80,8|0,0:0|0:0,0:0:0:0:
281,32,26559,6,2,B|238:-4|238:-4|119:13,1,160,2|8,0:0|0:0,0:0:0:0:
53,95,27009,2,0,B|66:171|66:171|69:171|69:171|89:284,1,160,2|0,0:0|0:0,0:0:0:0:
187,311,27459,2,0,P|219:271|294:277,1,120,10|0,0:0|0:0,0:0:0:0:
313,297,27759,2,2,B|327:335|327:335|314:372,1,80,2|0,0:0|0:0,0:0:0:0:
221,237,28059,2,0,L|236:152,1,80,8|0,0:0|0:0,0:0:0:0:
293,97,28359,5,0,0:0:0:0:
303,95,28434,1,0,0:0:0:0:
313,93,28509,1,0,0:0:0:0:
155,183,28659,2,0,L|70:168,1,80,8|0,0:0|0:0,0:0:0:0:
274,302,28959,6,2,B|330:297|330:297|369:319|369:319|433:314,1,160,2|8,0:0|0:0,0:0:0:0:
495,232,29409,2,0,B|482:156|482:156|479:156|479:156|459:43,1,160,2|0,0:0|0:0,0:0:0:0:
278,33,29859,2,0,B|264:71|264:71|277:108,1,80,10|0,0:0|0:0,0:0:0:0:
398,167,30159,6,2,B|315:136|327:212|224:175,1,160,2|8,0:0|0:0,0:0:0:0:
113,90,30609,2,0,B|150:80|177:117|177:117|154:230,1,160,2|0,0:0|0:0,0:0:0:0:
64,320,31059,2,0,B|50:282|50:282|63:245,1,80,10|0,0:0|0:0,0:0:0:0:
210,267,31359,2,0,L|125:282,1,80,2|0,0:0|0:0,0:0:0:0:
192,154,31659,2,0,L|277:169,1,80,8|0,0:0|0:0,0:0:0:0:
378,281,31959,2,0,P|436:275|466:181,1,160,0|8,0:0|0:0,0:0:0:0:
343,163,32409,6,0,L|347:135,2,26.6666666666667
395,211,32559,2,0,L|267:188,1,120,2|0,0:0|0:0,0:0:0:0:
208,167,32859,6,0,B|201:187|201:187|207:209,3,40,8|0|0|0,0:0|0:0|0:0|0:0,0:0:0:0:
151,255,33159,2,0,B|164:271|164:271|186:276,3,40
198,347,33459,2,0,B|218:343|218:343|234:326,3,40
316,352,33759,6,0,L|301:267,1,80,6|0,0:0|0:0,0:0:0:0:
341,188,34059,1,8,0:0:0:0:
341,188,34209,2,0,P|319:235|199:220,1,160,2|0,0:0|0:0,0:0:0:0:
251,103,34659,2,0,L|266:188,1,80,10|0,0:0|0:0,0:0:0:0:
137,267,34959,2,2,L|152:182,1,80,2|0,0:0|0:0,0:0:0:0:
14,116,35259,2,0,L|29:201,1,80,8|0,0:0|0:0,0:0:0:0:
66,256,35484,1,0,0:0:0:0:
66,256,35559,2,0,L|58:298,2,40
116,365,35859,6,0,B|154:379|154:379|191:366,1,80,8|0,0:0|0:0,0:0:0:0:
259,220,36159,2,2,P|202:215|168:327,1,160,2|8,0:0|0:0,0:0:0:0:
275,359,36609,2,0,B|331:354|331:354|370:376|370:376|434:371,1,160,2|0,0:0|0:0,0:0:0:0:
512,238,37059,6,0,P|488:201|397:202,1,120,10|0,0:0|0:0,0:0:0:0:
389,218,37359,2,2,B|375:256|375:256|388:293,1,80,2|0,0:0|0:0,0:0:0:0:
270,374,37659,2,0,L|185:359,1,80,8|0,0:0|0:0,0:0:0:0:
81,264,37959,2,0,L|166:249,1,80
270,132,38259,2,0,L|274:104,4,26.6666666666667,8|0|0|0|0,0:0|0:0|0:0|0:0|0:0,0:0:0:0:
352,134,38559,6,2,L|182:104,1,160,6|8,0:0|0:0,0:0:0:0:
71,161,39009,2,2,P|138:170|195:83,1,160,2|0,0:0|0:0,0:0:0:0:
132,19,39459,2,0,L|117:104,1,80,8|0,0:0|0:0,0:0:0:0:
241,189,39759,6,2,B|286:222|286:222|411:191,1,160,6|8,0:0|0:0,0:0:0:0:
512,128,40209,2,2,P|437:131|393:51,1,160,0|0,0:0|0:0,0:0:0:0:
479,25,40659,2,0,L|471:67,2,40,8|0|0,0:0|0:0|0:0,0:0:0:0:
335,131,40959,6,0,B|279:126|279:126|240:148|240:148|176:143,1,160,6|8,0:0|0:0,0:0:0:0:
26,43,41409,1,0,0:0:0:0:
26,43,41559,2,0,L|111:28,1,80
114,180,41859,2,0,B|100:142|100:142|113:105,1,80,8|0,0:0|0:0,0:0:0:0:
287,22,42159,6,0,B|294:42|294:42|288:64,3,40,2|0|0|0,0:0|0:0|0:0|0:0,0:0:0:0:
345,109,42459,2,0,B|331:125|331:125|309:130,3,40,0|0|2|0,0:0|0:0|0:0|0:0,0:0:0:0:
298,202,42759,2,0,B|277:198|277:198|261:181,3,40,2|0|0|0,0:0|0:0|0:0|0:0,0:0:0:0:
194,208,43059,2,0,B|187:188|187:188|193:166,3,40
238,266,43359,5,4,0:0:0:0:
170,314,43509,2,0,L|85:299,1,80,2|8,2:0|0:0,0:0:0:0:
0,214,43809,2,0,P|71:144|138:173,1,160,2|0,0:0|0:0,0:0:0:0:
91,300,44259,2,0,L|76:215,1,80,8|0,0:0|0:0,0:0:0:0:
205,130,44559,2,0,L|190:215,1,80,2|2,2:0|2:0,0:0:0:0:
254,327,44859,5,2,2:0:0:0:
267,341,44934,1,2,2:0:0:0:
285,350,45009,1,2,2:0:0:0:
305,352,45084,1,2,2:0:0:0:
324,348,45159,2,0,B|338:310|338:310|325:273,1,80,0|2,0:0|0:2,0:0:0:0:
302,125,45459,2,0,B|288:163|288:163|301:200,1,80,8|2,0:0|0:2,0:0:0:0:
383,100,45759,5,0,0:0:0:0:
271,52,45909,2,0,L|186:67,1,80,2|8,2:0|0:0,0:0:0:0:
63,15,46209,2,0,B|100:68|100:68|67:161,1,160,2|0,0:0|0:0,0:0:0:0:
13,228,46659,2,0,L|98:243,1,80,8|0,0:0|0:0,0:0:0:0:
148,314,46959,2,0,L|233:299,1,80,2|2,2:0|2:0,0:0:0:0:
314,202,47259,5,2,2:0:0:0:
301,188,47334,1,2,2:0:0:0:
283,179,47409,1,2,2:0:0:0:
263,177,47484,1,2,2:0:0:0:
244,181,47559,2,0,B|237:201|237:201|243:223,3,40
313,109,47859,2,0,B|320:89|320:89|314:67,3,40
242,83,48159,5,0,0:0:0:0:
377,150,48309,2,0,L|462:135,1,80,2|8,2:0|0:0,0:0:0:0:
242,83,48609,6,0,B|186:78|186:78|147:100|147:100|83:95,1,160,2|0,0:0|0:0,0:0:0:0:
23,182,49059,2,0,B|9:220|9:220|22:257,1,80,8|0,0:0|0:0,0:0:0:0:
103,322,49359,2,0,L|188:307,1,80,2|2,2:0|2:0,0:0:0:0:
253,179,49659,5,2,2:0:0:0:
240,165,49734,1,2,2:0:0:0:
222,156,49809,1,2,2:0:0:0:
202,154,49884,1,2,2:0:0:0:
183,158,49959,2,0,B|169:196|169:196|182:233,1,80,0|2,0:0|0:2,0:0:0:0:
250,345,50259,2,0,B|264:307|264:307|251:270,1,80,8|2,0:0|0:2,0:0:0:0:
317,226,50559,6,0,L|365:217,3,40
428,205,50859,2,0,L|476:196,3,40
502,349,51159,6,0,L|453:340,3,40
391,328,51459,2,0,L|342:319,3,40
226,359,51759,5,0,0:0:0:0:
215,357,51834,1,0,0:0:0:0:
206,340,51909,1,0,0:0:0:0:
217,312,51984,1,0,0:0:0:0:
244,290,52059,1,0,0:0:0:0:
276,278,52134,1,0,0:0:0:0:
299,246,52209,1,0,0:0:0:0:
288,204,52284,1,0,0:0:0:0:
250,182,52359,6,0,L|201:191,3,40
166,253,52659,2,0,L|117:244,3,40
66,205,52959,6,0,B|42:148|42:148|72:85,1,120,6|0,0:0|0:0,0:0:0:0:
82,94,53259,2,0,L|167:79,1,80,8|0,0:0|0:0,0:0:0:0:
233,153,53559,1,0,0:0:0:0:
233,153,53709,1,0,0:0:0:0:
310,98,53859,2,0,L|359:89,3,40,8|0|0|0,0:0|0:0|0:0|0:0,0:0:0:0:
400,41,54159,6,0,L|370:211,1,160,2|8,0:0|0:0,0:0:0:0:
416,260,54609,1,0,0:0:0:0:
298,228,54759,1,0,0:0:0:0:
298,228,54909,1,0,0:0:0:0:
211,335,55059,2,0,L|162:326,3,40,8|0|0|0,0:0|0:0|0:0|0:0,0:0:0:0:
67,315,55359,6,0,B|53:277|53:277|66:240,1,80,2|0,0:0|0:0,0:0:0:0:
123,157,55659,1,8,0:0:0:0:
123,157,55809,1,0,0:0:0:0:
189,259,55959,2,0,L|274:244,1,80
371,110,56259,5,8,0:0:0:0:
357,83,56334,1,0,0:0:0:0:
334,65,56409,1,0,0:0:0:0:
305,58,56484,1,0,0:0:0:0:
276,65,56559,2,0,L|268:107,3,40,2|0|0|0,0:0|0:0|0:0|0:0,0:0:0:0:
170,144,56859,2,0,L|178:186,3,40,2|0|0|0,0:0|0:0|0:0|0:0,0:0:0:0:
241,231,57159,2,0,L|233:273,3,40,2|0|0|0,0:0|0:0|0:0|0:0,0:0:0:0:
173,322,57459,5,2,0:0:0:0:
153,318,57534,1,0,0:0:0:0:
133,315,57609,1,0,0:0:0:0:
113,311,57684,1,0,0:0:0:0:
94,308,57759,6,0,B|80:270|80:270|93:233,1,80,6|0,0:0|0:0,0:0:0:0:
170,115,58059,2,0,B|184:153|184:153|171:190,1,80,8|0,0:0|0:0,0:0:0:0:
83,89,58359,1,0,0:0:0:0:
83,89,58509,1,0,0:0:0:0:
193,33,58659,2,0,L|242:42,3,40,8|0|0|0,0:0|0:0|0:0|0:0,0:0:0:0:
306,53,58959,6,0,L|391:68,1,80,2|0,0:0|0:0,0:0:0:0:
469,151,59259,2,0,L|384:166,1,80,8|0,0:0|0:0,0:0:0:0:
326,238,59559,1,0,0:0:0:0:
326,238,59709,1,0,0:0:0:0:
263,148,59859,5,8,0:0:0:0:
233,142,59934,1,0,0:0:0:0:
205,150,60009,1,0,0:0:0:0:
182,169,60084,1,0,0:0:0:0:
170,196,60159,1,0,0:0:0:0:
236,301,60309,5,2,0:0:0:0:
239,281,60384,1,0,0:0:0:0:
114,267,60609,5,2,0:0:0:0:
111,287,60684,1,0,0:0:0:0:
250,302,60909,5,2,0:0:0:0:
253,282,60984,1,0,0:0:0:0:
100,266,61209,5,2,0:0:0:0:
97,286,61284,1,0,0:0:0:0:
94,306,61359,2,0,L|102:348,3,40
174,326,61659,2,0,L|182:368,3,40
239,281,61959,2,0,L|247:323,3,40
322,322,62259,2,0,L|330:364,3,40
391,269,62559,6,0,L|421:99,1,160,2|8,0:2|0:0,0:0:0:0:
418,111,63009,1,2,0:2:0:0:
295,20,63159,2,0,B|281:58|281:58|294:95,1,80,0|2,0:0|0:2,0:0:0:0:
224,179,63459,2,0,L|175:170,3,40,8|0|2|0,0:0|0:0|0:2|0:0,0:0:0:0:
286,235,63759,6,0,B|342:230|342:230|381:252|381:252|445:247,1,160,2|8,0:2|0:0,0:0:0:0:
439,247,64209,1,2,0:2:0:0:
323,383,64359,2,0,B|309:345|309:345|322:308,1,80,0|2,0:0|0:2,0:0:0:0:
401,172,64659,6,0,L|393:130,3,40,8|0|2|0,0:0|0:0|0:2|0:0,0:0:0:0:
405,45,64959,2,0,P|354:133|277:124,1,160,0|8,0:0|0:0,0:0:0:0:
304,136,65409,1,2,0:2:0:0:
247,48,65559,2,0,L|332:63,1,80,0|2,0:2|0:2,0:0:0:0:
233,180,65859,5,8,0:0:0:0:
213,183,65934,1,0,0:0:0:0:
193,186,66009,1,2,0:2:0:0:
173,190,66084,1,0,0:0:0:0:
154,193,66159,6,0,L|146:151,3,40,2|2|2|2,0:2|0:2|0:2|0:2,0:0:0:0:
182,264,66459,2,0,L|174:306,3,40,2|2|2|2,0:2|0:2|0:2|0:2,0:0:0:0:
81,189,66759,2,0,L|73:147,3,40,2|2|2|2,0:2|0:2|0:2|0:2,0:0:0:0:
107,259,67059,2,0,L|99:301,3,40,2|2|2|2,0:2|0:2|0:2|0:2,0:0:0:0:
30,317,67359,6,0,L|200:347,1,160,2|8,0:2|0:0,0:0:0:0:
187,344,67809,1,2,0:2:0:0:
297,243,67959,2,0,B|283:281|283:281|296:318,1,80,0|2,0:0|0:2,0:0:0:0:
390,363,68259,2,0,L|432:371,3,40,8|0|2|0,0:0|0:0|0:2|0:0,0:0:0:0:
508,384,68559,2,0,B|495:308|495:308|492:308|492:308|472:195,1,160,2|8,0:2|0:0,0:0:0:0:
478,229,69009,1,2,0:2:0:0:
354,130,69159,2,0,B|340:168|340:168|353:205,1,80,0|2,0:0|0:2,0:0:0:0:
265,297,69459,5,8,0:0:0:0:
235,291,69534,1,0,0:0:0:0:
205,286,69609,1,2,0:2:0:0:
176,281,69684,1,0,0:0:0:0:
146,276,69759,2,0,L|154:227,3,40,0|0|2|0,0:0|0:0|0:0|0:0,0:0:0:0:
85,206,70059,2,0,L|77:157,3,40,8|0|2|0,0:0|0:0|0:0|0:0,0:0:0:0:
164,160,70359,2,0,L|172:111,3,40,0|0|2|0,0:0|0:0|0:0|0:0,0:0:0:0:
66,95,70659,2,0,L|58:46,3,40,8|0|2|0,0:0|0:0|0:0|0:0,0:0:0:0:
133,8,70959,6,0,P|156:15|172:42,3,40
239,8,71259,2,0,P|244:32|228:59,3,44.0000013427735
290,103,71559,2,0,P|271:119|240:119,3,47.9999985351563
224,191,71859,2,0,P|200:183|184:156,3,51.999997619629
104,171,72159,5,4,0:0:0:0:
152,64,72309,2,0,L|67:49,1,80,2|8,0:2|0:0,0:0:0:0:
239,8,72609,2,0,B|295:3|295:3|334:25|334:25|398:20,1,160,2|0,0:0|0:0,0:0:0:0:
478,72,73059,2,0,B|492:110|492:110|479:147,1,80,8|0,0:0|0:0,0:0:0:0:
416,214,73359,2,0,L|331:199,1,80,2|2,2:0|2:0,0:0:0:0:
191,105,73659,5,2,2:0:0:0:
204,91,73734,1,2,2:0:0:0:
222,82,73809,1,2,2:0:0:0:
242,80,73884,1,2,2:0:0:0:
261,84,73959,2,0,B|275:122|275:122|262:159,1,80
196,278,74259,2,0,B|182:240|182:240|195:203,1,80
264,238,74559,5,0,0:0:0:0:
126,314,74709,2,0,L|41:299,1,80,2|8,2:0|0:0,0:0:0:0:
264,238,75009,6,0,B|320:233|320:233|359:255|359:255|423:250,1,160,2|0,0:0|0:0,0:0:0:0:
487,187,75459,2,0,L|502:102,1,80,8|0,0:0|0:0,0:0:0:0:
362,33,75759,2,0,L|377:118,1,80,2|2,2:0|2:0,0:0:0:0:
334,217,76059,5,2,2:0:0:0:
321,231,76134,1,2,2:0:0:0:
303,240,76209,1,2,2:0:0:0:
283,242,76284,1,2,2:0:0:0:
264,238,76359,2,0,B|253:178,3,40
201,151,76659,2,0,B|211:91,3,40
278,90,76959,5,0,0:0:0:0:
158,51,77109,2,0,L|73:66,1,80,2|8,2:0|0:0,0:0:0:0:
6,209,77409,2,0,P|55:189|138:253,1,160,2|0,0:0|0:0,0:0:0:0:
74,345,77859,2,0,L|59:260,1,80,8|0,0:0|0:0,0:0:0:0:
205,208,78159,2,0,B|219:246|219:246|206:283,1,80,2|2,2:0|2:0,0:0:0:0:
299,344,78459,5,2,2:0:0:0:
312,358,78534,1,2,2:0:0:0:
330,367,78609,1,2,2:0:0:0:
350,369,78684,1,2,2:0:0:0:
369,365,78759,2,0,B|380:305,3,40,2|2|2|2,2:0|2:0|2:0|2:0,0:0:0:0:
461,270,79059,2,0,B|450:210,3,40,2|2|2|2,2:0|2:0|2:0|2:0,0:0:0:0:
362,158,79359,6,0,B|302:169,3,40
260,124,79659,2,0,B|239:181,3,40
179,195,79959,2,0,B|218:241,3,40
199,300,80259,2,0,B|258:289,3,40
329,240,80559,6,0,B|389:251,3,40
431,206,80859,2,0,B|451:263,3,40
512,277,81159,2,0,B|472:323,3,40
492,382,81459,2,0,B|432:371,3,40
118,197,84159,5,4,0:1:0:0:
117,187,84234,1,0,0:0:0:0:
115,177,84309,1,0,0:0:0:0:
113,167,84384,1,0,0:0:0:0:
111,157,84459,2,0,L|100:96,3,40
195,45,84759,2,0,L|148:84,3,40
57,30,85059,2,0,L|114:50,3,40
188,141,85359,5,4,0:1:0:0:
189,151,85434,1,0,0:0:0:0:
191,161,85509,1,0,0:0:0:0:
193,171,85584,1,0,0:0:0:0:
195,181,85659,2,0,L|205:241,3,40
125,231,85959,2,0,L|135:291,3,40
215,296,86259,2,0,L|225:356,3,40
293,378,86559,5,4,0:1:0:0:
303,377,86634,1,0,0:0:0:0:
313,375,86709,1,0,0:0:0:0:
323,373,86784,1,0,0:0:0:0:
333,371,86859,2,0,L|393:360,3,40,2|0|0|0,0:0|0:0|0:0|0:0,0:0:0:0:
461,304,87159,2,0,L|400:293,3,40,2|0|0|0,0:0|0:0|0:0|0:0,0:0:0:0:
323,236,87459,2,0,L|383:225,3,40,2|0|0|0,0:0|0:0|0:0|0:0,0:0:0:0:
264,170,87759,6,0,L|274:111,2,40
174,206,87984,2,0,L|184:265,2,40
251,168,88209,6,0,L|261:109,2,40
161,208,88434,2,0,L|171:267,2,40
77,199,88659,5,0,0:0:0:0:
80,218,88734,1,0,0:0:0:0:
83,238,88809,1,0,0:0:0:0:
87,258,88884,1,0,0:0:0:0:
90,277,88959,6,0,L|100:336,3,40
168,360,89259,2,0,L|178:301,3,40
240,254,89559,2,0,L|250:313,3,40
303,379,89859,2,0,L|313:320,3,40
399,270,90159,5,4,0:0:0:0:
390,268,90234,1,0,0:0:0:0:
380,266,90309,1,0,0:0:0:0:
464,310,90459,6,0,B|478:272|478:272|465:235,1,80,8|0,0:0|0:0,0:0:0:0:
401,145,90759,2,0,L|316:130,1,80,2|0,0:2|0:0,0:0:0:0:
243,45,91059,2,0,L|253:-14,3,40,8|0|0|0,0:0|0:0|0:0|0:0,0:0:0:0:
174,81,91359,5,2,0:2:0:0:
165,79,91434,1,0,0:0:0:0:
155,77,91509,1,0,0:0:0:0:
243,45,91659,6,0,B|257:83|257:83|244:120,1,80,8|0,0:0|0:0,0:0:0:0:
173,203,91959,2,0,L|88:188,1,80,2|0,0:2|0:0,0:0:0:0:
62,211,92184,1,0,0:0:0:0:
62,211,92259,2,0,L|72:270,3,40,8|0|0|0,0:0|0:0|0:0|0:0,0:0:0:0:
144,312,92559,5,2,0:2:0:0:
135,314,92634,1,0,0:0:0:0:
125,316,92709,1,0,0:0:0:0:
211,274,92859,2,0,B|225:312|225:312|212:349,1,80,8|0,0:0|0:0,0:0:0:0:
323,335,93159,2,0,L|408:320,1,80,2|0,0:2|0:0,0:0:0:0:
432,295,93384,1,0,0:0:0:0:
432,295,93459,2,0,L|491:305,3,40,8|0|0|0,0:0|0:0|0:0|0:0,0:0:0:0:
412,181,93759,6,0,L|402:240,2,40,2|2|2,0:2|0:2|0:2,0:0:0:0:
345,132,93984,2,0,L|335:191,2,40,2|8|0,0:2|0:0|0:0,0:0:0:0:
266,147,94209,2,0,L|256:206,2,40,0|0|2,0:0|0:0|0:2,0:0:0:0:
202,88,94434,2,0,L|192:147,2,40,2|2|2,0:2|0:2|0:2,0:0:0:0:
136,32,94659,5,8,0:0:0:0:
121,17,94734,1,0,0:0:0:0:
104,8,94809,1,0,0:0:0:0:
84,6,94884,1,0,0:0:0:0:
64,10,94959,2,0,L|54:69,2,40,2|2|2,0:2|0:2|0:2,0:0:0:0:
111,105,95184,2,0,L|121:164,2,40,2|2|2,0:2|0:2|0:2,0:0:0:0:
42,177,95409,2,0,L|32:236,2,40,2|2|2,0:2|0:2|0:2,0:0:0:0:
132,224,95634,2,0,L|142:283,2,40,2|2|2,0:2|0:2|0:2,0:0:0:0:
50,337,95859,6,0,L|60:278,2,40,2|2|2,0:2|0:2|0:2,0:0:0:0:
355,223,96759,5,0,0:0:0:0:
336,220,96834,1,0,0:0:0:0:
316,216,96909,1,0,0:0:0:0:
296,213,96984,1,0,0:0:0:0:
277,209,97059,1,0,0:0:0:0:
192,313,97209,1,0,0:0:0:0:
211,309,97284,1,0,0:0:0:0:
156,136,97659,6,0,L|146:195,1,40,4|0,0:0|0:0,0:0:0:0:
