osu file format v14

[General]
AudioFilename: audio.mp3
AudioLeadIn: 0
PreviewTime: 52959
Countdown: 0
SampleSet: Normal
StackLeniency: 0.5
Mode: 0
LetterboxInBreaks: 0
WidescreenStoryboard: 1

[Editor]
Bookmarks: 14559
DistanceSpacing: 1
BeatDivisor: 4
GridSize: 8
TimelineZoom: 2.599999

[Metadata]
Title:Snow Goose
TitleUnicode:Snow Goose
Artist:Mutsuhiko Izumi
ArtistUnicode:Mutsuhiko Izumi
Creator:Velamy
Version:Hyper
Source:jubeat
Tags:Flower nathan off osu Randomina im a trap lmao Silverboxer stream deathstream video game music vgm rhythm instrumental fast electric pomp beatmania IIDX 19 Lincle jubeat plus KONAMI pack jukebeat 12 third 泉陸奥彦
BeatmapID:3731210
BeatmapSetID:1812593

[Difficulty]
HPDrainRate:3
CircleSize:3.5
OverallDifficulty:7
ApproachRate:7.5
SliderMultiplier:1.2
SliderTickRate:1

[Events]
//Background and Video events
0,0,"bg.jpg",0,0
//Break Periods
//Storyboard Layer 0 (Background)
//Storyboard Layer 1 (Fail)
//Storyboard Layer 2 (Pass)
//Storyboard Layer 3 (Foreground)
//Storyboard Layer 4 (Overlay)
//Storyboard Sound Samples

[TimingPoints]
2559,300,4,2,0,50,1,0
2559,-100,4,2,0,50,0,0
6159,-100,4,2,0,25,0,0
7359,-100,4,1,0,25,0,0
7659,-100,4,1,0,30,0,0
7959,-100,4,1,0,35,0,0
8259,-100,4,1,0,40,0,0
8559,-100,4,1,0,50,0,0
18759,-66.6666666666667,4,1,0,50,0,0
19359,-100,4,1,0,50,0,0
52959,-90.9090909090909,4,1,0,65,0,1
81684,-100,4,1,0,65,0,0
82959,-100,4,1,0,15,0,0
84159,-100,4,2,0,50,0,0
87759,-100,4,1,0,50,0,0

[Colours]
Combo1 : 180,185,252
Combo2 : 18,215,237
Combo3 : 7,146,205
Combo4 : 0,0,128

[HitObjects]
6,110,2559,6,0,L|-6:57,2,30,2|0|0,0:0|0:0|0:0,0:0:0:0:
55,177,2859,2,0,L|135:172,1,60,0|2,0:0|0:0,0:0:0:0:
187,130,3159,2,0,L|267:135,1,60,0|2,0:0|0:0,0:0:0:0:
309,190,3459,2,0,L|307:227,2,30,2|0|0,0:0|0:0|0:0,0:0:0:0:
389,214,3759,2,0,L|391:256,2,30,2|0|0,0:0|0:0|0:0,0:0:0:0:
464,175,4059,2,0,L|469:108,1,60,0|2,0:0|0:0,0:0:0:0:
413,51,4359,2,0,L|346:46,1,60,0|2,0:0|0:0,0:0:0:0:
272,24,4659,2,0,L|262:-5,2,30,2|0|0,0:0|0:0|0:0,0:0:0:0:
195,61,4959,6,0,L|181:19,2,30,2|0|0,0:0|0:0|0:0,0:0:0:0:
136,121,5259,2,0,P|102:117|67:127,1,60,0|2,0:0|0:0,0:0:0:0:
20,184,5559,2,0,P|16:218|26:253,1,60,0|2,0:0|0:0,0:0:0:0:
69,311,5859,2,0,L|67:353,2,30,2|0|0,0:0|0:0|0:0,0:0:0:0:
139,264,6159,6,0,P|167:262|203:257,1,60,2|0,0:0|0:0,0:0:0:0:
260,200,6459,2,0,P|288:203|324:207,1,60,0|2,0:0|0:0,0:0:0:0:
400,182,6759,2,0,L|406:250,1,60
441,317,7059,2,0,L|373:323,1,60,2|0,0:0|0:0,0:0:0:0:
298,349,7359,6,0,L|296:379,2,30
226,294,7659,2,0,L|224:324,2,30
153,240,7959,2,0,L|151:270,2,30
76,192,8259,1,0,0:0:0:0:
0,91,8559,6,0,P|35:86|70:95,1,60,4|0,0:0|0:0,0:0:0:0:
145,131,8859,1,8,0:0:0:0:
145,131,9009,1,0,0:0:0:0:
206,65,9159,2,0,L|284:53,1,60
342,9,9459,2,0,L|354:87,1,60,8|0,0:0|0:0,0:0:0:0:
437,94,9759,6,0,P|430:136|427:172,1,60
352,202,10059,1,8,0:0:0:0:
352,202,10209,1,0,0:0:0:0:
378,288,10359,2,0,L|390:366,1,60
313,381,10659,1,8,0:0:0:0:
158,367,10959,6,0,P|145:336|148:295,1,60
54,315,11259,2,0,P|58:281|81:247,1,60,8|0,0:0|0:0,0:0:0:0:
9,191,11559,2,0,P|21:159|52:133,1,60
115,90,11859,1,8,0:0:0:0:
115,90,12009,1,0,0:0:0:0:
182,30,12159,6,0,L|248:18,1,60
317,67,12459,2,0,L|325:136,1,60,8|0,0:0|0:0,0:0:0:0:
268,197,12759,2,0,P|206:187|126:180,1,120,0|8,0:0|0:0,0:0:0:0:
59,191,13209,1,0,0:0:0:0:
29,283,13359,6,0,L|-12:286,2,30
71,369,13659,2,0,L|30:372,2,30
167,369,13959,2,0,L|208:372,2,30
208,282,14259,2,0,L|249:285,2,30
120,242,14559,6,0,L|119:281,4,30,4|0|0|0|0,0:0|0:0|0:0|0:0|0:0,0:0:0:0:
141,160,15009,2,0,P|233:134|385:164,1,240,2|0,0:0|0:0,0:0:0:0:
438,211,15759,6,0,L|482:218,4,30
371,262,16209,2,0,P|254:236|138:263,1,240,2|0,0:0|0:0,0:0:0:0:
82,325,16959,6,0,L|89:369,4,30
13,276,17409,2,0,P|-14:160|14:43,1,240,2|0,0:0|0:0,0:0:0:0:
77,98,18159,6,0,L|152:88,1,60
223,79,18459,1,0,0:0:0:0:
223,79,18609,1,2,0:0:0:0:
304,0,18759,6,0,B|305:6|305:6|299:14|299:14|308:13|308:13|302:26|302:26|310:25|310:25|304:39|304:39|312:37|312:37|306:52|306:52|314:49|314:49|308:65|308:65|317:63|317:63|310:77|310:77|319:74|319:74|312:89|312:89|321:87|321:87|314:102|314:102|323:100|323:100|316:115|316:115|325:113|325:113|319:126|319:126|327:126|327:126|321:138|321:138|330:136|330:136|331:144,1,270.000010299683
403,178,19359,6,0,L|447:182,4,30,4|0|0|0|0,0:0|0:0|0:0|0:0|0:0,0:0:0:0:
347,241,19809,2,0,B|281:231|235:285|293:318|244:383|157:363,1,240,2|0,0:0|0:0,0:0:0:0:
88,354,20559,6,0,L|89:392,4,30
141,289,21009,2,0,B|150:223|96:177|63:235|-1:186|18:99,1,240,2|0,0:0|0:0,0:0:0:0:
29,11,21759,6,0,L|0:11,4,30
111,26,22209,2,0,B|182:8|231:73|173:107|219:161|285:151,1,240,2|0,0:0|0:0,0:0:0:0:
385,180,22959,6,0,L|388:225,2,30,0|0|2,0:0|0:0|0:2,0:0:0:0:
308,237,23259,2,0,L|311:282,2,30,0|0|2,0:2|0:0|0:2,0:0:0:0:
231,294,23559,2,0,L|234:339,2,30,0|2|2,0:0|0:2|0:2,0:0:0:0:
159,378,23859,1,2,0:2:0:0:
80,241,24159,6,2,P|55:183|78:118,1,120,6|8,0:0|0:0,0:0:0:0:
154,85,24609,2,0,L|274:61,1,120,2|0,0:0|0:0,0:0:0:0:
369,47,25059,1,10,0:0:0:0:
369,47,25209,1,0,0:0:0:0:
450,98,25359,1,2,0:0:0:0:
450,98,25509,2,0,L|517:110,2,60,0|8|0,0:0|0:0|0:0,0:0:0:0:
370,152,25959,2,0,L|303:164,1,60
269,243,26259,2,0,L|202:231,1,60,8|0,0:0|0:0,0:0:0:0:
116,166,26559,6,2,P|78:222|109:286,1,120,2|8,0:0|0:0,0:0:0:0:
164,330,27009,2,0,P|220:368|284:337,1,120,2|0,0:0|0:0,0:0:0:0:
343,296,27459,1,10,0:0:0:0:
343,296,27609,1,0,0:0:0:0:
417,356,27759,1,2,0:0:0:0:
417,356,27909,2,0,L|480:363,2,60,0|8|0,0:0|0:0|0:0,0:0:0:0:
343,296,28359,2,0,L|336:233,1,60
254,207,28659,1,8,0:0:0:0:
408,167,28959,6,2,P|429:114|408:44,1,120,2|8,0:0|0:0,0:0:0:0:
316,32,29409,2,0,L|193:12,1,120,2|0,0:0|0:0,0:0:0:0:
105,55,29859,2,0,L|30:66,1,60,10|0,0:0|0:0,0:0:0:0:
22,156,30159,6,2,P|4:218|25:273,1,120,2|8,0:0|0:0,0:0:0:0:
115,325,30609,2,0,L|235:343,1,120,2|0,0:0|0:0,0:0:0:0:
334,384,31059,2,0,L|409:373,1,60,10|0,0:0|0:0,0:0:0:0:
466,312,31359,2,0,P|473:279|464:253,1,60,2|0,0:0|0:0,0:0:0:0:
410,175,31659,2,0,P|376:168|350:177,1,60,8|0,0:0|0:0,0:0:0:0:
278,237,31959,2,0,P|244:243|218:234,1,60
152,166,32259,2,0,L|146:132,2,30,8|0|0,0:0|0:0|0:0,0:0:0:0:
223,102,32559,6,0,B|284:89|284:89|344:108,1,120,2|8,0:0|0:0,0:0:0:0:
409,172,33009,1,0,0:0:0:0:
480,107,33159,2,0,L|517:100,2,30
512,6,33459,1,0,0:0:0:0:
332,24,33759,6,0,L|198:-5,1,120,6|8,0:0|0:0,0:0:0:0:
181,91,34209,2,0,P|166:158|155:218,1,120,2|0,0:0|0:0,0:0:0:0:
140,306,34659,1,10,0:0:0:0:
140,306,34809,1,0,0:0:0:0:
54,261,34959,1,2,0:0:0:0:
54,261,35109,2,0,P|24:246|-14:250,2,60,0|8|0,0:0|0:0|0:0,0:0:0:0:
140,306,35559,2,0,L|213:315,1,60
293,292,35859,1,8,0:0:0:0:
359,361,36009,1,0,0:0:0:0:
440,310,36159,6,2,L|455:186,1,120,2|8,0:0|0:0,0:0:0:0:
398,112,36609,2,0,P|349:89|275:101,1,120,2|0,0:0|0:0,0:0:0:0:
205,148,37059,1,10,0:0:0:0:
205,148,37209,1,0,0:0:0:0:
132,85,37359,6,2,L|61:73,1,60,2|0,0:0|0:0,0:0:0:0:
11,149,37659,1,8,0:0:0:0:
11,149,37809,1,0,0:0:0:0:
89,204,37959,2,0,L|101:275,1,60
46,343,38259,2,0,L|-2:352,2,30,8|0|0,0:0|0:0|0:0,0:0:0:0:
137,372,38559,6,2,P|192:348|266:363,1,120,6|8,0:0|0:0,0:0:0:0:
356,384,39009,2,0,P|381:342|354:263,1,120
308,205,39459,1,8,0:0:0:0:
308,205,39609,1,0,0:0:0:0:
360,124,39759,6,2,P|422:140|475:118,1,120,6|8,0:0|0:0,0:0:0:0:
461,24,40209,2,0,P|399:8|346:30,1,120
269,80,40659,1,8,0:0:0:0:
117,202,40959,6,0,P|148:194|183:208,1,60,6|0,0:0|0:0,0:0:0:0:
240,273,41259,2,0,P|271:281|306:267,1,60,8|0,0:0|0:0,0:0:0:0:
344,189,41559,2,0,P|371:180|406:194,1,60
492,231,41859,1,8,0:0:0:0:
492,231,42009,1,0,0:0:0:0:
475,125,42159,6,0,L|487:84,2,30,2|0|0,0:0|0:0|0:0,0:0:0:0:
396,81,42459,2,0,L|383:40,2,30,0|0|2,0:0|0:0|0:0,0:0:0:0:
306,75,42759,2,0,L|273:47,2,30,2|0|0,0:0|0:0|0:0,0:0:0:0:
200,42,43059,1,0,0:0:0:0:
126,151,43359,5,4,0:0:0:0:
126,151,43509,2,0,L|135:239,1,60,2|8,2:0|0:0,0:0:0:0:
142,300,43809,2,0,P|199:274|258:281,1,120,2|0,0:0|0:0,0:0:0:0:
332,334,44259,1,8,0:0:0:0:
332,334,44409,1,0,0:0:0:0:
402,278,44559,6,0,L|443:281,2,30,2|2|2,2:0|2:0|2:0,0:0:0:0:
447,200,44859,2,0,L|483:180,2,30,2|2|2,2:0|2:0|2:0,0:0:0:0:
435,110,45159,2,0,L|454:73,2,30,0|0|2,0:0|0:0|0:2,0:0:0:0:
405,15,45459,1,8,0:0:0:0:
311,99,45759,5,0,0:0:0:0:
311,99,45909,2,0,P|274:104|244:93,1,60,2|8,2:0|0:0,0:0:0:0:
174,53,46209,2,0,L|50:64,1,120,2|0,0:0|0:0,0:0:0:0:
47,156,46659,1,8,0:0:0:0:
47,156,46809,1,0,0:0:0:0:
105,224,46959,6,0,L|146:228,2,30,2|2|2,2:0|2:0|2:0,0:0:0:0:
166,157,47259,2,0,L|198:182,2,30,2|2|2,2:0|2:0|2:0,0:0:0:0:
254,136,47559,2,0,L|267:175,2,30
315,73,47859,1,0,0:0:0:0:
400,236,48159,5,0,0:0:0:0:
400,236,48309,2,0,P|404:263|390:303,1,60,2|8,2:0|0:0,0:0:0:0:
314,333,48609,2,0,P|253:317|198:333,1,120,2|0,0:0|0:0,0:0:0:0:
123,377,49059,1,8,0:0:0:0:
123,377,49209,1,0,0:0:0:0:
46,329,49359,6,0,L|8:334,2,30,2|2|2,2:0|2:0|2:0,0:0:0:0:
73,242,49659,2,0,L|35:247,2,30,2|2|2,2:0|2:0|2:0,0:0:0:0:
111,155,49959,2,0,L|73:160,2,30,0|0|2,0:0|0:0|0:2,0:0:0:0:
146,68,50259,1,8,0:0:0:0:
256,192,50559,12,0,52359,0:0:0:0:
0,285,52959,6,0,L|158:298,1,132.00000402832,6|8,0:0|0:0,0:0:0:0:
210,260,53409,1,0,0:0:0:0:
169,184,53559,2,0,P|157:129|170:99,1,66.0000020141602
240,93,53859,2,0,L|285:85,2,33.0000010070801,8|0|0,0:0|0:0|0:0,0:0:0:0:
299,171,54159,6,0,P|364:184|432:159,1,132.00000402832,2|8,0:0|0:0,0:0:0:0:
489,107,54609,1,0,0:0:0:0:
425,49,54759,2,0,L|353:46,1,66.0000020141602
275,5,55059,2,0,L|230:-3,2,33.0000010070801,8|0|0,0:0|0:0|0:0,0:0:0:0:
177,44,55359,6,0,B|155:106|155:106|185:170,1,132.00000402832,2|8,0:0|0:0,0:0:0:0:
243,228,55809,1,0,0:0:0:0:
160,251,55959,2,0,P|120:258|71:245,1,66.0000020141602
33,185,56259,1,0,0:0:0:0:
33,185,56409,1,0,0:0:0:0:
73,87,56559,6,0,L|63:44,2,33.0000010070801,2|0|0,0:0|0:0|0:0,0:0:0:0:
149,33,56859,2,0,L|166:-7,2,33.0000010070801,2|0|0,0:0|0:0|0:0,0:0:0:0:
241,26,57159,2,0,L|277:1,2,33.0000010070801,2|0|0,0:0|0:0|0:0,0:0:0:0:
319,75,57459,2,0,L|363:74,2,33.0000010070801,2|0|0,0:0|0:0|0:0,0:0:0:0:
367,153,57759,6,0,P|384:204|350:275,1,132.00000402832,6|8,0:0|0:0,0:0:0:0:
278,326,58209,1,0,0:0:0:0:
210,263,58359,2,0,L|118:254,1,66.0000020141602
57,289,58659,2,0,L|11:293,2,33.0000010070801,8|0|0,0:0|0:0|0:0,0:0:0:0:
42,197,58959,6,0,P|25:146|59:75,1,132.00000402832,2|8,0:0|0:0,0:0:0:0:
131,24,59409,1,0,0:0:0:0:
199,87,59559,2,0,L|291:96,1,66.0000020141602
352,61,59859,2,0,L|398:56,2,33.0000010070801,8|0|0,0:0|0:0|0:0,0:0:0:0:
452,115,60159,5,0,0:0:0:0:
412,198,60309,2,0,L|407:276,1,66.0000020141602,2|0,0:0|0:0,0:0:0:0:
317,242,60609,2,0,L|322:320,1,66.0000020141602,2|0,0:0|0:0,0:0:0:0:
234,274,60909,2,0,L|229:352,1,66.0000020141602,2|0,0:0|0:0,0:0:0:0:
139,361,61209,1,2,0:0:0:0:
61,310,61359,6,0,L|16:316,2,33.0000010070801
87,220,61659,2,0,L|42:226,2,33.0000010070801
111,130,61959,2,0,L|66:136,2,33.0000010070801
144,43,62259,2,0,L|99:49,2,33.0000010070801
239,102,62559,6,0,P|302:120|385:95,1,132.00000402832,2|8,0:2|0:0,0:0:0:0:
425,49,63009,1,2,0:2:0:0:
448,124,63159,2,0,L|458:193,1,66.0000020141602,0|2,0:0|0:2,0:0:0:0:
413,256,63459,1,8,0:0:0:0:
410,273,63534,1,0,0:0:0:0:
408,289,63609,1,2,0:2:0:0:
323,301,63759,6,0,P|260:313|193:296,1,132.00000402832,2|8,0:2|0:0,0:0:0:0:
128,252,64209,1,2,0:2:0:0:
82,316,64359,2,0,L|11:323,1,66.0000020141602,0|2,0:0|0:2,0:0:0:0:
0,244,64659,1,8,0:0:0:0:
1,228,64734,1,0,0:0:0:0:
3,211,64809,1,2,0:2:0:0:
76,170,64959,6,0,L|114:174,2,33.0000010070801
111,84,65259,2,0,L|82:60,2,33.0000010070801,8|0|2,0:0|0:0|0:2,0:0:0:0:
203,86,65559,2,0,L|214:122,2,33.0000010070801,0|0|2,0:2|0:0|0:2,0:0:0:0:
292,61,65859,2,0,L|302:25,2,33.0000010070801,8|0|2,0:0|0:0|0:2,0:0:0:0:
355,129,66159,6,0,L|393:125,2,33.0000010070801,2|2|2,0:2|0:2|0:2,0:0:0:0:
324,217,66459,2,0,L|353:241,2,33.0000010070801,2|2|2,0:2|0:2|0:2,0:0:0:0:
248,270,66759,2,0,L|259:306,2,33.0000010070801,2|2|2,0:2|0:2|0:2,0:0:0:0:
155,267,67059,2,0,L|145:303,2,33.0000010070801
83,197,67359,6,0,P|67:161|97:72,1,132.00000402832,2|8,0:2|0:0,0:0:0:0:
156,18,67809,1,2,0:2:0:0:
233,53,67959,2,0,L|280:46,2,33.0000010070801,0|0|2,0:0|0:0|0:2,0:0:0:0:
188,118,68259,1,8,0:0:0:0:
185,134,68334,1,0,0:0:0:0:
183,151,68409,1,2,0:2:0:0:
258,192,68559,6,0,P|294:208|383:178,1,132.00000402832
446,128,69009,1,0,0:0:0:0:
402,54,69159,2,0,L|409:7,2,33.0000010070801
326,95,69459,1,8,0:0:0:0:
310,92,69534,1,0,0:0:0:0:
293,90,69609,1,2,0:2:0:0:
252,15,69759,6,0,P|215:5|178:10,1,66.0000020141602
186,113,70059,2,0,P|150:124|121:149,1,66.0000020141602
196,221,70359,2,0,P|172:250|161:286,1,66.0000020141602
264,304,70659,2,0,P|260:341|270:377,1,66.0000020141602
371,381,70959,2,0,L|418:385,2,33.0000010070801
440,300,71259,2,0,L|487:304,2,33.0000010070801
387,207,71559,2,0,L|434:211,2,33.0000010070801
459,129,71859,2,0,L|506:133,2,33.0000010070801
505,33,72159,5,4,0:0:0:0:
418,1,72309,2,0,P|381:-1|334:16,1,66.0000020141602,2|8,0:2|0:0,0:0:0:0:
292,76,72609,2,0,P|233:79|158:52,1,132.00000402832,2|0,0:0|0:0,0:0:0:0:
91,9,73059,1,8,0:0:0:0:
91,9,73209,1,0,0:0:0:0:
60,113,73359,6,0,L|66:156,2,33.0000010070801
145,162,73659,2,0,L|126:201,2,33.0000010070801
189,251,73959,2,0,L|152:273,2,33.0000010070801
182,350,74259,2,0,L|138:349,2,33.0000010070801
269,301,74559,5,0,0:0:0:0:
349,329,74709,2,0,P|390:328|426:314,1,66.0000020141602,2|8,2:0|0:0,0:0:0:0:
453,236,75009,2,0,P|432:191|457:103,1,132.00000402832,2|0,0:0|0:0,0:0:0:0:
499,51,75459,1,8,0:0:0:0:
499,51,75609,1,0,0:0:0:0:
402,28,75759,6,0,L|358:21,2,33.0000010070801,2|2|2,2:0|2:0|2:0,0:0:0:0:
337,103,76059,2,0,L|296:121,2,33.0000010070801,2|2|2,2:0|2:0|2:0,0:0:0:0:
316,199,76359,2,0,L|291:236,2,33.0000010070801
352,291,76659,2,0,L|351:335,2,33.0000010070801
283,363,76959,5,0,0:0:0:0:
201,335,77109,2,0,P|160:327|115:337,1,66.0000020141602,2|8,2:0|0:0,0:0:0:0:
54,358,77409,2,0,P|31:322|48:229,1,132.00000402832,2|0,0:0|0:0,0:0:0:0:
107,180,77859,1,8,0:0:0:0:
107,180,78009,1,0,0:0:0:0:
202,207,78159,6,0,L|243:204,2,33.0000010070801,2|2|2,2:0|2:0|2:0,0:0:0:0:
267,132,78459,2,0,L|303:151,2,33.0000010070801,2|2|2,2:0|2:0|2:0,0:0:0:0:
361,102,78759,2,0,L|380:138,2,33.0000010070801,2|2|2,2:0|2:0|2:0,0:0:0:0:
454,136,79059,2,0,L|450:176,2,33.0000010070801
389,220,79359,6,0,P|340:227|300:219,1,66.0000020141602,2|0,2:0|0:0,0:0:0:0:
234,204,79659,2,0,P|227:253|235:293,1,66.0000020141602,2|0,2:0|0:0,0:0:0:0:
229,361,79959,2,0,P|278:354|318:362,1,66.0000020141602,2|0,2:0|0:0,0:0:0:0:
384,377,80259,2,0,P|391:328|383:288,1,66.0000020141602,2|0,2:0|0:0,0:0:0:0:
389,220,80559,6,0,L|425:213,2,33.0000010070801
335,153,80859,2,0,L|299:146,2,33.0000010070801
395,91,81159,2,0,L|431:84,2,33.0000010070801
341,24,81459,5,0,0:0:0:0:
324,20,81534,1,0,0:0:0:0:
308,17,81609,2,0,L|272:10,1,33.0000010070801
342,74,84159,6,0,B|402:84|402:84|435:134,3,120,4|0|0|0,0:1|0:0|0:0|0:0,0:0:0:0:
278,121,85359,2,0,B|263:180|263:180|295:231,3,120,4|0|0|0,0:1|0:0|0:0|0:0,0:0:0:0:
454,217,86559,2,0,B|421:266|421:266|361:276,3,120,4|0|0|0,0:1|0:0|0:0|0:0,0:0:0:0:
256,192,87759,12,0,89859,0:0:0:0:
124,20,90159,6,0,L|82:16,2,30,4|0|0,0:0|0:0|0:0,0:0:0:0:
203,62,90459,2,0,P|241:60|271:46,1,60,8|0,0:0|0:0,0:0:0:0:
334,0,90759,1,2,0:2:0:0:
334,0,90909,1,0,0:0:0:0:
409,48,91059,2,0,L|451:44,2,30,8|0|0,0:0|0:0|0:0,0:0:0:0:
460,121,91359,6,0,L|502:117,2,30,2|0|0,0:2|0:0|0:0,0:0:0:0:
381,165,91659,2,0,L|294:156,1,60,8|0,0:0|0:0,0:0:0:0:
234,183,91959,1,2,0:2:0:0:
234,183,92109,1,0,0:0:0:0:
171,118,92259,2,0,L|182:80,2,30,8|0|0,0:0|0:0|0:0,0:0:0:0:
80,119,92559,6,0,L|69:81,2,30,2|0|0,0:2|0:0|0:0,0:0:0:0:
39,199,92859,2,0,L|9:173,2,30,8|0|0,0:0|0:0|0:0,0:0:0:0:
51,288,93159,2,0,L|11:282,2,30,2|0|0,0:2|0:0|0:0,0:0:0:0:
0,365,93459,1,8,0:0:0:0:
177,316,93759,6,0,P|226:317|244:318,1,60,2|2,0:2|0:2,0:0:0:0:
320,366,94059,2,0,P|349:371|378:376,1,60,8|0,0:0|0:0,0:0:0:0:
464,331,94359,2,0,P|488:280|461:204,1,120,2|8,0:2|0:0,0:0:0:0:
412,145,94809,1,0,0:0:0:0:
449,56,94959,6,0,L|496:55,2,30,2|2|2,0:2|0:2|0:2,0:0:0:0:
356,23,95259,2,0,L|314:7,2,30,2|2|2,0:2|0:2|0:2,0:0:0:0:
316,110,95559,2,0,L|287:120,2,30,2|2|2,0:2|0:2|0:2,0:0:0:0:
230,45,95859,5,2,0:2:0:0:
215,39,95934,1,2,0:2:0:0:
201,34,96009,2,0,L|159:18,1,30,2|2,0:2|0:2,0:0:0:0:
20,187,96759,5,0,0:0:0:0:
20,187,96834,2,0,L|4:229,3,30
96,229,97209,1,0,0:0:0:0:
96,229,97284,2,0,L|39:377,1,150,0|4,0:0|0:0,0:0:0:0:
