osu file format v14

[General]
AudioFilename: audio.mp3
AudioLeadIn: 0
PreviewTime: 52959
Countdown: 0
SampleSet: Normal
StackLeniency: 0.7
Mode: 0
LetterboxInBreaks: 0
WidescreenStoryboard: 1

[Editor]
DistanceSpacing: 1
BeatDivisor: 4
GridSize: 8
TimelineZoom: 1.7

[Metadata]
Title:Snow Goose
TitleUnicode:Snow Goose
Artist:Mutsuhiko Izumi
ArtistUnicode:Mutsuhiko Izumi
Creator:Velamy
Version:Flower's Avalanche
Source:jubeat
Tags:Flower nathan off osu Randomina im a trap lmao Silverboxer stream deathstream video game music vgm rhythm instrumental fast electric pomp beatmania IIDX 19 Lincle jubeat plus KONAMI pack jukebeat 12 third 泉陸奥彦
BeatmapID:3968518
BeatmapSetID:1812593

[Difficulty]
HPDrainRate:6
CircleSize:4
OverallDifficulty:9
ApproachRate:9
SliderMultiplier:1.6
SliderTickRate:1

[Events]
//Background and Video events
0,0,"snow-abstract.jpg",0,0
//Break Periods
//Storyboard Layer 0 (Background)
//Storyboard Layer 1 (Fail)
//Storyboard Layer 2 (Pass)
//Storyboard Layer 3 (Foreground)
//Storyboard Layer 4 (Overlay)
//Storyboard Sound Samples

[TimingPoints]
2559,300,4,2,0,50,1,0
2559,-100,4,2,0,50,0,0
6159,-100,4,2,0,25,0,0
7359,-100,4,1,0,25,0,0
7659,-100,4,1,0,30,0,0
7959,-100,4,1,0,35,0,0
8259,-100,4,1,0,40,0,0
8559,-100,4,1,0,50,0,0
24159,-100,4,1,0,60,0,0
50559,-66.6666666666667,4,1,0,60,0,0
52359,-100,4,1,0,60,0,0
52959,-100,4,1,0,65,0,1
62559,-66.6666666666667,4,1,0,65,0,1
72159,-100,4,1,0,65,0,1
79359,-66.6666666666667,4,1,0,65,0,1
80559,-66.6666666666667,4,1,0,65,0,1
81684,-66.6666666666667,4,1,0,65,0,0
82959,-66.6666666666667,4,1,0,15,0,0
84159,-100,4,2,0,50,0,0
87759,-100,4,1,0,50,0,0
88959,-66.6666666666667,4,1,0,50,0,0

[Colours]
Combo1 : 180,185,252
Combo2 : 18,215,237
Combo3 : 128,255,255
Combo4 : 0,0,128

[HitObjects]
78,85,2559,5,2,0:0:0:0:
78,85,2634,1,0,0:0:0:0:
78,85,2709,1,0,0:0:0:0:
149,136,2859,2,0,P|200:143|232:130,1,80,0|2,0:0|0:0,0:0:0:0:
340,103,3159,2,0,P|312:75|276:60,1,80,0|2,0:0|0:0,0:0:0:0:
411,158,3459,2,0,L|400:205,3,40,2|0|0|0,0:0|0:0|0:0|0:0,0:0:0:0:
434,154,3759,5,2,0:0:0:0:
450,143,3834,1,0,0:0:0:0:
459,125,3909,1,0,0:0:0:0:
322,191,4059,2,0,P|286:204|255:238,1,80,0|2,0:0|0:0,0:0:0:0:
373,343,4359,2,0,P|361:306|333:279,1,80,0|2,0:0|0:0,0:0:0:0:
210,307,4659,2,0,L|250:310,3,40,2|0|0|0,0:0|0:0|0:0|0:0,0:0:0:0:
199,323,4959,5,2,0:0:0:0:
182,334,5034,1,0,0:0:0:0:
163,342,5109,1,0,0:0:0:0:
143,345,5184,1,0,0:0:0:0:
123,344,5259,1,0,0:0:0:0:
56,286,5409,1,2,0:0:0:0:
81,201,5559,1,0,0:0:0:0:
167,183,5709,1,2,0:0:0:0:
246,220,5859,2,0,L|290:230,3,40,2|0|0|0,0:0|0:0|0:0|0:0,0:0:0:0:
352,192,6159,6,0,L|388:176,1,40,2|0,0:0|0:0,0:0:0:0:
328,344,6384,2,0,L|364:328,1,40,2|0,0:0|0:0,0:0:0:0:
388,176,6609,6,0,L|424:160,1,40,2|0,0:0|0:0,0:0:0:0:
364,328,6834,2,0,L|400:312,1,40,2|0,0:0|0:0,0:0:0:0:
424,160,7059,6,0,L|460:144,3,40,2|0|0|0,0:0|0:0|0:0|0:0,0:0:0:0:
482,120,7359,5,0,0:0:0:0:
483,88,7434,1,0,0:0:0:0:
471,58,7509,1,0,0:0:0:0:
444,40,7584,1,0,0:0:0:0:
412,32,7659,1,0,0:0:0:0:
380,36,7734,1,0,0:0:0:0:
354,55,7809,1,0,0:0:0:0:
338,82,7884,1,0,0:0:0:0:
335,113,7959,5,0,0:0:0:0:
295,139,8034,1,0,0:0:0:0:
247,142,8109,1,0,0:0:0:0:
204,120,8184,1,0,0:0:0:0:
178,79,8259,1,0,0:0:0:0:
136,55,8334,1,0,0:0:0:0:
88,55,8409,1,0,0:0:0:0:
46,78,8484,1,0,0:0:0:0:
28,122,8559,5,4,0:0:0:0:
80,276,8709,1,0,0:0:0:0:
48,128,8859,5,8,0:0:0:0:
52,292,9009,1,0,0:0:0:0:
68,136,9159,5,0,0:0:0:0:
28,308,9309,1,0,0:0:0:0:
216,352,9459,5,8,0:0:0:0:
204,320,9534,1,0,0:0:0:0:
192,288,9609,1,0,0:0:0:0:
351,334,9759,5,0,0:0:0:0:
472,288,9909,1,0,0:0:0:0:
332,320,10059,5,8,0:0:0:0:
480,256,10209,1,0,0:0:0:0:
316,308,10359,5,0,0:0:0:0:
488,232,10509,1,0,0:0:0:0:
344,92,10659,5,8,0:0:0:0:
308,104,10734,1,0,0:0:0:0:
272,116,10809,1,0,0:0:0:0:
236,128,10884,1,0,0:0:0:0:
200,140,10959,5,0,0:0:0:0:
248,348,11109,1,0,0:0:0:0:
187,160,11259,5,8,0:0:0:0:
280,351,11409,1,0,0:0:0:0:
176,177,11559,5,0,0:0:0:0:
311,354,11709,1,0,0:0:0:0:
154,295,11859,5,8,0:0:0:0:
232,149,12009,2,0,L|214:56,1,80
301,23,12309,5,0,0:0:0:0:
307,36,12384,1,0,0:0:0:0:
128,76,12534,1,0,0:0:0:0:
124,56,12609,1,0,0:0:0:0:
36,152,12759,1,0,0:0:0:0:
50,180,12834,1,0,0:0:0:0:
16,293,12984,1,0,0:0:0:0:
51,291,13059,1,8,0:0:0:0:
224,232,13209,1,0,0:0:0:0:
172,342,13359,5,0,0:0:0:0:
134,354,13434,1,0,0:0:0:0:
95,351,13509,1,0,0:0:0:0:
63,328,13584,1,0,0:0:0:0:
51,291,13659,1,0,0:0:0:0:
57,251,13734,1,0,0:0:0:0:
80,218,13809,1,0,0:0:0:0:
116,201,13884,1,0,0:0:0:0:
155,196,13959,1,0,0:0:0:0:
192,209,14034,1,0,0:0:0:0:
224,232,14109,1,0,0:0:0:0:
262,242,14184,1,0,0:0:0:0:
301,242,14259,2,0,L|306:193,1,40
394,214,14409,2,0,L|379:158,1,40
433,96,14559,6,0,L|472:169,1,80,4|0,0:0|0:0,0:0:0:0:
362,318,14859,1,0,0:0:0:0:
362,318,15009,1,2,0:0:0:0:
121,293,15159,2,0,B|163:265|227:259|277:276,1,160
344,52,15609,2,0,L|344:104,1,40
281,130,15759,6,0,P|234:143|196:141,1,80
368,190,16059,1,0,0:0:0:0:
368,190,16209,1,2,0:0:0:0:
216,53,16359,2,0,P|165:40|53:47,1,160
95,231,16809,1,0,0:0:0:0:
95,231,16884,1,0,0:0:0:0:
95,231,16959,6,0,L|183:217,1,80
122,332,17259,2,0,L|34:318,1,80,0|2,0:0|0:0,0:0:0:0:
119,144,17559,2,0,B|199:132|199:132|232:154|281:143,1,160
448,60,18009,2,0,L|488:80,2,40
359,96,18309,5,0,0:0:0:0:
433,155,18459,1,0,0:0:0:0:
448,60,18609,1,2,0:0:0:0:
108,48,18759,5,0,0:0:0:0:
132,52,18834,1,2,0:2:0:0:
156,56,18909,1,0,0:0:0:0:
180,60,18984,1,2,0:2:0:0:
200,48,19059,5,0,0:0:0:0:
224,52,19134,1,2,0:2:0:0:
248,56,19209,1,0,0:0:0:0:
272,60,19284,1,2,0:2:0:0:
296,52,19359,6,0,B|360:44|360:44|416:56|428:112,1,160,4|0,0:0|0:0,0:0:0:0:
256,156,19809,1,2,0:0:0:0:
56,234,19959,2,0,B|100:278|156:262|156:262|184:220,1,160
124,144,20409,1,0,0:0:0:0:
124,144,20484,1,0,0:0:0:0:
124,144,20559,6,0,L|28:128,1,80
272,60,20859,1,0,0:0:0:0:
320,228,21009,1,2,0:0:0:0:
240,72,21159,2,0,L|408:56,1,160
480,260,21609,2,0,L|480:220,1,40
448,152,21759,6,0,P|408:144|360:152,1,80
172,127,22059,2,0,P|146:96|138:51,1,80,0|2,0:0|0:0,0:0:0:0:
320,228,22359,2,0,B|336:288|304:344|244:360,1,160
164,324,22809,1,0,0:0:0:0:
172,127,22959,5,0,0:0:0:0:
141,95,23034,1,0,0:0:0:0:
98,85,23109,1,2,0:2:0:0:
55,96,23184,1,0,0:0:0:0:
23,126,23259,1,0,0:2:0:0:
12,168,23334,1,0,0:0:0:0:
19,211,23409,1,2,0:2:0:0:
52,240,23484,1,0,0:0:0:0:
94,252,23559,1,0,0:0:0:0:
140,239,23634,1,2,0:2:0:0:
177,209,23709,1,2,0:2:0:0:
224,199,23784,1,2,0:2:0:0:
271,208,23859,1,2,0:2:0:0:
310,234,23934,1,2,0:2:0:0:
335,274,24009,1,2,0:2:0:0:
347,320,24084,1,2,0:2:0:0:
343,367,24159,6,2,B|391:355|391:355|438:313|418:248,1,160,6|8,0:0|0:0,0:0:0:0:
144,48,24609,1,2,0:0:0:0:
74,102,24759,2,0,P|61:137|74:180,1,80
336,111,25059,2,0,P|349:76|336:33,1,80,10|0,0:0|0:0,0:0:0:0:
161,182,25359,6,2,L|296:168,1,120,2|0,0:0|0:0,0:0:0:0:
319,189,25659,2,0,P|343:235|342:263,1,80,8|0,0:0|0:0,0:0:0:0:
277,322,25959,1,0,0:0:0:0:
417,204,26109,1,0,0:0:0:0:
417,204,26184,1,0,0:0:0:0:
417,204,26259,1,8,0:0:0:0:
226,253,26409,1,0,0:0:0:0:
459,126,26559,6,2,P|491:158|473:270,1,160,2|8,0:0|0:0,0:0:0:0:
370,109,27009,1,2,0:0:0:0:
420,36,27159,2,0,P|458:29|507:43,1,80
417,204,27459,2,0,L|336:191,1,80,10|0,0:0|0:0,0:0:0:0:
96,84,27759,6,2,P|161:103|211:78,1,120,2|0,0:0|0:0,0:0:0:0:
239,52,28059,1,8,0:0:0:0:
370,109,28209,1,0,0:0:0:0:
370,109,28284,1,0,0:0:0:0:
370,109,28359,5,0,0:0:0:0:
197,177,28509,1,0,0:0:0:0:
276,52,28659,1,8,0:0:0:0:
236,248,28809,1,0,0:0:0:0:
239,52,28959,6,2,B|187:53|187:53|137:84|80:57,1,160,2|8,0:0|0:0,0:0:0:0:
32,208,29409,2,0,L|32:120,1,80,2|0,0:0|0:0,0:0:0:0:
168,255,29709,1,0,0:0:0:0:
243,210,29859,2,0,P|296:203|329:213,1,80,10|0,0:0|0:0,0:0:0:0:
216,326,30159,6,2,P|163:339|86:273,1,160,2|8,0:0|0:0,0:0:0:0:
195,141,30609,1,2,0:0:0:0:
354,242,30759,2,0,L|435:265,1,80
373,83,31059,2,0,L|273:101,1,80,10|0,0:0|0:0,0:0:0:0:
220,48,31359,5,2,0:0:0:0:
292,336,31659,1,8,0:0:0:0:
373,83,31959,1,0,0:0:0:0:
139,301,32259,1,8,0:0:0:0:
172,219,32409,1,0,0:0:0:0:
172,219,32484,1,0,0:0:0:0:
172,219,32559,6,0,P|120:215|84:233,1,80,2|0,0:0|0:0,0:0:0:0:
258,259,32859,2,0,P|309:262|345:244,1,80,8|0,0:0|0:0,0:0:0:0:
491,117,33159,1,0,0:0:0:0:
459,100,33234,1,0,0:0:0:0:
424,95,33309,1,0,0:0:0:0:
389,100,33384,1,0,0:0:0:0:
358,116,33459,1,0,0:0:0:0:
329,135,33534,1,0,0:0:0:0:
294,141,33609,1,0,0:0:0:0:
259,138,33684,1,0,0:0:0:0:
226,125,33759,6,0,P|211:85|221:43,1,80,6|0,0:0|0:0,0:0:0:0:
78,117,34059,2,0,P|93:157|83:199,1,80,8|2,0:0|0:0,0:0:0:0:
291,292,34359,1,0,0:0:0:0:
132,331,34509,1,0,0:0:0:0:
75,213,34659,1,10,0:0:0:0:
217,243,34809,1,0,0:0:0:0:
45,296,34959,6,2,P|-4:247|-5:188,1,120
12,159,35259,1,8,0:0:0:0:
162,179,35409,1,0,0:0:0:0:
294,105,35559,1,0,0:0:0:0:
444,124,35709,1,0,0:0:0:0:
366,245,35859,1,8,0:0:0:0:
216,265,36009,1,0,0:0:0:0:
444,124,36159,6,2,P|491:170|494:272,1,160,2|8,0:0|0:0,0:0:0:0:
294,105,36609,1,2,0:0:0:0:
411,32,36759,2,0,L|503:32,1,80
366,245,37059,2,0,L|364:144,1,80,10|0,0:0|0:0,0:0:0:0:
232,40,37359,6,2,B|204:84|236:124|236:124|272:144,1,120,2|0,0:0|0:0,0:0:0:0:
294,105,37659,1,8,0:0:0:0:
444,124,37809,1,0,0:0:0:0:
288,216,37959,1,0,0:0:0:0:
138,235,38109,1,0,0:0:0:0:
12,76,38259,2,0,L|64:64,1,40,8|0,0:0|0:0,0:0:0:0:
68,148,38409,2,0,L|120:152,1,40
138,235,38559,6,2,P|196:228|284:284,1,160,6|8,0:0|0:0,0:0:0:0:
468,228,39009,1,0,0:0:0:0:
260,312,39159,2,0,L|344:300,1,80,2|0,0:0|0:0,0:0:0:0:
138,235,39459,2,0,L|224:196,1,80,8|0,0:0|0:0,0:0:0:0:
296,80,39759,6,2,P|356:96|464:92,1,160,6|8,0:0|0:0,0:0:0:0:
200,120,40209,1,0,0:0:0:0:
200,120,40359,1,2,0:0:0:0:
328,192,40509,1,0,0:0:0:0:
328,192,40659,1,8,0:0:0:0:
296,80,40809,1,0,0:0:0:0:
140,44,40959,6,0,P|112:88|136:188,1,160,6|8,0:0|0:0,0:0:0:0:
328,192,41409,1,0,0:0:0:0:
224,224,41559,2,0,P|252:268|228:368,1,160,0|8,0:0|0:0,0:0:0:0:
156,296,42009,1,0,0:0:0:0:
384,360,42159,5,2,0:0:0:0:
388,352,42234,1,0,0:0:0:0:
392,344,42309,1,0,0:0:0:0:
396,336,42384,1,0,0:0:0:0:
400,328,42459,1,0,0:0:0:0:
404,320,42534,1,0,0:0:0:0:
408,312,42609,1,2,0:0:0:0:
412,304,42684,1,0,0:0:0:0:
440,284,42759,5,2,0:0:0:0:
436,272,42834,1,0,0:0:0:0:
432,260,42909,1,0,0:0:0:0:
428,248,42984,1,0,0:0:0:0:
424,236,43059,1,0,0:0:0:0:
420,224,43134,1,0,0:0:0:0:
416,212,43209,1,0,0:0:0:0:
412,200,43284,1,0,0:0:0:0:
424,156,43359,5,4,0:0:0:0:
296,313,43509,1,0,0:0:0:0:
296,313,43659,1,8,0:0:0:0:
505,117,43809,2,0,P|468:81|365:90,1,160
276,186,44259,1,8,0:0:0:0:
182,208,44409,1,0,0:0:0:0:
95,167,44559,5,2,2:0:0:0:
97,159,44634,1,2,2:0:0:0:
99,151,44709,1,2,2:0:0:0:
101,143,44784,1,2,2:0:0:0:
103,135,44859,1,2,2:0:0:0:
105,127,44934,1,2,2:0:0:0:
107,119,45009,1,2,2:0:0:0:
109,111,45084,1,2,2:0:0:0:
111,103,45159,2,0,P|64:94|22:105,1,80,0|2,0:0|0:2,0:0:0:0:
197,59,45459,2,0,P|244:68|286:57,1,80,8|2,0:0|0:2,0:0:0:0:
182,208,45759,5,0,0:0:0:0:
123,19,45909,1,0,0:0:0:0:
123,19,46059,1,8,0:0:0:0:
247,148,46209,2,0,P|270:191|225:290,1,160
26,258,46659,2,0,L|126:268,1,80,8|0,0:0|0:0,0:0:0:0:
305,348,46959,5,2,2:0:0:0:
324,351,47034,1,2,2:0:0:0:
343,351,47109,1,2,2:0:0:0:
362,349,47184,1,2,2:0:0:0:
381,344,47259,1,2,2:0:0:0:
398,334,47334,1,2,2:0:0:0:
413,321,47409,1,2,2:0:0:0:
425,305,47484,1,2,2:0:0:0:
433,286,47559,2,0,L|414:237,3,40
472,186,47859,2,0,L|434:149,3,40
375,191,48159,5,0,0:0:0:0:
467,85,48309,1,0,0:0:0:0:
311,148,48459,1,8,0:0:0:0:
203,36,48609,1,0,0:0:0:0:
304,229,48759,6,0,P|321:278|320:313,1,80
133,121,49059,2,0,L|231:118,1,80,8|0,0:0|0:0,0:0:0:0:
129,204,49359,5,2,2:0:0:0:
97,208,49434,1,2,2:0:0:0:
65,207,49509,1,2,2:0:0:0:
38,189,49584,1,2,2:0:0:0:
16,165,49659,1,2,2:0:0:0:
7,134,49734,1,2,2:0:0:0:
12,102,49809,1,2,2:0:0:0:
27,74,49884,1,2,2:0:0:0:
54,57,49959,2,0,L|142:77,1,80,0|2,0:0|0:2,0:0:0:0:
383,234,50259,2,0,L|298:257,1,80,8|2,0:0|0:2,0:0:0:0:
36,334,50559,5,0,0:0:0:0:
64,349,50634,1,0,0:0:0:0:
95,353,50709,1,0,0:0:0:0:
126,348,50784,1,0,0:0:0:0:
156,336,50859,2,0,L|176:276,1,60.0000022888184
222,182,51009,2,0,L|243:248,1,60.0000022888184
306,303,51159,5,0,0:0:0:0:
338,279,51234,1,0,0:0:0:0:
377,274,51309,1,0,0:0:0:0:
415,284,51384,1,0,0:0:0:0:
444,311,51459,2,0,L|432:382,1,60.0000022888184
500,237,51609,2,0,L|481:174,1,60.0000022888184
395,42,51759,5,0,0:0:0:0:
361,76,51834,1,0,0:0:0:0:
313,83,51909,1,0,0:0:0:0:
266,70,51984,1,0,0:0:0:0:
232,35,52059,2,0,L|203:93,1,60.0000022888184
81,73,52209,2,0,L|100:148,1,60.0000022888184
217,191,52359,6,0,P|254:178|299:179,1,80
84,260,52659,2,0,P|33:257|4:246,1,80
327,301,52959,6,0,B|291:340|235:353|180:344,1,160,6|8,0:0|0:0,0:0:0:0:
86,101,53409,1,0,0:0:0:0:
156,328,53559,5,0,0:0:0:0:
165,96,53709,1,0,0:0:0:0:
136,312,53859,6,0,L|120:268,1,40,8|0,0:0|0:0,0:0:0:0:
86,101,54009,2,0,L|93:56,1,40
41,172,54159,6,0,B|77:192|125:176|125:176|161:196,1,120,2|0,0:0|0:0,0:0:0:0:
209,240,54459,6,0,P|225:200|214:149,1,80,8|0,0:0|0:0,0:0:0:0:
86,101,54759,1,0,0:0:0:0:
63,334,54909,1,0,0:0:0:0:
251,306,55059,1,8,0:0:0:0:
274,300,55134,1,0,0:0:0:0:
297,294,55209,1,0,0:0:0:0:
320,289,55284,1,0,0:0:0:0:
343,284,55359,6,0,L|214:273,1,120,2|0,0:0|0:0,0:0:0:0:
178,268,55659,5,8,0:0:0:0:
375,276,55809,1,0,0:0:0:0:
358,97,55959,1,0,0:0:0:0:
420,344,56109,1,0,0:0:0:0:
321,208,56259,6,0,L|335:164,1,40,8|0,0:0|0:0,0:0:0:0:
265,38,56409,2,0,L|276:90,1,40
180,164,56559,5,2,0:0:0:0:
143,194,56634,1,0,0:0:0:0:
95,198,56709,1,0,0:0:0:0:
49,182,56784,1,0,0:0:0:0:
24,140,56859,1,2,0:0:0:0:
23,92,56934,1,0,0:0:0:0:
53,54,57009,1,0,0:0:0:0:
98,37,57084,1,0,0:0:0:0:
145,44,57159,6,0,L|148:83,1,40,2|0,0:0|0:0,0:0:0:0:
251,27,57309,2,0,L|237:63,1,40
370,33,57459,2,0,L|342:60,1,40,2|0,0:0|0:0,0:0:0:0:
451,103,57609,2,0,L|414:115,1,40
321,208,57759,6,0,P|388:194|449:205,1,120,6|0,0:0|0:0,0:0:0:0:
511,289,58059,2,0,L|428:298,1,80,8|0,0:0|0:0,0:0:0:0:
196,343,58359,1,0,0:0:0:0:
385,360,58509,1,0,0:0:0:0:
260,299,58659,2,0,L|319:290,1,40,8|0,0:0|0:0,0:0:0:0:
84,349,58809,2,0,L|133:363,1,40
196,343,58959,6,0,B|172:297|194:259|194:259|187:220,1,120,2|0,0:0|0:0,0:0:0:0:
231,167,59259,1,8,0:0:0:0:
116,247,59409,1,0,0:0:0:0:
290,371,59559,5,0,0:0:0:0:
201,244,59709,1,0,0:0:0:0:
366,55,59859,5,8,0:0:0:0:
362,82,59934,1,0,0:0:0:0:
358,109,60009,1,0,0:0:0:0:
354,136,60084,1,0,0:0:0:0:
350,163,60159,1,0,0:0:0:0:
223,73,60309,5,2,0:0:0:0:
261,63,60384,1,0,0:0:0:0:
478,274,60609,1,2,0:0:0:0:
446,268,60684,1,0,0:0:0:0:
226,215,60909,1,2,0:0:0:0:
252,207,60984,1,0,0:0:0:0:
471,146,61209,1,2,0:0:0:0:
451,141,61284,1,0,0:0:0:0:
432,136,61359,5,0,0:0:0:0:
414,160,61434,1,0,0:0:0:0:
390,178,61509,1,0,0:0:0:0:
362,187,61584,1,0,0:0:0:0:
332,188,61659,1,0,0:0:0:0:
304,179,61734,1,0,0:0:0:0:
279,162,61809,1,0,0:0:0:0:
261,138,61884,1,0,0:0:0:0:
251,110,61959,5,0,0:0:0:0:
233,145,62034,1,0,0:0:0:0:
204,173,62109,1,0,0:0:0:0:
169,191,62184,1,0,0:0:0:0:
130,198,62259,1,0,0:0:0:0:
90,194,62334,1,0,0:0:0:0:
54,178,62409,1,0,0:0:0:0:
23,152,62484,1,0,0:0:0:0:
2,118,62559,6,0,L|21:54,7,60.0000022888184,2|0|0|0|8|0|2|0,0:2|0:0|0:0|0:0|0:0|0:2|0:2|0:0,0:0:0:0:
65,47,63159,2,0,L|127:33,1,60.0000022888184
166,55,63309,2,0,L|233:71,1,60.0000022888184,2|0,0:2|0:0,0:0:0:0:
265,43,63459,2,0,L|327:29,1,60.0000022888184,8|0,0:0|0:0,0:0:0:0:
366,51,63609,2,0,L|433:67,1,60.0000022888184,2|0,0:2|0:0,0:0:0:0:
512,188,63759,6,0,L|454:202,7,60.0000022888184,2|0|0|0|8|0|2|0,0:2|0:0|0:0|0:0|0:0|0:2|0:2|0:0,0:0:0:0:
415,232,64359,2,0,L|402:293,1,60.0000022888184
369,325,64509,2,0,L|303:348,1,60.0000022888184,2|0,0:2|0:0,0:0:0:0:
264,343,64659,1,8,0:0:0:0:
225,313,64734,1,0,0:0:0:0:
217,265,64809,1,2,0:2:0:0:
244,225,64884,1,0,0:0:0:0:
290,214,64959,6,0,L|316:157,3,60.0000022888184
188,32,65259,2,0,L|212:86,3,60.0000022888184,8|0|2|0,0:0|0:0|0:2|0:0,0:0:0:0:
371,74,65559,2,0,L|304:64,3,60.0000022888184,0|0|2|0,0:2|0:0|0:2|0:0,0:0:0:0:
134,173,65859,2,0,L|201:163,3,60.0000022888184,8|0|2|0,0:0|0:0|0:2|0:0,0:0:0:0:
381,198,66159,5,2,0:2:0:0:
432,182,66234,1,2,0:2:0:0:
483,198,66309,1,2,0:2:0:0:
505,247,66384,1,2,0:2:0:0:
498,300,66459,1,2,0:2:0:0:
454,332,66534,1,2,0:2:0:0:
400,331,66609,1,2,0:2:0:0:
361,292,66684,1,2,0:2:0:0:
313,266,66759,1,2,0:2:0:0:
259,263,66834,1,2,0:2:0:0:
207,279,66909,1,2,0:2:0:0:
169,317,66984,1,2,0:2:0:0:
151,368,67059,1,2,0:2:0:0:
139,315,67134,1,2,0:2:0:0:
113,267,67209,1,2,0:2:0:0:
72,231,67284,1,2,0:2:0:0:
25,203,67359,6,0,L|12:138,1,60.0000022888184,2|0,0:2|0:0,0:0:0:0:
81,39,67509,2,0,L|68:104,1,60.0000022888184
114,221,67659,2,0,L|101:156,1,60.0000022888184,8|0,0:0|0:0,0:0:0:0:
180,26,67809,2,0,L|167:91,1,60.0000022888184,2|0,0:2|0:0,0:0:0:0:
202,228,67959,2,0,L|189:163,1,60.0000022888184
279,20,68109,2,0,L|266:85,1,60.0000022888184,2|0,0:2|0:0,0:0:0:0:
379,54,68259,6,0,P|409:59|442:52,1,60.0000022888184,8|0,0:0|0:0,0:0:0:0:
363,170,68409,2,0,P|333:165|300:172,1,60.0000022888184,2|0,0:2|0:0,0:0:0:0:
230,267,68559,5,2,0:2:0:0:
238,268,68634,1,0,0:0:0:0:
246,269,68709,1,0,0:0:0:0:
254,270,68784,1,0,0:0:0:0:
262,271,68859,1,8,0:0:0:0:
270,272,68934,1,0,0:0:0:0:
278,273,69009,1,2,0:2:0:0:
286,274,69084,1,0,0:0:0:0:
319,302,69159,5,0,0:0:0:0:
330,300,69234,1,0,0:0:0:0:
341,298,69309,1,2,0:2:0:0:
352,296,69384,1,0,0:0:0:0:
363,294,69459,1,8,0:0:0:0:
374,292,69534,1,0,0:0:0:0:
385,290,69609,1,2,0:2:0:0:
396,288,69684,1,0,0:0:0:0:
432,267,69759,6,0,L|503:277,1,60.0000022888184
434,144,69909,1,2,0:0:0:0:
455,151,69984,1,0,0:0:0:0:
476,159,70059,2,0,L|415:152,1,60.0000022888184,8|0,0:0|0:0,0:0:0:0:
288,176,70209,1,2,0:0:0:0:
309,183,70284,1,0,0:0:0:0:
330,191,70359,2,0,L|269:184,1,60.0000022888184
198,122,70509,1,2,0:0:0:0:
177,115,70584,1,0,0:0:0:0:
156,107,70659,2,0,L|222:96,1,60.0000022888184,8|0,0:0|0:0,0:0:0:0:
59,163,70809,1,2,0:0:0:0:
38,156,70884,1,0,0:0:0:0:
17,150,70959,5,0,0:0:0:0:
2,189,71034,1,0,0:0:0:0:
16,228,71109,1,0,0:0:0:0:
53,247,71184,1,0,0:0:0:0:
94,248,71259,1,0,0:0:0:0:
135,256,71334,1,0,0:0:0:0:
169,284,71409,1,0,0:0:0:0:
184,323,71484,1,0,0:0:0:0:
170,369,71559,5,0,0:0:0:0:
146,320,71634,1,0,0:0:0:0:
164,269,71709,1,0,0:0:0:0:
212,245,71784,1,0,0:0:0:0:
265,243,71859,1,0,0:0:0:0:
314,265,71934,1,0,0:0:0:0:
364,244,72009,1,0,0:0:0:0:
376,191,72084,1,0,0:0:0:0:
342,141,72159,5,4,0:0:0:0:
448,259,72309,1,2,0:2:0:0:
448,259,72459,1,8,0:0:0:0:
355,57,72609,2,0,P|298:69|258:156,1,160,2|0,0:0|0:0,0:0:0:0:
447,170,73059,2,0,L|435:92,1,80,8|0,0:0|0:0,0:0:0:0:
141,71,73359,1,2,2:0:0:0:
120,83,73434,1,2,2:0:0:0:
97,90,73509,1,2,2:0:0:0:
73,91,73584,1,2,2:0:0:0:
49,85,73659,1,2,2:0:0:0:
74,110,73734,1,2,2:0:0:0:
90,141,73809,1,2,2:0:0:0:
93,176,73884,1,2,2:0:0:0:
75,207,73959,5,0,0:0:0:0:
70,226,74034,1,0,0:0:0:0:
65,245,74109,1,0,0:0:0:0:
61,264,74184,1,0,0:0:0:0:
86,292,74259,5,0,0:0:0:0:
91,311,74334,1,0,0:0:0:0:
96,330,74409,1,0,0:0:0:0:
100,349,74484,1,0,0:0:0:0:
131,356,74559,6,0,P|176:344|218:348,1,80
357,369,74859,1,8,0:0:0:0:
191,244,75009,2,0,P|242:256|359:244,1,160
410,173,75459,5,8,0:0:0:0:
341,342,75609,1,0,0:0:0:0:
386,147,75759,5,2,2:0:0:0:
362,143,75834,1,2,2:0:0:0:
338,139,75909,1,2,2:0:0:0:
314,136,75984,1,2,2:0:0:0:
290,133,76059,1,2,2:0:0:0:
266,130,76134,1,2,2:0:0:0:
242,127,76209,1,2,2:0:0:0:
218,124,76284,1,2,2:0:0:0:
194,121,76359,2,0,L|205:169,3,40
123,56,76659,2,0,L|108:103,3,40
27,104,76959,5,0,0:0:0:0:
221,38,77109,1,0,0:0:0:0:
162,262,77259,1,8,0:0:0:0:
114,120,77409,1,0,0:0:0:0:
236,232,77559,6,0,P|287:223|322:229,1,80
87,225,77859,2,0,P|47:215|10:189,1,80,8|0,0:0|0:0,0:0:0:0:
186,355,78159,5,2,2:0:0:0:
213,339,78234,1,2,2:0:0:0:
243,329,78309,1,2,2:0:0:0:
274,324,78384,1,2,2:0:0:0:
305,329,78459,1,2,2:0:0:0:
334,341,78534,1,2,2:0:0:0:
360,359,78609,1,2,2:0:0:0:
391,365,78684,1,2,2:0:0:0:
422,360,78759,1,2,2:0:0:0:
449,343,78834,1,2,2:0:0:0:
464,314,78909,1,2,2:0:0:0:
465,282,78984,1,2,2:0:0:0:
450,253,79059,1,2,2:0:0:0:
420,239,79134,1,2,2:0:0:0:
402,212,79209,1,2,2:0:0:0:
403,180,79284,1,2,2:0:0:0:
420,153,79359,6,0,L|484:147,3,60.0000022888184
323,245,79659,2,0,L|259:239,3,60.0000022888184
246,45,79959,2,0,L|256:107,3,60.0000022888184
210,338,80259,2,0,L|200:276,3,60.0000022888184
357,81,80559,6,0,L|332:140,1,60.0000022888184
154,302,80709,2,0,L|179:243,1,60.0000022888184
408,187,80859,6,0,L|349:210,1,60.0000022888184
104,197,81009,2,0,L|163:174,1,60.0000022888184
369,296,81159,6,0,L|310:271,1,60.0000022888184
143,88,81309,2,0,L|202:113,1,60.0000022888184
266,352,81459,6,0,L|243:293,1,60.0000022888184
246,32,81609,2,0,L|269:91,1,60.0000022888184
83,313,84159,6,0,P|140:338|206:326,1,120,4|0,0:1|2:0,0:0:0:0:
235,302,84459,2,0,L|223:212,1,80
352,289,84759,2,0,L|335:383,1,80
456,281,85059,1,0,0:0:0:0:
437,186,85209,1,0,0:0:0:0:
242,124,85359,6,0,L|120:131,1,120,4|0,0:1|2:0,0:0:0:0:
91,168,85659,2,0,P|116:194|133:241,1,80
7,121,85959,2,0,L|33:37,1,80
239,38,86259,2,0,P|270:43|314:76,1,80
425,134,86559,5,4,0:1:0:0:
401,39,86709,1,2,0:2:0:0:
408,148,86859,5,0,0:0:0:0:
420,41,87009,1,2,0:2:0:0:
392,162,87159,5,0,0:0:0:0:
439,43,87309,1,2,0:2:0:0:
377,175,87459,5,0,0:0:0:0:
458,45,87609,1,2,0:2:0:0:
320,96,87759,5,0,0:0:0:0:
292,112,87834,1,0,0:0:0:0:
260,124,87909,1,0,0:0:0:0:
228,124,87984,1,0,0:0:0:0:
196,112,88059,1,0,0:0:0:0:
172,92,88134,1,0,0:0:0:0:
156,64,88209,1,0,0:0:0:0:
128,52,88284,1,0,0:0:0:0:
96,56,88359,1,0,0:0:0:0:
72,76,88434,1,0,0:0:0:0:
64,108,88509,1,0,0:0:0:0:
80,136,88584,1,0,0:0:0:0:
108,152,88659,1,0,0:0:0:0:
120,184,88734,1,0,0:0:0:0:
120,216,88809,1,0,0:0:0:0:
100,240,88884,1,0,0:0:0:0:
72,260,88959,6,0,L|8:244,3,60.0000022888184
176,320,89259,2,0,L|108:344,3,60.0000022888184
288,264,89559,2,0,L|224:248,3,60.0000022888184
392,324,89859,2,0,L|324:348,3,60.0000022888184
500,188,90159,5,4,0:0:0:0:
464,208,90234,1,0,0:0:0:0:
424,216,90309,1,0,0:0:0:0:
384,200,90384,1,0,0:0:0:0:
352,172,90459,1,8,0:0:0:0:
316,152,90534,1,0,0:0:0:0:
276,152,90609,1,0,0:0:0:0:
236,168,90684,1,0,0:0:0:0:
208,200,90759,1,2,0:2:0:0:
208,160,90834,1,0,0:0:0:0:
192,120,90909,1,0,0:0:0:0:
164,88,90984,1,0,0:0:0:0:
124,76,91059,1,8,0:0:0:0:
84,84,91134,1,0,0:0:0:0:
60,116,91209,1,0,0:0:0:0:
52,156,91284,1,0,0:0:0:0:
64,196,91359,6,0,L|128:180,3,60.0000022888184,2|0|0|0,0:2|0:0|0:0|0:0,0:0:0:0:
208,300,91659,2,0,L|144:284,3,60.0000022888184,8|0|0|0,0:0|0:0|0:0|0:0,0:0:0:0:
282,251,91959,5,2,0:2:0:0:
311,244,92034,1,0,0:0:0:0:
340,245,92109,1,0,0:0:0:0:
367,250,92184,1,0,0:0:0:0:
394,259,92259,1,8,0:0:0:0:
420,276,92334,1,0,0:0:0:0:
436,299,92409,1,0,0:0:0:0:
447,325,92484,1,0,0:0:0:0:
450,354,92559,5,2,0:2:0:0:
412,336,92634,1,0,0:0:0:0:
372,332,92709,1,0,0:0:0:0:
332,340,92784,1,0,0:0:0:0:
296,364,92859,1,8,0:0:0:0:
260,344,92934,1,0,0:0:0:0:
236,308,93009,1,0,0:0:0:0:
228,268,93084,1,0,0:0:0:0:
232,228,93159,1,2,0:2:0:0:
256,192,93234,1,0,0:0:0:0:
292,172,93309,1,0,0:0:0:0:
332,172,93384,1,0,0:0:0:0:
372,188,93459,1,8,0:0:0:0:
412,180,93534,1,0,0:0:0:0:
440,148,93609,1,0,0:0:0:0:
444,108,93684,1,0,0:0:0:0:
420,72,93759,6,0,L|352:44,1,60.0000022888184,2|2,0:2|0:2,0:0:0:0:
316,76,93909,2,0,L|256:96,1,60.0000022888184,2|2,0:2|0:2,0:0:0:0:
212,64,94059,2,0,L|144:36,1,60.0000022888184,8|0,0:0|0:0,0:0:0:0:
108,68,94209,2,0,L|48:88,1,60.0000022888184
0,108,94359,5,2,0:2:0:0:
16,124,94434,1,2,0:2:0:0:
28,144,94509,1,2,0:2:0:0:
36,168,94584,1,2,0:2:0:0:
40,192,94659,1,8,0:0:0:0:
40,216,94734,1,0,0:0:0:0:
36,240,94809,1,0,0:0:0:0:
28,264,94884,1,0,0:0:0:0:
16,284,94959,5,2,0:2:0:0:
56,276,95034,1,2,0:2:0:0:
96,272,95109,1,2,0:2:0:0:
136,280,95184,1,2,0:2:0:0:
168,304,95259,1,2,0:2:0:0:
188,340,95334,1,2,0:2:0:0:
224,360,95409,1,2,0:2:0:0:
264,360,95484,1,2,0:2:0:0:
304,348,95559,1,2,0:2:0:0:
332,316,95634,1,2,0:2:0:0:
340,276,95709,1,2,0:2:0:0:
324,236,95784,1,2,0:2:0:0:
288,212,95859,1,2,0:2:0:0:
248,208,95934,1,2,0:2:0:0:
208,220,96009,1,2,0:2:0:0:
168,212,96084,1,2,0:2:0:0:
180,48,96759,5,0,0:0:0:0:
180,48,96834,2,0,L|212:104,1,60.0000022888184
332,48,96984,2,0,L|300:104,1,60.0000022888184
256,192,97209,5,0,0:0:0:0:
256,192,97284,1,0,0:0:0:0:
256,192,97659,5,4,0:0:0:0:
