osu file format v14

[General]
AudioFilename: audio.mp3
AudioLeadIn: 0
PreviewTime: 52959
Countdown: 0
SampleSet: Normal
StackLeniency: 0.3
Mode: 0
LetterboxInBreaks: 0
WidescreenStoryboard: 0

[Editor]
Bookmarks: 85059
DistanceSpacing: 1
BeatDivisor: 4
GridSize: 32
TimelineZoom: 1.7

[Metadata]
Title:Snow Goose
TitleUnicode:Snow Goose
Artist:Mutsuhiko Izumi
ArtistUnicode:Mutsuhiko Izumi
Creator:Velamy
Version:Extra
Source:jubeat
Tags:Flower nathan off osu Randomina im a trap lmao Silverboxer stream deathstream video game music vgm rhythm instrumental fast electric pomp beatmania IIDX 19 Lincle jubeat plus KONAMI pack jukebeat 12 third 泉陸奥彦
BeatmapID:3718236
BeatmapSetID:1812593

[Difficulty]
HPDrainRate:5
CircleSize:3.5
OverallDifficulty:9
ApproachRate:9
SliderMultiplier:1.5
SliderTickRate:1

[Events]
//Background and Video events
0,0,"bg.jpg",0,0
//Break Periods
//Storyboard Layer 0 (Background)
//Storyboard Layer 1 (Fail)
//Storyboard Layer 2 (Pass)
//Storyboard Layer 3 (Foreground)
//Storyboard Layer 4 (Overlay)
//Storyboard Sound Samples

[TimingPoints]
2559,300,4,2,0,50,1,0
2559,-100,4,2,0,50,0,0
6159,-100,4,2,0,25,0,0
7359,-100,4,1,0,25,0,0
7659,-100,4,1,0,30,0,0
7959,-100,4,1,0,35,0,0
8259,-100,4,1,0,40,0,0
8559,-83.3333333333333,4,1,0,50,0,0
14559,-100,4,1,0,50,0,0
24159,-80,4,1,0,60,0,0
43359,-90.9090909090909,4,1,0,60,0,0
45759,-83.3333333333333,4,1,0,60,0,0
48159,-90.9090909090909,4,1,0,60,0,0
50559,-76.9230769230769,4,1,0,60,0,0
52959,-76.9230769230769,4,1,0,65,0,1
62559,-80,4,1,0,65,0,1
72159,-90.9090909090909,4,1,0,65,0,1
74559,-83.3333333333333,4,1,0,65,0,1
76959,-90.9090909090909,4,1,0,65,0,1
79359,-76.9230769230769,4,1,0,65,0,1
80559,-76.9230769230769,4,1,0,65,0,1
81684,-200,4,1,0,65,0,0
82959,-200,4,1,0,15,0,0
84159,-90.9090909090909,4,2,0,50,0,0
87759,-90.9090909090909,4,1,0,50,0,0
90159,-83.3333333333333,4,1,0,50,0,0
96159,-100,4,1,0,50,0,0

[Colours]
Combo1 : 180,185,252
Combo2 : 18,215,237
Combo3 : 7,146,205
Combo4 : 0,0,128

[HitObjects]
62,288,2559,5,2,0:0:0:0:
70,288,2634,1,0,0:0:0:0:
79,288,2709,1,0,0:0:0:0:
88,288,2784,1,0,0:0:0:0:
97,289,2859,2,0,B|135:293|135:293|173:313,1,75,0|2,0:0|0:0,0:0:0:0:
269,208,3159,2,0,B|231:212|231:212|193:232,1,75,0|2,0:0|0:0,0:0:0:0:
278,312,3459,1,2,0:0:0:0:
306,312,3534,1,0,0:0:0:0:
331,300,3609,1,0,0:0:0:0:
349,279,3684,1,0,0:0:0:0:
359,253,3759,5,2,0:0:0:0:
359,244,3834,1,0,0:0:0:0:
359,234,3909,1,0,0:0:0:0:
359,225,3984,1,0,0:0:0:0:
359,216,4059,6,0,P|356:172|372:146,1,75,0|2,0:0|0:0,0:0:0:0:
291,86,4359,2,0,P|270:47|242:34,1,75,0|2,0:0|0:0,0:0:0:0:
184,117,4659,1,2,0:0:0:0:
187,145,4734,1,0,0:0:0:0:
191,173,4809,1,0,0:0:0:0:
194,201,4884,1,0,0:0:0:0:
198,229,4959,5,2,0:0:0:0:
182,219,5034,1,0,0:0:0:0:
165,211,5109,1,0,0:0:0:0:
147,207,5184,1,0,0:0:0:0:
130,216,5259,2,0,B|92:221|92:221|53:208,1,75,0|2,0:0|0:0,0:0:0:0:
81,30,5559,2,0,B|119:25|119:25|158:38,1,75,0|2,0:0|0:0,0:0:0:0:
301,125,5859,1,2,0:0:0:0:
325,138,5934,1,0,0:0:0:0:
352,144,6009,1,0,0:0:0:0:
380,141,6084,1,0,0:0:0:0:
410,128,6159,6,0,L|454:135,2,37.5,2|0|0,0:0|0:0|0:0,0:0:0:0:
448,214,6384,2,0,L|481:243,2,37.5,2|0|0,0:0|0:0|0:0,0:0:0:0:
415,313,6609,2,0,L|426:356,2,37.5,2|0|0,0:0|0:0|0:0,0:0:0:0:
302,327,6834,2,0,L|288:369,2,37.5,2|0|0,0:0|0:0|0:0,0:0:0:0:
196,342,7059,1,2,0:0:0:0:
188,347,7134,1,0,0:0:0:0:
181,353,7209,1,0,0:0:0:0:
174,359,7284,1,0,0:0:0:0:
167,365,7359,5,0,0:0:0:0:
143,357,7434,1,0,0:0:0:0:
124,340,7509,1,0,0:0:0:0:
114,318,7584,1,0,0:0:0:0:
114,293,7659,1,0,0:0:0:0:
124,270,7734,1,0,0:0:0:0:
142,253,7809,1,0,0:0:0:0:
161,221,7884,1,0,0:0:0:0:
166,184,7959,1,0,0:0:0:0:
155,148,8034,1,0,0:0:0:0:
128,119,8109,5,0,0:0:0:0:
87,133,8184,1,0,0:0:0:0:
58,165,8259,1,0,0:0:0:0:
51,208,8334,1,0,0:0:0:0:
66,248,8409,1,0,0:0:0:0:
100,275,8484,1,0,0:0:0:0:
151,283,8559,6,0,L|194:269,3,44.999998626709,4|0|0|0,0:0|0:0|0:0|0:0,0:0:0:0:
268,327,8859,2,0,P|284:276|268:226,1,89.9999972534181,8|0,0:0|0:0,0:0:0:0:
136,199,9159,1,0,0:0:0:0:
81,346,9309,1,0,0:0:0:0:
16,244,9459,1,8,0:0:0:0:
5,224,9534,1,0,0:0:0:0:
0,202,9609,1,0,0:0:0:0:
1,179,9684,1,0,0:0:0:0:
10,159,9759,6,0,L|3:104,3,44.999998626709
136,199,10059,2,0,L|251:184,1,89.9999972534181,8|0,0:0|0:0,0:0:0:0:
339,230,10359,1,0,0:0:0:0:
268,327,10509,1,0,0:0:0:0:
433,264,10659,1,8,0:0:0:0:
439,242,10734,1,0,0:0:0:0:
439,219,10809,1,0,0:0:0:0:
434,198,10884,1,0,0:0:0:0:
424,180,10959,6,0,L|430:132,3,44.999998626709
339,230,11259,2,0,P|283:236|258:218,1,89.9999972534181,8|0,0:0|0:0,0:0:0:0:
136,199,11559,2,0,P|80:193|55:211,1,89.9999972534181
190,355,11859,2,0,P|196:299|178:274,1,89.9999972534181,8|0,0:0|0:0,0:0:0:0:
44,123,12159,6,0,L|-1:117,2,44.999998626709,2|0|0,0:0|0:0|0:0,0:0:0:0:
124,81,12384,2,0,L|89:51,2,44.999998626709,2|8|0,0:0|0:0|0:0,0:0:0:0:
237,92,12609,2,0,L|224:48,2,44.999998626709,2|0|0,0:0|0:0|0:0,0:0:0:0:
337,186,12834,2,0,L|349:142,2,44.999998626709,2|0|0,0:0|0:0|0:0,0:0:0:0:
455,124,13059,1,8,0:0:0:0:
463,116,13134,1,0,0:0:0:0:
472,109,13209,1,0,0:0:0:0:
480,102,13284,1,0,0:0:0:0:
487,93,13359,5,0,0:0:0:0:
455,61,13434,1,0,0:0:0:0:
412,52,13509,1,0,0:0:0:0:
370,68,13584,1,0,0:0:0:0:
344,104,13659,1,0,0:0:0:0:
309,131,13734,1,0,0:0:0:0:
265,141,13809,1,0,0:0:0:0:
222,129,13884,1,0,0:0:0:0:
186,102,13959,6,0,L|194:53,3,44.999998626709
108,170,14259,5,0,0:0:0:0:
113,203,14334,1,0,0:0:0:0:
118,236,14409,1,0,0:0:0:0:
124,269,14484,1,0,0:0:0:0:
128,297,14559,6,0,L|79:289,4,37.5,4|0|0|0|0,0:0|0:0|0:0|0:0|0:0,0:0:0:0:
228,359,15009,2,0,B|240:285|240:285|206:219,1,150,2|0,0:0|0:0,0:0:0:0:
331,273,15459,2,0,B|338:231|367:201,1,75
280,132,15759,5,0,0:0:0:0:
280,114,15834,1,0,0:0:0:0:
280,95,15909,1,0,0:0:0:0:
280,76,15984,1,0,0:0:0:0:
280,57,16059,1,0,0:0:0:0:
145,141,16209,2,0,B|122:155|96:156|68:153|76:135|44:129|7:132|-18:152,1,150,2|0,0:0|0:0,0:0:0:0:
20,287,16659,2,0,P|37:236|37:198,1,75
108,65,16959,5,0,0:0:0:0:
124,56,17034,1,0,0:0:0:0:
142,51,17109,1,0,0:0:0:0:
161,47,17184,1,0,0:0:0:0:
179,46,17259,1,0,0:0:0:0:
361,107,17409,2,0,B|287:95|287:95|221:129,1,150,2|0,0:0|0:0,0:0:0:0:
271,274,17859,1,0,0:0:0:0:
306,185,18009,1,0,0:0:0:0:
179,204,18159,6,0,L|130:199,3,37.5
135,295,18459,2,0,L|91:317,3,37.5,0|0|2|0,0:0|0:0|0:0|0:0,0:0:0:0:
271,274,18759,5,0,0:0:0:0:
284,250,18834,1,2,0:2:0:0:
298,227,18909,1,0,0:0:0:0:
324,235,18984,1,2,0:2:0:0:
336,211,19059,1,0,0:0:0:0:
350,188,19134,1,2,0:2:0:0:
377,193,19209,1,0,0:0:0:0:
390,170,19284,1,2,0:2:0:0:
401,145,19359,6,0,L|450:140,4,37.5,4|0|0|0|0,0:0|0:0|0:0|0:0|0:0,0:0:0:0:
294,213,19809,2,0,P|269:144|307:80,1,150,2|0,0:0|0:0,0:0:0:0:
205,23,20259,2,0,P|162:1|125:7,1,75
18,49,20559,5,0,0:0:0:0:
19,67,20634,1,0,0:0:0:0:
21,86,20709,1,0,0:0:0:0:
23,104,20784,1,0,0:0:0:0:
25,123,20859,1,0,0:0:0:0:
167,238,21009,2,0,L|151:80,1,150,2|0,0:0|0:0,0:0:0:0:
58,213,21459,2,0,L|50:292,1,75
182,347,21759,5,0,0:0:0:0:
200,348,21834,1,0,0:0:0:0:
219,350,21909,1,0,0:0:0:0:
237,352,21984,1,0,0:0:0:0:
256,354,22059,1,0,0:0:0:0:
398,282,22209,2,0,B|329:251|329:251|247:266,1,150,2|0,0:0|0:0,0:0:0:0:
122,297,22659,1,0,0:0:0:0:
164,196,22809,1,0,0:0:0:0:
26,183,22959,5,0,0:0:0:0:
19,166,23034,1,0,0:0:0:0:
16,148,23109,1,2,0:2:0:0:
16,129,23184,1,0,0:0:0:0:
19,111,23259,1,0,0:2:0:0:
38,90,23334,1,0,0:0:0:0:
62,76,23409,1,2,0:2:0:0:
89,69,23484,1,0,0:0:0:0:
121,83,23559,5,0,0:0:0:0:
155,97,23634,1,2,0:2:0:0:
192,100,23709,1,2,0:2:0:0:
228,89,23784,1,2,0:2:0:0:
260,66,23859,1,2,0:2:0:0:
305,56,23934,1,2,0:2:0:0:
351,62,24009,1,2,0:2:0:0:
393,84,24084,1,2,0:2:0:0:
430,134,24159,6,2,L|408:330,1,187.5,6|8,0:0|0:0,0:0:0:0:
321,228,24609,2,0,L|310:130,1,93.75,2|0,0:0|0:0,0:0:0:0:
415,10,24909,1,0,0:0:0:0:
260,28,25059,2,0,P|207:47|190:82,1,93.75,10|0,0:0|0:0,0:0:0:0:
233,195,25359,2,2,B|205:176|170:177|145:194|145:194|111:218|66:211|41:181,1,187.5,2|8,0:0|0:0,0:0:0:0:
102,123,25809,1,0,0:0:0:0:
190,269,25959,2,0,L|205:365,1,93.75
323,226,26259,1,8,0:0:0:0:
337,133,26409,1,0,0:0:0:0:
454,199,26559,6,2,L|421:408,1,187.5,2|8,0:0|0:0,0:0:0:0:
249,269,27009,2,0,P|240:207|265:160,1,93.75,2|0,0:0|0:0,0:0:0:0:
341,323,27309,1,0,0:0:0:0:
204,361,27459,2,0,L|95:345,1,93.75,10|0,0:0|0:0,0:0:0:0:
44,182,27759,6,2,L|28:73,1,93.75,2|0,0:0|0:0,0:0:0:0:
155,242,28059,2,0,L|171:133,1,93.75,8|0,0:0|0:0,0:0:0:0:
301,295,28359,2,0,L|285:186,1,93.75
422,348,28659,2,0,L|438:239,1,93.75,8|0,0:0|0:0,0:0:0:0:
318,91,28959,6,2,B|203:159|203:159|211:217,1,187.5,2|8,0:0|0:0,0:0:0:0:
152,356,29409,2,0,P|149:309|112:258,1,93.75,2|0,0:0|0:0,0:0:0:0:
50,341,29709,1,0,0:0:0:0:
256,343,29859,2,0,L|377:271,1,140.625,10|0,0:0|0:0,0:0:0:0:
447,303,30159,6,2,B|369:194|369:194|400:144,1,187.5,2|8,0:0|0:0,0:0:0:0:
507,63,30609,2,0,P|517:122|485:164,1,93.75,2|0,0:0|0:0,0:0:0:0:
400,46,30909,1,0,0:0:0:0:
274,158,31059,2,0,P|215:168|173:136,1,93.75,10|0,0:0|0:0,0:0:0:0:
62,0,31359,6,0,L|53:103,1,93.75,2|0,0:0|0:0,0:0:0:0:
13,213,31659,2,0,L|106:169,1,93.75,8|0,0:0|0:0,0:0:0:0:
241,85,31959,2,0,L|156:25,1,93.75
313,32,32259,2,0,L|389:85,1,93.75,8|0,0:0|0:0,0:0:0:0:
437,86,32484,1,0,0:0:0:0:
451,130,32559,6,0,P|455:189|428:239,1,93.75,2|0,0:0|0:0,0:0:0:0:
295,221,32859,2,0,P|291:162|318:112,1,93.75,8|0,0:0|0:0,0:0:0:0:
354,301,33159,5,0,0:0:0:0:
324,318,33234,1,0,0:0:0:0:
289,322,33309,1,0,0:0:0:0:
256,310,33384,1,0,0:0:0:0:
233,285,33459,1,0,0:0:0:0:
203,267,33534,1,0,0:0:0:0:
168,263,33609,1,0,0:0:0:0:
135,275,33684,1,0,0:0:0:0:
100,301,33759,6,0,L|80:97,1,187.5,6|8,0:0|0:0,0:0:0:0:
205,165,34209,2,0,P|257:183|292:170,1,93.75,2|0,0:0|0:0,0:0:0:0:
252,58,34509,1,0,0:0:0:0:
381,132,34659,2,0,L|378:236,1,93.75,10|0,0:0|0:0,0:0:0:0:
470,366,34959,2,2,B|451:338|452:303|469:278|469:278|493:244|486:199|456:174,1,187.5,2|8,0:0|0:0,0:0:0:0:
378,225,35409,1,0,0:0:0:0:
241,314,35559,2,0,P|293:332|328:319,1,93.75
316,159,35859,1,8,0:0:0:0:
286,240,36009,1,0,0:0:0:0:
167,188,36159,6,2,B|138:278|138:278|181:378,1,187.5,2|8,0:0|0:0,0:0:0:0:
85,193,36609,2,0,P|44:162|1:161,1,93.75,2|0,0:0|0:0,0:0:0:0:
17,261,36909,1,0,0:0:0:0:
139,118,37059,2,0,P|170:77|171:34,1,93.75,10|0,0:0|0:0,0:0:0:0:
0,64,37359,2,2,L|96:50,1,93.75,2|0,0:0|0:0,0:0:0:0:
267,201,37659,2,0,L|171:187,1,93.75,8|0,0:0|0:0,0:0:0:0:
0,341,37959,2,0,L|96:327,1,93.75
327,313,38259,1,8,0:0:0:0:
330,290,38334,1,0,0:0:0:0:
333,267,38409,1,0,0:0:0:0:
337,244,38484,1,0,0:0:0:0:
341,221,38559,6,2,B|361:93|361:93|347:121|316:133,1,187.5,6|8,0:0|0:0,0:0:0:0:
216,224,39009,2,2,B|195:198|157:195|129:212|136:221|115:240|84:247|57:236|42:216,1,187.5,0|0,0:0|0:0,0:0:0:0:
164,384,39459,2,0,P|178:334|172:290,1,93.75,8|0,0:0|0:0,0:0:0:0:
45,219,39759,2,2,B|57:236|84:247|115:240|136:221|129:212|157:195|195:198|216:224,1,187.5,6|8,0:0|0:0,0:0:0:0:
341,221,40209,2,2,B|361:93|361:93|347:121|319:132,1,187.5,0|0,0:0|0:0,0:0:0:0:
289,54,40659,1,8,0:0:0:0:
377,7,40809,1,0,0:0:0:0:
448,94,40959,6,0,L|456:145,3,46.875,6|0|0|0,0:0|0:0|0:0|0:0,0:0:0:0:
473,232,41259,2,0,L|422:240,3,46.875,8|0|0|0,0:0|0:0|0:0|0:0,0:0:0:0:
334,262,41559,2,0,L|326:211,3,46.875
309,122,41859,2,0,L|360:114,3,46.875,8|0|0|0,0:0|0:0|0:0|0:0,0:0:0:0:
212,185,42159,5,2,0:0:0:0:
213,196,42234,1,0,0:0:0:0:
215,208,42309,1,0,0:0:0:0:
217,219,42384,1,0,0:0:0:0:
219,231,42459,1,0,0:0:0:0:
221,242,42534,1,0,0:0:0:0:
222,254,42609,1,2,0:0:0:0:
224,266,42684,1,0,0:0:0:0:
228,278,42759,5,2,0:0:0:0:
203,253,42834,1,0,0:0:0:0:
169,246,42909,1,0,0:0:0:0:
137,258,42984,1,0,0:0:0:0:
116,286,43059,1,0,0:0:0:0:
91,310,43134,1,0,0:0:0:0:
57,317,43209,1,0,0:0:0:0:
25,305,43284,1,0,0:0:0:0:
0,285,43359,5,4,0:0:0:0:
127,175,43509,2,0,P|165:162|205:171,1,82.5000025177003,2|8,2:0|0:0,0:0:0:0:
329,267,43809,2,0,P|347:187|321:110,1,165.000005035401,2|0,0:0|0:0,0:0:0:0:
169,246,44259,1,8,0:0:0:0:
43,208,44409,1,0,0:0:0:0:
179,353,44559,2,0,L|273:343,1,82.5000025177003,2|2,2:0|2:0,0:0:0:0:
329,267,44859,5,2,2:0:0:0:
361,242,44934,1,2,2:0:0:0:
402,239,45009,1,2,2:0:0:0:
438,257,45084,1,2,2:0:0:0:
461,293,45159,2,0,L|456:349,3,41.2500012588501,0|0|2|0,0:0|0:0|0:2|0:0,0:0:0:0:
512,198,45459,2,0,L|507:142,3,41.2500012588501,8|0|2|0,0:0|0:0|0:2|0:0,0:0:0:0:
432,72,45759,5,0,0:0:0:0:
302,196,45909,2,0,P|262:215|213:197,1,89.9999972534181,2|8,2:0|0:0,0:0:0:0:
92,73,46209,2,0,P|119:174|79:241,1,179.999994506836,2|0,0:0|0:0,0:0:0:0:
0,307,46659,1,8,0:0:0:0:
27,177,46809,1,0,0:0:0:0:
159,312,46959,2,0,L|252:289,1,89.9999972534181,2|2,2:0|2:0,0:0:0:0:
302,196,47259,5,2,2:0:0:0:
299,185,47334,1,2,2:0:0:0:
296,174,47409,1,2,2:0:0:0:
293,163,47484,1,2,2:0:0:0:
290,152,47559,5,0,0:0:0:0:
321,120,47634,1,0,0:0:0:0:
365,110,47709,1,0,0:0:0:0:
407,124,47784,1,0,0:0:0:0:
435,158,47859,1,0,0:0:0:0:
442,202,47934,1,0,0:0:0:0:
425,243,48009,1,0,0:0:0:0:
389,269,48084,1,0,0:0:0:0:
344,272,48159,5,0,0:0:0:0:
203,187,48309,2,0,L|217:94,1,82.5000025177003,2|8,2:0|0:0,0:0:0:0:
84,0,48609,2,0,L|112:187,1,165.000005035401,2|0,0:0|0:0,0:0:0:0:
159,312,49059,1,8,0:0:0:0:
203,187,49209,1,0,0:0:0:0:
81,267,49359,2,0,L|-12:253,1,82.5000025177003,2|2,2:0|2:0,0:0:0:0:
0,163,49659,5,2,2:0:0:0:
25,145,49734,1,2,2:0:0:0:
55,139,49809,1,2,2:0:0:0:
85,145,49884,1,2,2:0:0:0:
108,163,49959,2,0,L|154:155,3,41.2500012588501,0|0|2|0,0:0|0:0|0:2|0:0,0:0:0:0:
44,55,50259,2,0,L|-2:48,3,41.2500012588501,8|0|2|0,0:0|0:0|0:2|0:0,0:0:0:0:
202,94,50559,5,0,0:0:0:0:
211,101,50634,1,0,0:0:0:0:
219,110,50709,1,0,0:0:0:0:
226,120,50784,1,0,0:0:0:0:
230,131,50859,1,0,0:0:0:0:
233,143,50934,1,0,0:0:0:0:
233,156,51009,1,0,0:0:0:0:
231,168,51084,1,0,0:0:0:0:
229,180,51159,5,0,0:0:0:0:
240,158,51234,1,0,0:0:0:0:
258,141,51309,1,0,0:0:0:0:
279,130,51384,1,0,0:0:0:0:
303,126,51459,1,0,0:0:0:0:
327,128,51534,1,0,0:0:0:0:
350,137,51609,1,0,0:0:0:0:
369,152,51684,1,0,0:0:0:0:
374,177,51759,5,0,0:0:0:0:
349,211,51834,1,0,0:0:0:0:
311,229,51909,1,0,0:0:0:0:
269,225,51984,1,0,0:0:0:0:
235,200,52059,1,0,0:0:0:0:
218,162,52134,1,0,0:0:0:0:
222,120,52209,1,0,0:0:0:0:
247,86,52284,1,0,0:0:0:0:
289,69,52359,6,0,L|341:75,3,48.7499977684022
140,162,52659,2,0,L|88:168,3,48.7499977684022
309,230,52959,6,0,B|332:218|358:220|379:231|379:231|403:243|430:241|451:229,1,146.249993305207,6|0,0:0|0:0,0:0:0:0:
492,206,53259,1,0,0:0:0:0:
337,74,53409,1,0,0:0:0:0:
410,158,53559,1,0,0:0:0:0:
458,67,53709,1,0,0:0:0:0:
294,147,53859,1,8,0:0:0:0:
257,143,53934,1,0,0:0:0:0:
247,107,54009,1,0,0:0:0:0:
210,111,54084,1,0,0:0:0:0:
190,77,54159,6,0,P|135:45|58:75,1,146.249993305207,2|0,0:0|0:0,0:0:0:0:
34,111,54459,1,0,0:0:0:0:
138,261,54609,1,0,0:0:0:0:
125,127,54759,1,0,0:0:0:0:
31,232,54909,1,0,0:0:0:0:
231,287,55059,1,8,0:0:0:0:
268,283,55134,1,0,0:0:0:0:
278,247,55209,1,0,0:0:0:0:
314,251,55284,1,0,0:0:0:0:
342,228,55359,6,0,P|356:156|326:88,1,146.249993305207,2|0,0:0|0:0,0:0:0:0:
286,66,55659,2,0,L|189:77,1,97.4999955368044,8|0,0:0|0:0,0:0:0:0:
110,174,55959,1,0,0:0:0:0:
272,167,56109,1,0,0:0:0:0:
124,252,56259,1,8,0:0:0:0:
125,264,56334,1,0,0:0:0:0:
126,276,56409,1,0,0:0:0:0:
128,288,56484,1,0,0:0:0:0:
131,300,56559,5,2,0:0:0:0:
163,264,56634,1,0,0:0:0:0:
209,250,56709,1,0,0:0:0:0:
256,261,56784,1,0,0:0:0:0:
291,294,56859,1,2,0:0:0:0:
323,329,56934,1,0,0:0:0:0:
369,344,57009,1,0,0:0:0:0:
416,333,57084,1,0,0:0:0:0:
451,299,57159,5,2,0:0:0:0:
433,267,57234,1,0,0:0:0:0:
403,247,57309,1,0,0:0:0:0:
366,245,57384,1,0,0:0:0:0:
333,259,57459,1,2,0:0:0:0:
312,288,57534,1,0,0:0:0:0:
306,324,57609,1,0,0:0:0:0:
318,358,57684,1,0,0:0:0:0:
344,384,57759,6,0,B|412:358|412:358|496:369,1,146.249993305207,6|0,0:0|0:0,0:0:0:0:
492,318,58059,2,0,P|497:274|469:205,1,97.4999955368044,8|0,0:0|0:0,0:0:0:0:
287,206,58359,2,0,P|282:250|310:319,1,97.4999955368044
399,121,58659,1,8,0:0:0:0:
400,108,58734,1,0,0:0:0:0:
401,96,58809,1,0,0:0:0:0:
403,84,58884,1,0,0:0:0:0:
404,72,58959,6,0,B|383:56|356:56|335:67|335:67|310:86|276:83|254:64,1,146.249993305207,2|0,0:0|0:0,0:0:0:0:
217,60,59259,2,0,B|199:105|199:105|220:154,1,97.4999955368044,8|0,0:0|0:0,0:0:0:0:
404,292,59559,2,0,B|422:247|422:247|401:198,1,97.4999955368044
252,249,59859,1,8,0:0:0:0:
227,246,59934,1,0,0:0:0:0:
203,243,60009,1,0,0:0:0:0:
179,240,60084,1,0,0:0:0:0:
155,238,60159,5,0,0:0:0:0:
29,105,60309,5,2,0:0:0:0:
53,103,60384,1,0,0:0:0:0:
199,145,60609,5,2,0:0:0:0:
175,143,60684,1,0,0:0:0:0:
32,200,60909,5,2,0:0:0:0:
56,198,60984,1,0,0:0:0:0:
202,240,61209,5,2,0:0:0:0:
178,238,61284,1,0,0:0:0:0:
155,238,61359,2,0,L|161:289,3,48.7499977684022
256,318,61659,2,0,L|250:369,3,48.7499977684022
310,236,61959,5,0,0:0:0:0:
343,220,62034,1,0,0:0:0:0:
379,218,62109,1,0,0:0:0:0:
414,229,62184,1,0,0:0:0:0:
440,255,62259,2,0,L|446:306,3,48.7499977684022
360,309,62559,5,2,0:2:0:0:
336,310,62634,1,0,0:0:0:0:
313,306,62709,1,0,0:0:0:0:
292,295,62784,1,0,0:0:0:0:
275,280,62859,1,8,0:0:0:0:
261,261,62934,1,0,0:2:0:0:
254,239,63009,1,2,0:2:0:0:
252,215,63084,1,0,0:0:0:0:
256,192,63159,5,0,0:0:0:0:
260,169,63234,1,0,0:0:0:0:
258,145,63309,1,2,0:2:0:0:
251,123,63384,1,0,0:0:0:0:
237,104,63459,1,8,0:0:0:0:
220,89,63534,1,0,0:0:0:0:
199,78,63609,1,2,0:2:0:0:
176,74,63684,1,0,0:0:0:0:
151,73,63759,5,2,0:2:0:0:
154,96,63834,1,0,0:0:0:0:
165,116,63909,1,0,0:0:0:0:
183,131,63984,1,0,0:0:0:0:
205,138,64059,1,8,0:0:0:0:
228,136,64134,1,0,0:2:0:0:
249,127,64209,1,2,0:2:0:0:
265,110,64284,1,0,0:0:0:0:
274,88,64359,5,0,0:0:0:0:
282,66,64434,1,0,0:0:0:0:
298,49,64509,1,2,0:2:0:0:
319,39,64584,1,0,0:0:0:0:
342,38,64659,1,8,0:0:0:0:
365,45,64734,1,0,0:0:0:0:
383,59,64809,1,2,0:2:0:0:
394,80,64884,1,0,0:0:0:0:
388,103,64959,6,0,L|437:85,3,46.875
331,185,65259,2,0,L|282:167,3,46.875,8|0|2|0,0:0|0:0|0:2|0:0,0:0:0:0:
396,257,65559,2,0,L|445:239,3,46.875,0|0|2|0,0:2|0:0|0:2|0:0,0:0:0:0:
339,339,65859,2,0,L|290:321,3,46.875,8|0|2|0,0:0|0:0|0:2|0:0,0:0:0:0:
207,354,66159,5,2,0:2:0:0:
185,326,66234,1,2,0:2:0:0:
175,293,66309,1,2,0:2:0:0:
180,258,66384,1,2,0:2:0:0:
198,228,66459,1,2,0:2:0:0:
219,200,66534,1,2,0:2:0:0:
229,167,66609,1,2,0:2:0:0:
224,132,66684,1,2,0:2:0:0:
200,107,66759,6,0,L|151:89,3,46.875,2|2|2|2,0:2|0:2|0:2|0:2,0:0:0:0:
90,158,67059,2,0,L|41:176,3,46.875,2|2|2|2,0:2|0:2|0:2|0:2,0:0:0:0:
123,247,67359,5,2,0:2:0:0:
125,264,67434,1,0,0:0:0:0:
131,280,67509,1,0,0:0:0:0:
140,295,67584,1,0,0:0:0:0:
152,308,67659,1,8,0:0:0:0:
167,318,67734,1,0,0:0:0:0:
183,325,67809,1,2,0:2:0:0:
200,329,67884,1,0,0:0:0:0:
218,329,67959,5,0,0:0:0:0:
235,326,68034,1,0,0:0:0:0:
251,319,68109,1,2,0:2:0:0:
266,309,68184,1,0,0:0:0:0:
278,297,68259,1,8,0:0:0:0:
287,282,68334,1,0,0:0:0:0:
294,266,68409,1,2,0:2:0:0:
297,248,68484,1,0,0:0:0:0:
296,231,68559,5,2,0:2:0:0:
291,200,68634,1,0,0:0:0:0:
300,171,68709,1,0,0:0:0:0:
321,148,68784,1,0,0:0:0:0:
350,137,68859,1,8,0:0:0:0:
380,141,68934,1,0,0:0:0:0:
406,158,69009,1,2,0:2:0:0:
422,185,69084,1,0,0:0:0:0:
424,215,69159,5,0,0:0:0:0:
411,244,69234,1,0,0:0:0:0:
388,264,69309,1,2,0:2:0:0:
358,271,69384,1,0,0:0:0:0:
323,264,69459,1,8,0:0:0:0:
288,258,69534,1,0,0:0:0:0:
253,261,69609,1,2,0:2:0:0:
220,272,69684,1,0,0:0:0:0:
190,290,69759,5,0,0:0:0:0:
102,212,69909,2,0,P|82:169|91:125,1,93.75,2|8,0:0|0:0,0:0:0:0:
180,50,70134,1,0,0:0:0:0:
180,50,70209,2,0,P|200:93|191:137,1,93.75,2|0,0:0|0:0,0:0:0:0:
308,215,70434,1,0,0:0:0:0:
308,215,70509,2,0,P|288:172|297:128,1,93.75,2|8,0:0|0:0,0:0:0:0:
386,53,70734,1,0,0:0:0:0:
386,53,70809,2,0,L|439:67,1,46.875,2|0,0:0|0:0,0:0:0:0:
487,265,70959,5,0,0:0:0:0:
463,243,71034,1,0,0:0:0:0:
434,234,71109,1,0,0:0:0:0:
402,240,71184,1,0,0:0:0:0:
378,260,71259,1,0,0:0:0:0:
346,288,71334,1,0,0:0:0:0:
307,299,71409,1,0,0:0:0:0:
266,289,71484,1,0,0:0:0:0:
235,261,71559,5,0,0:0:0:0:
204,227,71634,1,0,0:0:0:0:
159,217,71709,1,0,0:0:0:0:
116,236,71784,1,0,0:0:0:0:
93,276,71859,1,0,0:0:0:0:
99,323,71934,1,0,0:0:0:0:
132,356,72009,1,0,0:0:0:0:
178,364,72084,1,0,0:0:0:0:
219,343,72159,5,4,0:0:0:0:
197,198,72309,2,0,L|185:108,1,82.5000025177003,2|8,0:2|0:0,0:0:0:0:
332,23,72609,2,0,L|309:193,1,165.000005035401,2|0,0:0|0:0,0:0:0:0:
448,292,73059,1,8,0:0:0:0:
394,178,73209,1,0,0:0:0:0:
220,283,73359,2,0,P|167:280|133:257,1,82.5000025177003,2|2,2:0|2:0,0:0:0:0:
34,130,73659,5,2,2:0:0:0:
40,149,73734,1,2,2:0:0:0:
42,170,73809,1,2,2:0:0:0:
41,190,73884,1,2,2:0:0:0:
34,210,73959,2,0,L|39:264,3,41.2500012588501
128,169,74259,2,0,L|133:115,3,41.2500012588501
87,327,74559,5,0,0:0:0:0:
201,204,74709,2,0,L|306:194,1,89.9999972534181,2|8,0:2|0:0,0:0:0:0:
442,237,75009,2,0,P|457:186|374:94,1,179.999994506836,2|0,0:0|0:0,0:0:0:0:
250,110,75459,1,8,0:0:0:0:
375,183,75609,1,0,0:0:0:0:
298,285,75759,2,0,L|288:179,1,89.9999972534181,2|2,2:0|2:0,0:0:0:0:
174,58,76059,5,2,2:0:0:0:
163,78,76134,1,2,2:0:0:0:
159,99,76209,1,2,2:0:0:0:
159,122,76284,1,2,2:0:0:0:
165,144,76359,5,0,0:0:0:0:
169,188,76434,1,0,0:0:0:0:
147,226,76509,1,0,0:0:0:0:
107,245,76584,1,0,0:0:0:0:
64,237,76659,1,0,0:0:0:0:
33,206,76734,1,0,0:0:0:0:
26,162,76809,1,0,0:0:0:0:
45,122,76884,1,0,0:0:0:0:
84,101,76959,5,0,0:0:0:0:
152,252,77109,2,0,L|144:357,1,82.5000025177003,2|8,0:2|0:0,0:0:0:0:
282,241,77409,2,0,L|266:37,1,165.000005035401,2|0,0:0|0:0,0:0:0:0:
380,19,77859,1,8,0:0:0:0:
352,123,78009,1,0,0:0:0:0:
174,4,78159,2,0,P|222:-6|281:13,1,82.5000025177003,2|2,2:0|2:0,0:0:0:0:
432,98,78459,5,2,2:0:0:0:
451,104,78534,1,2,2:0:0:0:
471,107,78609,1,2,2:0:0:0:
492,106,78684,1,2,2:0:0:0:
512,102,78759,2,0,L|502:52,3,41.2500012588501,2|2|2|2,2:0|2:0|2:0|2:0,0:0:0:0:
371,59,79059,2,0,L|381:9,3,41.2500012588501,2|2|2|2,2:0|2:0|2:0|2:0,0:0:0:0:
273,122,79359,5,0,0:0:0:0:
275,133,79434,1,0,0:0:0:0:
277,145,79509,1,0,0:0:0:0:
280,157,79584,1,0,0:0:0:0:
282,169,79659,1,0,0:0:0:0:
284,181,79734,1,0,0:0:0:0:
287,193,79809,1,0,0:0:0:0:
289,205,79884,1,0,0:0:0:0:
320,225,79959,5,0,0:0:0:0:
317,236,80034,1,0,0:0:0:0:
315,248,80109,1,0,0:0:0:0:
312,260,80184,1,0,0:0:0:0:
310,272,80259,1,0,0:0:0:0:
308,284,80334,1,0,0:0:0:0:
305,296,80409,1,0,0:0:0:0:
303,308,80484,1,0,0:0:0:0:
302,319,80559,5,0,0:0:0:0:
266,328,80634,1,0,0:0:0:0:
231,320,80709,1,0,0:0:0:0:
204,296,80784,1,0,0:0:0:0:
190,262,80859,1,0,0:0:0:0:
194,226,80934,1,0,0:0:0:0:
215,196,81009,1,0,0:0:0:0:
247,179,81084,1,0,0:0:0:0:
296,178,81159,5,0,0:0:0:0:
349,167,81234,1,0,0:0:0:0:
382,124,81309,1,0,0:0:0:0:
379,70,81384,1,0,0:0:0:0:
340,32,81459,1,0,0:0:0:0:
286,29,81534,1,0,0:0:0:0:
243,63,81609,1,0,0:0:0:0:
234,117,81684,1,0,0:0:0:0:
512,114,84159,5,4,0:1:0:0:
503,110,84234,1,0,0:0:0:0:
493,107,84309,1,0,0:0:0:0:
483,103,84384,1,0,0:0:0:0:
473,99,84459,2,0,L|427:115,3,41.2500012588501
375,53,84759,2,0,L|329:37,3,41.2500012588501
279,99,85059,2,0,L|233:115,3,41.2500012588501
189,206,85359,5,4,0:1:0:0:
198,210,85434,1,0,0:0:0:0:
208,213,85509,1,0,0:0:0:0:
218,217,85584,1,0,0:0:0:0:
228,221,85659,2,0,L|274:237,3,41.2500012588501
344,206,85959,2,0,L|390:190,3,41.2500012588501
458,224,86259,2,0,L|504:240,3,41.2500012588501
407,310,86559,5,4,0:1:0:0:
398,314,86634,1,0,0:0:0:0:
388,317,86709,1,0,0:2:0:0:
378,321,86784,1,0,0:0:0:0:
368,325,86859,2,0,L|322:309,3,41.2500012588501,2|0|0|0,0:0|0:0|0:2|0:0,0:0:0:0:
270,371,87159,2,0,L|224:387,3,41.2500012588501,2|0|0|0,0:0|0:0|0:2|0:0,0:0:0:0:
174,325,87459,2,0,L|128:309,3,41.2500012588501,2|0|0|0,0:0|0:0|0:2|0:0,0:0:0:0:
20,278,87759,6,0,L|-1:229,2,41.2500012588501,2|0|0,0:0|0:0|0:0,0:0:0:0:
41,167,87984,2,0,L|49:115,2,41.2500012588501,2|0|0,0:0|0:0|0:0,0:0:0:0:
121,84,88209,2,0,L|156:45,2,41.2500012588501,2|0|0,0:0|0:0|0:0,0:0:0:0:
238,40,88434,2,0,L|288:26,2,41.2500012588501,2|0|0,0:0|0:0|0:0,0:0:0:0:
343,81,88659,2,0,L|393:97,3,41.2500012588501
265,227,88959,5,0,0:0:0:0:
234,234,89034,1,0,0:0:0:0:
204,230,89109,1,0,0:0:0:0:
176,218,89184,1,0,0:0:0:0:
153,197,89259,1,0,0:0:0:0:
130,177,89334,1,0,0:0:0:0:
102,164,89409,1,0,0:0:0:0:
71,160,89484,1,0,0:0:0:0:
43,175,89559,6,0,L|48:224,3,41.2500012588501
102,85,89859,2,0,L|107:36,3,41.2500012588501
232,152,90159,5,4,0:0:0:0:
261,135,90234,1,0,0:0:0:0:
293,127,90309,1,0,0:0:0:0:
327,129,90384,1,0,0:0:0:0:
359,143,90459,2,0,L|346:188,3,44.999998626709,8|0|0|0,0:0|0:0|0:0|0:0,0:0:0:0:
313,267,90759,5,2,0:2:0:0:
283,283,90834,1,0,0:0:0:0:
251,291,90909,1,0,0:0:0:0:
217,289,90984,1,0,0:0:0:0:
186,276,91059,2,0,L|199:231,3,44.999998626709,8|0|0|0,0:0|0:0|0:0|0:0,0:0:0:0:
64,149,91359,5,2,0:2:0:0:
73,181,91434,1,0,0:0:0:0:
82,213,91509,1,0,0:0:0:0:
92,246,91584,1,0,0:0:0:0:
100,279,91659,2,0,L|87:322,3,44.999998626709,8|0|0|0,0:0|0:0|0:0|0:0,0:0:0:0:
240,364,91959,5,2,0:2:0:0:
249,331,92034,1,0,0:0:0:0:
258,299,92109,1,0,0:0:0:0:
268,266,92184,1,0,0:0:0:0:
276,234,92259,2,0,L|263:190,3,44.999998626709,8|0|0|0,0:0|0:0|0:0|0:0,0:0:0:0:
333,105,92559,5,2,0:2:0:0:
375,92,92634,1,0,0:0:0:0:
417,105,92709,1,0,0:0:0:0:
446,139,92784,1,0,0:0:0:0:
455,182,92859,2,0,L|442:233,3,44.999998626709,8|0|0|0,0:0|0:0|0:0|0:0,0:0:0:0:
393,313,93159,5,2,0:2:0:0:
351,325,93234,1,0,0:0:0:0:
308,313,93309,1,0,0:0:0:0:
280,279,93384,1,0,0:0:0:0:
276,234,93459,2,0,L|288:190,3,44.999998626709,8|0|0|0,0:0|0:0|0:0|0:0,0:0:0:0:
381,142,93759,6,0,L|392:98,2,44.999998626709,2|2|2,0:2|0:2|0:2,0:0:0:0:
304,61,93984,2,0,L|289:18,2,44.999998626709,2|8|0,0:2|0:0|0:0,0:0:0:0:
201,97,94209,2,0,L|215:139,2,44.999998626709,0|0|2,0:0|0:0|0:2,0:0:0:0:
124,16,94434,2,0,L|112:59,2,44.999998626709,2|2|2,0:2|0:2|0:2,0:0:0:0:
25,110,94659,5,8,0:0:0:0:
30,131,94734,1,0,0:0:0:0:
36,153,94809,1,0,0:0:0:0:
41,175,94884,1,0,0:0:0:0:
46,197,94959,5,2,0:2:0:0:
73,168,95034,1,2,0:2:0:0:
112,160,95109,1,2,0:2:0:0:
150,173,95184,1,2,0:2:0:0:
173,206,95259,1,2,0:2:0:0:
196,238,95334,1,2,0:2:0:0:
234,251,95409,1,2,0:2:0:0:
273,243,95484,1,2,0:2:0:0:
301,215,95559,5,2,0:2:0:0:
337,187,95634,1,2,0:2:0:0:
383,186,95709,1,2,0:2:0:0:
420,212,95784,1,2,0:2:0:0:
437,255,95859,1,2,0:2:0:0:
424,298,95934,1,2,0:2:0:0:
389,327,96009,1,2,0:2:0:0:
343,330,96084,1,2,0:2:0:0:
183,178,96759,5,0,0:0:0:0:
220,180,96834,1,0,0:0:0:0:
256,192,96909,1,0,0:0:0:0:
290,175,96984,1,0,0:0:0:0:
327,170,97059,1,0,0:0:0:0:
256,92,97209,5,0,0:0:0:0:
251,55,97284,1,0,0:0:0:0:
256,354,97659,5,4,0:0:0:0:
