osu file format v14

[General]
AudioFilename: audio.mp3
AudioLeadIn: 0
PreviewTime: 63682
Countdown: 0
SampleSet: Normal
StackLeniency: 0.7
Mode: 1
LetterboxInBreaks: 0
WidescreenStoryboard: 0

[Editor]
Bookmarks: 1565,7212,18506,24153,35447,46741,58035,63682,74976,90505,104967
DistanceSpacing: 0.8
BeatDivisor: 4
GridSize: 8
TimelineZoom: 3.199999

[Metadata]
Title:Russian Snowy Dance
TitleUnicode:Russian Snowy Dance
Artist:Mutsuhiko Izumi
ArtistUnicode:Mutsuhiko Izumi
Creator:Myxo
Version:Oni
Source:jubeat ripples
Tags:video game instrumental rhythm reflec beat groovin 泉陸奧彥
BeatmapID:1975137
BeatmapSetID:945918

[Difficulty]
HPDrainRate:6
CircleSize:2
OverallDifficulty:6
ApproachRate:0
SliderMultiplier:1.4
SliderTickRate:1

[Events]
//Background and Video events
0,0,"401315.jpg",0,0
//Break Periods
//Storyboard Layer 0 (Background)
//Storyboard Layer 1 (Fail)
//Storyboard Layer 2 (Pass)
//Storyboard Layer 3 (Foreground)
//Storyboard Layer 4 (Overlay)
//Storyboard Sound Samples

[TimingPoints]
1565,352.941176470588,4,1,0,80,1,0
6417,-66.6666666666667,4,1,0,80,0,0
7123,-100,4,1,0,80,0,0
17006,-66.6666666666667,4,1,0,80,0,0
18241,-100,4,1,0,80,0,0
18417,-66.6666666666667,4,1,0,80,0,0
18770,-100,4,1,0,80,0,0
19123,-66.6666666666667,4,1,0,80,0,0
19476,-100,4,1,0,80,0,0
21241,-66.6666666666667,4,1,0,80,0,0
21594,-100,4,1,0,80,0,0
21947,-66.6666666666667,4,1,0,80,0,0
22300,-100,4,1,0,80,0,0
23359,-66.6666666666667,4,1,0,80,0,0
24064,-100,4,1,0,80,0,0
33947,-66.6666666666667,4,1,0,80,0,0
35182,-100,4,1,0,80,0,0
45241,-66.6666666666667,4,1,0,80,0,0
46476,-100,4,1,0,80,0,0
56535,-66.6666666666667,4,1,0,80,0,0
57770,-100,4,1,0,80,0,0
57947,-66.6666666666667,4,1,0,80,0,0
58300,-100,4,1,0,80,0,0
58653,-66.6666666666667,4,1,0,80,0,0
59006,-100,4,1,0,80,0,0
60770,-66.6666666666667,4,1,0,80,0,0
61123,-100,4,1,0,80,0,0
61476,-66.6666666666667,4,1,0,80,0,0
61829,-100,4,1,0,80,0,0
62888,-66.6666666666667,4,1,0,80,0,0
63594,-100,4,1,0,80,0,0
73476,-66.6666666666667,4,1,0,80,0,0
74712,-100,4,1,0,80,0,0
84770,-66.6666666666667,4,1,0,80,0,0
86006,-90.9090909090909,4,1,0,80,0,0
86182,-86.9565217391304,4,1,0,80,0,0
87417,-117.647058823529,4,1,0,80,0,0
87594,-125,4,1,0,80,0,0
90505,292.682926829268,4,1,0,80,1,1
94529,-66.6666666666667,4,1,0,80,0,1
95114,-100,4,1,0,80,0,1
99212,-66.6666666666667,4,1,0,80,0,1
99797,-100,4,1,0,80,0,1
99870,-100,4,1,0,80,0,0
101041,-100,4,1,0,80,0,1
101553,-66.6666666666667,4,1,0,80,0,1
102139,-100,4,1,0,80,0,1
102212,-100,4,1,0,80,0,0
104217,250,4,1,0,80,1,1
104654,-66.6666666666667,4,1,0,80,0,1
105217,-66.6666666666667,4,1,0,80,0,0

[HitObjects]
256,192,1565,5,8,0:0:0:0:
256,192,1653,1,8,0:0:0:0:
256,192,1741,1,8,0:0:0:0:
256,192,1917,1,0,0:0:0:0:
256,192,2094,1,8,0:0:0:0:
256,192,2182,1,8,0:0:0:0:
256,192,2270,1,0,0:0:0:0:
256,192,2447,1,0,0:0:0:0:
256,192,2535,1,8,0:0:0:0:
256,192,2712,1,8,0:0:0:0:
256,192,2800,1,0,0:0:0:0:
256,192,2976,1,0,0:0:0:0:
256,192,3153,1,8,0:0:0:0:
256,192,3241,1,8,0:0:0:0:
256,192,3329,1,0,0:0:0:0:
256,192,3506,1,8,0:0:0:0:
256,192,3682,1,0,0:0:0:0:
256,192,3859,1,0,0:0:0:0:
256,192,3947,1,0,0:0:0:0:
256,192,4035,1,8,0:0:0:0:
256,192,4388,1,8,0:0:0:0:
256,192,4476,1,8,0:0:0:0:
256,192,4564,1,8,0:0:0:0:
256,192,4741,1,0,0:0:0:0:
256,192,4917,1,8,0:0:0:0:
256,192,5006,1,8,0:0:0:0:
256,192,5094,1,0,0:0:0:0:
256,192,5270,1,0,0:0:0:0:
256,192,5359,1,8,0:0:0:0:
256,192,5535,1,8,0:0:0:0:
256,192,5623,1,0,0:0:0:0:
256,192,5800,1,0,0:0:0:0:
256,192,5976,1,8,0:0:0:0:
256,192,6064,1,8,0:0:0:0:
256,192,6153,1,0,0:0:0:0:
256,192,6329,1,8,0:0:0:0:
256,192,6506,1,4,0:0:0:0:
256,192,6859,1,4,0:0:0:0:
256,192,7212,1,0,0:0:0:0:
256,192,7388,1,8,0:0:0:0:
256,192,7741,1,8,0:0:0:0:
256,192,7917,1,0,0:0:0:0:
256,192,8094,1,8,0:0:0:0:
256,192,8270,1,0,0:0:0:0:
256,192,8359,1,0,0:0:0:0:
256,192,8447,1,8,0:0:0:0:
256,192,8623,1,0,0:0:0:0:
256,192,8800,1,8,0:0:0:0:
256,192,9153,1,8,0:0:0:0:
256,192,9329,1,0,0:0:0:0:
256,192,9506,1,8,0:0:0:0:
256,192,9682,1,0,0:0:0:0:
256,192,9770,1,0,0:0:0:0:
256,192,9859,1,8,0:0:0:0:
256,192,10035,1,8,0:0:0:0:
256,192,10212,1,0,0:0:0:0:
256,192,10388,1,8,0:0:0:0:
256,192,10564,1,0,0:0:0:0:
256,192,10741,1,8,0:0:0:0:
256,192,10917,1,8,0:0:0:0:
256,192,11094,1,0,0:0:0:0:
256,192,11270,1,0,0:0:0:0:
256,192,11447,1,8,0:0:0:0:
256,192,11623,1,0,0:0:0:0:
256,192,11800,1,0,0:0:0:0:
256,192,11976,1,0,0:0:0:0:
256,192,12153,1,8,0:0:0:0:
256,192,12241,1,0,0:0:0:0:
256,192,12329,1,8,0:0:0:0:
256,192,12417,1,0,0:0:0:0:
256,192,12506,1,8,0:0:0:0:
256,192,12594,1,0,0:0:0:0:
256,192,12682,1,8,0:0:0:0:
256,192,12859,1,0,0:0:0:0:
256,192,13035,1,8,0:0:0:0:
256,192,13388,1,8,0:0:0:0:
256,192,13564,1,0,0:0:0:0:
256,192,13741,1,8,0:0:0:0:
256,192,13917,1,0,0:0:0:0:
256,192,14006,1,0,0:0:0:0:
256,192,14094,1,8,0:0:0:0:
256,192,14270,1,0,0:0:0:0:
256,192,14447,1,8,0:0:0:0:
256,192,14800,1,8,0:0:0:0:
256,192,14976,1,0,0:0:0:0:
256,192,15153,1,8,0:0:0:0:
256,192,15329,1,0,0:0:0:0:
256,192,15417,1,0,0:0:0:0:
256,192,15506,1,8,0:0:0:0:
256,192,15682,1,0,0:0:0:0:
256,192,15770,1,0,0:0:0:0:
256,192,15859,1,8,0:0:0:0:
256,192,15947,1,0,0:0:0:0:
256,192,16035,1,0,0:0:0:0:
256,192,16123,1,0,0:0:0:0:
256,192,16212,1,8,0:0:0:0:
256,192,16388,1,0,0:0:0:0:
256,192,16476,1,0,0:0:0:0:
256,192,16565,1,8,0:0:0:0:
256,192,16653,1,0,0:0:0:0:
256,192,16741,1,0,0:0:0:0:
256,192,16829,1,0,0:0:0:0:
256,192,16918,1,8,0:0:0:0:
256,192,17094,1,12,0:0:0:0:
256,192,17447,1,12,0:0:0:0:
256,192,17800,1,12,0:0:0:0:
256,192,18329,1,0,0:0:0:0:
256,192,18506,1,12,0:0:0:0:
256,192,18682,1,12,0:0:0:0:
256,192,18859,1,0,0:0:0:0:
256,192,18947,1,0,0:0:0:0:
256,192,19035,1,0,0:0:0:0:
256,192,19212,1,12,0:0:0:0:
256,192,19388,1,12,0:0:0:0:
256,192,19564,1,0,0:0:0:0:
256,192,19653,1,0,0:0:0:0:
256,192,19741,1,0,0:0:0:0:
256,192,19917,1,8,0:0:0:0:
256,192,20094,1,0,0:0:0:0:
256,192,20270,1,8,0:0:0:0:
256,192,20447,1,8,0:0:0:0:
256,192,20623,1,8,0:0:0:0:
256,192,20712,1,0,0:0:0:0:
256,192,20800,1,0,0:0:0:0:
256,192,20976,1,8,0:0:0:0:
256,192,21329,1,12,0:0:0:0:
256,192,21505,1,12,0:0:0:0:
256,192,21682,1,0,0:0:0:0:
256,192,21770,1,0,0:0:0:0:
256,192,21858,1,0,0:0:0:0:
256,192,22035,1,12,0:0:0:0:
256,192,22211,1,12,0:0:0:0:
256,192,22387,1,0,0:0:0:0:
256,192,22476,1,0,0:0:0:0:
256,192,22564,1,0,0:0:0:0:
256,192,22740,1,8,0:0:0:0:
256,192,22917,1,0,0:0:0:0:
256,192,23094,1,8,0:0:0:0:
256,192,23270,1,8,0:0:0:0:
256,192,23446,1,4,0:0:0:0:
256,192,23800,1,4,0:0:0:0:
256,192,24153,1,0,0:0:0:0:
256,192,24329,1,8,0:0:0:0:
256,192,24682,1,8,0:0:0:0:
256,192,24859,1,0,0:0:0:0:
256,192,25035,1,8,0:0:0:0:
256,192,25212,1,0,0:0:0:0:
256,192,25300,1,8,0:0:0:0:
256,192,25388,1,8,0:0:0:0:
256,192,25564,1,0,0:0:0:0:
256,192,25741,1,8,0:0:0:0:
256,192,26094,1,8,0:0:0:0:
256,192,26270,1,0,0:0:0:0:
256,192,26447,1,8,0:0:0:0:
256,192,26623,1,0,0:0:0:0:
256,192,26712,1,8,0:0:0:0:
256,192,26800,1,8,0:0:0:0:
256,192,26976,1,8,0:0:0:0:
256,192,27153,1,0,0:0:0:0:
256,192,27329,1,8,0:0:0:0:
256,192,27506,1,0,0:0:0:0:
256,192,27682,1,8,0:0:0:0:
256,192,27859,1,8,0:0:0:0:
256,192,28035,1,8,0:0:0:0:
256,192,28212,1,0,0:0:0:0:
256,192,28388,1,8,0:0:0:0:
256,192,28564,1,0,0:0:0:0:
256,192,28741,1,0,0:0:0:0:
256,192,28917,1,0,0:0:0:0:
256,192,29094,1,8,0:0:0:0:
256,192,29182,1,0,0:0:0:0:
256,192,29270,1,8,0:0:0:0:
256,192,29358,1,0,0:0:0:0:
256,192,29447,1,8,0:0:0:0:
256,192,29535,1,0,0:0:0:0:
256,192,29623,1,8,0:0:0:0:
256,192,29800,1,0,0:0:0:0:
256,192,29976,1,8,0:0:0:0:
256,192,30329,1,8,0:0:0:0:
256,192,30506,1,0,0:0:0:0:
256,192,30682,1,8,0:0:0:0:
256,192,30859,1,0,0:0:0:0:
256,192,30947,1,8,0:0:0:0:
256,192,31035,1,8,0:0:0:0:
256,192,31212,1,0,0:0:0:0:
256,192,31388,1,8,0:0:0:0:
256,192,31741,1,8,0:0:0:0:
256,192,31917,1,0,0:0:0:0:
256,192,32094,1,8,0:0:0:0:
256,192,32270,1,0,0:0:0:0:
256,192,32359,1,8,0:0:0:0:
256,192,32447,1,8,0:0:0:0:
256,192,32623,1,0,0:0:0:0:
256,192,32711,1,0,0:0:0:0:
256,192,32800,1,8,0:0:0:0:
256,192,32888,1,8,0:0:0:0:
256,192,32976,1,0,0:0:0:0:
256,192,33064,1,0,0:0:0:0:
256,192,33153,1,8,0:0:0:0:
256,192,33329,1,0,0:0:0:0:
256,192,33417,1,0,0:0:0:0:
256,192,33506,1,8,0:0:0:0:
256,192,33594,1,8,0:0:0:0:
256,192,33682,1,0,0:0:0:0:
256,192,33770,1,0,0:0:0:0:
256,192,33859,1,8,0:0:0:0:
256,192,34035,1,12,0:0:0:0:
256,192,34388,1,12,0:0:0:0:
256,192,34741,1,12,0:0:0:0:
256,192,35270,1,0,0:0:0:0:
256,192,35359,1,0,0:0:0:0:
256,192,35447,1,8,0:0:0:0:
256,192,35623,1,0,0:0:0:0:
256,192,35976,1,0,0:0:0:0:
256,192,36153,1,0,0:0:0:0:
256,192,36241,1,8,0:0:0:0:
256,192,36329,1,8,0:0:0:0:
256,192,36417,1,8,0:0:0:0:
256,192,36506,1,0,0:0:0:0:
256,192,36682,1,0,0:0:0:0:
256,192,36770,1,0,0:0:0:0:
256,192,36859,1,8,0:0:0:0:
256,192,37035,1,0,0:0:0:0:
256,192,37388,1,0,0:0:0:0:
256,192,37564,1,0,0:0:0:0:
256,192,37653,1,8,0:0:0:0:
256,192,37741,1,8,0:0:0:0:
256,192,37829,1,8,0:0:0:0:
256,192,37917,1,0,0:0:0:0:
256,192,38094,1,0,0:0:0:0:
256,192,38270,1,8,0:0:0:0:
256,192,38623,1,0,0:0:0:0:
256,192,38800,1,8,0:0:0:0:
256,192,38976,1,8,0:0:0:0:
256,192,39329,1,0,0:0:0:0:
256,192,39506,1,8,0:0:0:0:
256,192,39682,1,8,0:0:0:0:
256,192,39859,1,0,0:0:0:0:
256,192,40035,1,8,0:0:0:0:
256,192,40212,1,0,0:0:0:0:
256,192,40388,1,8,0:0:0:0:
256,192,40565,1,0,0:0:0:0:
256,192,40741,1,0,0:0:0:0:
256,192,40917,1,0,0:0:0:0:
256,192,41006,1,0,0:0:0:0:
256,192,41094,1,8,0:0:0:0:
256,192,41270,1,0,0:0:0:0:
256,192,41623,1,0,0:0:0:0:
256,192,41800,1,0,0:0:0:0:
256,192,41888,1,8,0:0:0:0:
256,192,41976,1,8,0:0:0:0:
256,192,42064,1,8,0:0:0:0:
256,192,42153,1,0,0:0:0:0:
256,192,42329,1,0,0:0:0:0:
256,192,42417,1,0,0:0:0:0:
256,192,42506,1,8,0:0:0:0:
256,192,42682,1,0,0:0:0:0:
256,192,43035,1,0,0:0:0:0:
256,192,43212,1,0,0:0:0:0:
256,192,43300,1,8,0:0:0:0:
256,192,43388,1,8,0:0:0:0:
256,192,43476,1,8,0:0:0:0:
256,192,43565,1,0,0:0:0:0:
256,192,43741,1,8,0:0:0:0:
256,192,43917,1,0,0:0:0:0:
256,192,44006,1,0,0:0:0:0:
256,192,44094,1,0,0:0:0:0:
256,192,44182,1,8,0:0:0:0:
256,192,44270,1,8,0:0:0:0:
256,192,44447,1,0,0:0:0:0:
256,192,44623,1,0,0:0:0:0:
256,192,44712,1,0,0:0:0:0:
256,192,44800,1,8,0:0:0:0:
256,192,44888,1,8,0:0:0:0:
256,192,44976,1,8,0:0:0:0:
256,192,45153,1,0,0:0:0:0:
256,192,45329,1,12,0:0:0:0:
256,192,45682,1,12,0:0:0:0:
256,192,46035,1,12,0:0:0:0:
256,192,46564,1,0,0:0:0:0:
256,192,46653,1,8,0:0:0:0:
256,192,46741,1,0,0:0:0:0:
256,192,46917,1,8,0:0:0:0:
256,192,47094,1,8,0:0:0:0:
256,192,47182,1,8,0:0:0:0:
256,192,47270,1,0,0:0:0:0:
256,192,47447,1,0,0:0:0:0:
256,192,47623,1,8,0:0:0:0:
256,192,47800,1,0,0:0:0:0:
256,192,47888,1,0,0:0:0:0:
256,192,47976,1,8,0:0:0:0:
256,192,48153,1,8,0:0:0:0:
256,192,48329,1,8,0:0:0:0:
256,192,48506,1,0,0:0:0:0:
256,192,48594,1,0,0:0:0:0:
256,192,48682,1,0,0:0:0:0:
256,192,48859,1,0,0:0:0:0:
256,192,49035,1,0,0:0:0:0:
256,192,49212,1,8,0:0:0:0:
256,192,49300,1,8,0:0:0:0:
256,192,49388,1,8,0:0:0:0:
256,192,49564,1,0,0:0:0:0:
256,192,49740,1,8,0:0:0:0:
256,192,49917,1,8,0:0:0:0:
256,192,50005,1,8,0:0:0:0:
256,192,50093,1,0,0:0:0:0:
256,192,50270,1,0,0:0:0:0:
256,192,50446,1,8,0:0:0:0:
256,192,50623,1,0,0:0:0:0:
256,192,50711,1,0,0:0:0:0:
256,192,50799,1,8,0:0:0:0:
256,192,50976,1,8,0:0:0:0:
256,192,51152,1,0,0:0:0:0:
256,192,51329,1,0,0:0:0:0:
256,192,51417,1,0,0:0:0:0:
256,192,51505,1,8,0:0:0:0:
256,192,51682,1,8,0:0:0:0:
256,192,51770,1,0,0:0:0:0:
256,192,51859,1,8,0:0:0:0:
256,192,51947,1,8,0:0:0:0:
256,192,52035,1,0,0:0:0:0:
256,192,52212,1,0,0:0:0:0:
256,192,52300,1,8,0:0:0:0:
256,192,52388,1,0,0:0:0:0:
256,192,52564,1,8,0:0:0:0:
256,192,52741,1,8,0:0:0:0:
256,192,52829,1,8,0:0:0:0:
256,192,52917,1,0,0:0:0:0:
256,192,53094,1,0,0:0:0:0:
256,192,53270,1,8,0:0:0:0:
256,192,53447,1,0,0:0:0:0:
256,192,53535,1,0,0:0:0:0:
256,192,53623,1,8,0:0:0:0:
256,192,53800,1,8,0:0:0:0:
256,192,53976,1,8,0:0:0:0:
256,192,54153,1,0,0:0:0:0:
256,192,54241,1,0,0:0:0:0:
256,192,54329,1,0,0:0:0:0:
256,192,54506,1,0,0:0:0:0:
256,192,54682,1,0,0:0:0:0:
256,192,54859,1,8,0:0:0:0:
256,192,54947,1,8,0:0:0:0:
256,192,55035,1,8,0:0:0:0:
256,192,55212,1,8,0:0:0:0:
256,192,55388,1,0,0:0:0:0:
256,192,55565,1,0,0:0:0:0:
256,192,55653,1,0,0:0:0:0:
256,192,55741,1,8,0:0:0:0:
256,192,55917,1,8,0:0:0:0:
256,192,56093,1,0,0:0:0:0:
256,192,56270,1,8,0:0:0:0:
256,192,56358,1,8,0:0:0:0:
256,192,56446,1,0,0:0:0:0:
256,192,56623,1,0,0:0:0:0:
256,192,56712,1,8,0:0:0:0:
256,192,56888,1,0,0:0:0:0:
256,192,56977,1,8,0:0:0:0:
256,192,57153,1,4,0:0:0:0:
256,192,57329,1,4,0:0:0:0:
256,192,57859,1,8,0:0:0:0:
256,192,58035,1,4,0:0:0:0:
256,192,58212,1,4,0:0:0:0:
256,192,58389,1,8,0:0:0:0:
256,192,58477,1,8,0:0:0:0:
256,192,58565,1,8,0:0:0:0:
256,192,58742,1,4,0:0:0:0:
256,192,58918,1,4,0:0:0:0:
256,192,59094,1,8,0:0:0:0:
256,192,59183,1,8,0:0:0:0:
256,192,59271,1,8,0:0:0:0:
256,192,59447,1,0,0:0:0:0:
256,192,59624,1,8,0:0:0:0:
256,192,59800,1,0,0:0:0:0:
256,192,59977,1,0,0:0:0:0:
256,192,60153,1,0,0:0:0:0:
256,192,60242,1,8,0:0:0:0:
256,192,60330,1,8,0:0:0:0:
256,192,60506,1,0,0:0:0:0:
256,192,60859,1,4,0:0:0:0:
256,192,61035,1,4,0:0:0:0:
256,192,61212,1,8,0:0:0:0:
256,192,61300,1,8,0:0:0:0:
256,192,61388,1,8,0:0:0:0:
256,192,61565,1,4,0:0:0:0:
256,192,61741,1,4,0:0:0:0:
256,192,61917,1,8,0:0:0:0:
256,192,62006,1,8,0:0:0:0:
256,192,62094,1,8,0:0:0:0:
256,192,62270,1,0,0:0:0:0:
256,192,62447,1,8,0:0:0:0:
256,192,62624,1,0,0:0:0:0:
256,192,62800,1,0,0:0:0:0:
256,192,62976,1,12,0:0:0:0:
256,192,63330,1,12,0:0:0:0:
256,192,63683,1,0,0:0:0:0:
256,192,64035,1,8,0:0:0:0:
256,192,64094,1,8,0:0:0:0:
256,192,64564,1,0,0:0:0:0:
256,192,64741,1,8,0:0:0:0:
256,192,64800,1,8,0:0:0:0:
256,192,65094,1,0,0:0:0:0:
256,192,65447,1,8,0:0:0:0:
256,192,65506,1,8,0:0:0:0:
256,192,65976,1,0,0:0:0:0:
256,192,66153,1,8,0:0:0:0:
256,192,66212,1,8,0:0:0:0:
256,192,66506,1,0,0:0:0:0:
256,192,66859,1,8,0:0:0:0:
256,192,66917,1,8,0:0:0:0:
256,192,67388,1,0,0:0:0:0:
256,192,67564,1,8,0:0:0:0:
256,192,67623,1,8,0:0:0:0:
256,192,67917,1,0,0:0:0:0:
256,192,68270,1,8,0:0:0:0:
256,192,68329,1,8,0:0:0:0:
256,192,68623,1,0,0:0:0:0:
256,192,68800,1,0,0:0:0:0:
256,192,68976,1,8,0:0:0:0:
256,192,69035,1,8,0:0:0:0:
256,192,69329,1,0,0:0:0:0:
256,192,69682,1,8,0:0:0:0:
256,192,69741,1,8,0:0:0:0:
256,192,70212,1,0,0:0:0:0:
256,192,70388,1,8,0:0:0:0:
256,192,70447,1,8,0:0:0:0:
256,192,70741,1,0,0:0:0:0:
256,192,71094,1,8,0:0:0:0:
256,192,71153,1,8,0:0:0:0:
256,192,71623,1,0,0:0:0:0:
256,192,71800,1,8,0:0:0:0:
256,192,71859,1,8,0:0:0:0:
256,192,72153,1,0,0:0:0:0:
256,192,72506,1,8,0:0:0:0:
256,192,72564,1,8,0:0:0:0:
256,192,73035,1,0,0:0:0:0:
256,192,73212,1,8,0:0:0:0:
256,192,73270,1,8,0:0:0:0:
256,192,73564,1,0,0:0:0:0:
256,192,73653,1,8,0:0:0:0:
256,192,73829,1,0,0:0:0:0:
256,192,73917,1,8,0:0:0:0:
256,192,74094,1,4,0:0:0:0:
256,192,74270,1,4,0:0:0:0:
256,192,74800,1,0,0:0:0:0:
256,192,74888,1,8,0:0:0:0:
256,192,74976,1,0,0:0:0:0:
256,192,75153,1,8,0:0:0:0:
256,192,75506,1,8,0:0:0:0:
256,192,75682,1,0,0:0:0:0:
256,192,75859,1,8,0:0:0:0:
256,192,76035,1,0,0:0:0:0:
256,192,76123,1,0,0:0:0:0:
256,192,76212,1,8,0:0:0:0:
256,192,76388,1,0,0:0:0:0:
256,192,76564,1,8,0:0:0:0:
256,192,76917,1,8,0:0:0:0:
256,192,77094,1,0,0:0:0:0:
256,192,77270,1,8,0:0:0:0:
256,192,77447,1,0,0:0:0:0:
256,192,77535,1,0,0:0:0:0:
256,192,77623,1,8,0:0:0:0:
256,192,77800,1,8,0:0:0:0:
256,192,77976,1,0,0:0:0:0:
256,192,78153,1,8,0:0:0:0:
256,192,78329,1,0,0:0:0:0:
256,192,78506,1,8,0:0:0:0:
256,192,78682,1,8,0:0:0:0:
256,192,78859,1,0,0:0:0:0:
256,192,79035,1,0,0:0:0:0:
256,192,79212,1,8,0:0:0:0:
256,192,79388,1,0,0:0:0:0:
256,192,79564,1,0,0:0:0:0:
256,192,79741,1,0,0:0:0:0:
256,192,79917,1,8,0:0:0:0:
256,192,80006,1,0,0:0:0:0:
256,192,80094,1,8,0:0:0:0:
256,192,80183,1,0,0:0:0:0:
256,192,80270,1,8,0:0:0:0:
256,192,80359,1,0,0:0:0:0:
256,192,80447,1,8,0:0:0:0:
256,192,80623,1,0,0:0:0:0:
256,192,80800,1,8,0:0:0:0:
256,192,81153,1,8,0:0:0:0:
256,192,81329,1,0,0:0:0:0:
256,192,81506,1,8,0:0:0:0:
256,192,81682,1,0,0:0:0:0:
256,192,81770,1,0,0:0:0:0:
256,192,81859,1,8,0:0:0:0:
256,192,82035,1,0,0:0:0:0:
256,192,82212,1,8,0:0:0:0:
256,192,82564,1,8,0:0:0:0:
256,192,82741,1,0,0:0:0:0:
256,192,82917,1,8,0:0:0:0:
256,192,83094,1,0,0:0:0:0:
256,192,83182,1,0,0:0:0:0:
256,192,83270,1,8,0:0:0:0:
256,192,83447,1,0,0:0:0:0:
256,192,83535,1,8,0:0:0:0:
256,192,83623,1,0,0:0:0:0:
256,192,83712,1,0,0:0:0:0:
256,192,83800,1,8,0:0:0:0:
256,192,83976,1,0,0:0:0:0:
256,192,84153,1,0,0:0:0:0:
256,192,84241,1,8,0:0:0:0:
256,192,84329,1,0,0:0:0:0:
256,192,84417,1,0,0:0:0:0:
256,192,84506,1,8,0:0:0:0:
256,192,84682,1,0,0:0:0:0:
256,192,84859,1,12,0:0:0:0:
256,192,85212,1,12,0:0:0:0:
256,192,85564,1,12,0:0:0:0:
256,192,86094,1,0,0:0:0:0:
256,192,86270,1,12,0:0:0:0:
256,192,86623,1,12,0:0:0:0:
256,192,86975,1,12,0:0:0:0:
256,192,87506,1,8,0:0:0:0:
256,192,87682,1,4,0:0:0:0:
256,192,88035,1,4,0:0:0:0:
256,192,88388,2,4,L|256:234,6,28
256,192,90505,1,8,0:0:0:0:
256,192,90578,1,8,0:0:0:0:
256,192,90651,1,8,0:0:0:0:
256,192,90797,1,0,0:0:0:0:
256,192,90944,1,8,0:0:0:0:
256,192,91090,1,0,0:0:0:0:
256,192,91236,1,0,0:0:0:0:
256,192,91309,1,8,0:0:0:0:
256,192,91456,1,8,0:0:0:0:
256,192,91529,1,0,0:0:0:0:
256,192,91675,1,0,0:0:0:0:
256,192,91822,1,8,0:0:0:0:
256,192,91968,1,0,0:0:0:0:
256,192,92041,1,0,0:0:0:0:
256,192,92114,1,8,0:0:0:0:
256,192,92261,1,0,0:0:0:0:
256,192,92407,1,0,0:0:0:0:
256,192,92553,1,8,0:0:0:0:
256,192,92846,1,8,0:0:0:0:
256,192,92919,1,8,0:0:0:0:
256,192,92992,1,8,0:0:0:0:
256,192,93139,1,0,0:0:0:0:
256,192,93285,1,8,0:0:0:0:
256,192,93431,1,0,0:0:0:0:
256,192,93578,1,0,0:0:0:0:
256,192,93651,1,8,0:0:0:0:
256,192,93797,1,8,0:0:0:0:
256,192,93870,1,0,0:0:0:0:
256,192,94017,1,0,0:0:0:0:
256,192,94163,1,8,0:0:0:0:
256,192,94309,1,0,0:0:0:0:
256,192,94383,1,0,0:0:0:0:
256,192,94456,1,8,0:0:0:0:
256,192,94602,1,4,0:0:0:0:
256,192,94895,1,4,0:0:0:0:
256,192,95187,1,8,0:0:0:0:
256,192,95261,1,8,0:0:0:0:
256,192,95334,1,8,0:0:0:0:
256,192,95480,1,0,0:0:0:0:
256,192,95553,1,0,0:0:0:0:
256,192,95626,1,8,0:0:0:0:
256,192,95773,1,0,0:0:0:0:
256,192,95919,1,0,0:0:0:0:
256,192,95992,1,8,0:0:0:0:
256,192,96139,1,8,0:0:0:0:
256,192,96212,1,0,0:0:0:0:
256,192,96358,1,0,0:0:0:0:
256,192,96505,1,8,0:0:0:0:
256,192,96651,1,0,0:0:0:0:
256,192,96724,1,0,0:0:0:0:
256,192,96797,1,8,0:0:0:0:
256,192,96944,1,0,0:0:0:0:
256,192,97090,1,0,0:0:0:0:
256,192,97236,1,8,0:0:0:0:
256,192,97529,1,8,0:0:0:0:
256,192,97602,1,8,0:0:0:0:
256,192,97675,1,8,0:0:0:0:
256,192,97822,1,0,0:0:0:0:
256,192,97895,1,0,0:0:0:0:
256,192,97968,1,8,0:0:0:0:
256,192,98114,1,0,0:0:0:0:
256,192,98261,1,0,0:0:0:0:
256,192,98334,1,8,0:0:0:0:
256,192,98480,1,8,0:0:0:0:
256,192,98553,1,0,0:0:0:0:
256,192,98700,1,0,0:0:0:0:
256,192,98846,1,8,0:0:0:0:
256,192,98992,1,0,0:0:0:0:
256,192,99065,1,0,0:0:0:0:
256,192,99139,1,8,0:0:0:0:
256,192,99285,1,4,0:0:0:0:
256,192,99578,1,4,0:0:0:0:
256,192,99870,1,8,0:0:0:0:
256,192,101041,1,0,0:0:0:0:
256,192,101187,1,8,0:0:0:0:
256,192,101334,1,0,0:0:0:0:
256,192,101407,1,0,0:0:0:0:
256,192,101480,1,8,0:0:0:0:
256,192,101626,1,4,0:0:0:0:
256,192,101919,1,4,0:0:0:0:
256,192,104217,1,0,0:0:0:0:
256,192,104342,1,8,0:0:0:0:
256,192,104467,1,0,0:0:0:0:
256,192,104529,1,0,0:0:0:0:
256,192,104592,1,8,0:0:0:0:
256,192,104717,1,4,0:0:0:0:
256,192,104967,1,4,0:0:0:0:
