osu file format v14

[General]
AudioFilename: audio.mp3
AudioLeadIn: 0
PreviewTime: 13850
Countdown: 0
SampleSet: Soft
StackLeniency: 0.8
Mode: 0
LetterboxInBreaks: 0
WidescreenStoryboard: 1

[Editor]
DistanceSpacing: 0.8
BeatDivisor: 4
GridSize: 4
TimelineZoom: 2

[Metadata]
Title:Green Green Dance
TitleUnicode:Green Green Dance
Artist:Mutsuhiko Izumi
ArtistUnicode:Mutsuhiko Izumi
Creator:Beomsan
Version:Normal
Source:jubeat knit
Tags:泉陸奥彦 ユビート Enon bemani folk electronic qubell clan plus jukebeat konami skeleton plus oldschool instrumental video game
BeatmapID:2248511
BeatmapSetID:1074044

[Difficulty]
HPDrainRate:4
CircleSize:3.3
OverallDifficulty:5
ApproachRate:5.5
SliderMultiplier:1.2
SliderTickRate:1

[Events]
//Background and Video events
0,0,"gongik.jpg",0,0
//Break Periods
//Storyboard Layer 0 (Background)
//Storyboard Layer 1 (Fail)
//Storyboard Layer 2 (Pass)
//Storyboard Layer 3 (Foreground)
//Storyboard Layer 4 (Overlay)
//Storyboard Sound Samples

[TimingPoints]
995,363.636363636364,4,2,0,90,1,0
9722,-100,4,2,0,100,0,0
12267,-100,4,2,0,90,0,0
12631,-100,4,2,0,100,0,1
24267,-100,4,2,0,90,0,0
35904,-100,4,2,0,100,0,1
47176,-100,4,2,0,90,0,0
47540,-100,4,2,0,90,0,1
47631,-100,4,2,0,90,0,0
57722,-100,4,2,0,100,0,1
57813,-100,4,2,0,100,0,0
58085,-100,4,2,0,100,0,1
58176,-100,4,2,0,100,0,0
58449,-100,4,2,0,100,0,1
58540,-100,4,2,0,100,0,0
58813,-100,4,2,0,90,0,0
59177,-100,4,2,0,95,0,0
70449,-100,4,2,0,90,0,0
76631,-100,4,2,0,94,0,0
79540,-100,4,2,0,80,0,1
79904,-100,4,2,0,83,0,1
80267,-100,4,2,0,85,0,1
80631,-100,4,2,0,87,0,1
80995,-100,4,2,0,90,0,1
81358,-100,4,2,0,93,0,1
81722,-100,4,2,0,96,0,1
82086,-100,4,2,0,100,0,1
82404,-100,4,2,0,100,0,0
82449,-100,4,2,0,100,0,1
93722,-100,4,2,0,100,0,0
94085,-100,4,2,0,100,0,1
105358,-100,4,2,0,90,0,1
105722,-100,4,2,0,80,0,0
106813,-100,4,2,0,90,0,0
107176,-100,4,2,0,100,0,1
107267,-100,4,2,0,100,0,0
107540,-100,4,2,0,100,0,1
107631,-100,4,2,0,100,0,0
107904,-100,4,2,0,100,0,1
107995,-100,4,2,0,100,0,0

[Colours]
Combo1 : 236,177,0
Combo2 : 0,189,0
Combo3 : 0,84,187
Combo4 : 203,12,40

[HitObjects]
344,360,995,6,0,B|344:240|344:240|408:240,1,180,4|4,3:0|3:0,0:0:0:0:
452,240,1722,1,0,3:0:0:0:
452,144,2086,1,0,1:0:0:0:
356,144,2449,2,0,B|228:144|228:144|228:80,1,180,4|4,3:3|3:0,0:0:0:0:
228,44,3177,1,0,3:0:0:0:
132,44,3540,1,0,1:0:0:0:
132,140,3904,6,0,B|132:264|132:264|72:264,1,180,4|4,3:0|3:0,0:0:0:0:
28,268,4631,1,0,3:0:0:0:
28,364,4995,1,0,1:0:0:0:
124,364,5358,2,0,L|312:364,1,180,4|4,3:0|3:0,0:0:0:0:
352,364,6086,1,0,3:0:0:0:
324,272,6449,1,0,1:0:0:0:
400,212,6813,6,0,B|400:92|400:92|336:92,1,180,4|4,3:2|3:0,0:0:0:0:
292,92,7540,1,0,3:0:0:0:
292,188,7904,1,0,1:0:0:0:
292,284,8267,2,0,B|200:284|200:284|200:184,1,180,4|4,3:0|3:0,0:0:0:0:
200,148,8995,1,0,3:0:0:0:
104,148,9358,1,0,1:0:0:0:
108,244,9722,6,0,L|108:368,1,120,12|8,1:2|1:2,0:0:0:0:
200,340,10449,2,0,L|324:340,1,120,12|8,1:2|1:2,0:0:0:0:
296,248,11177,2,0,L|296:124,2,120,12|12|12,1:2|1:2|1:2,0:0:0:0:
464,152,12631,5,4,3:1:0:0:
464,56,12995,1,0,1:0:0:0:
368,56,13358,2,0,L|240:56,1,120,4|0,3:0|1:0,0:0:0:0:
200,56,13904,1,4,3:0:0:0:
204,152,14267,2,0,L|204:216,2,60,4|0|4,3:0|1:0|3:0,0:0:0:0:
204,152,14813,2,0,B|300:152|300:152|300:180,1,120,4|0,3:0|1:0,0:0:0:0:
300,272,15540,5,4,3:0:0:0:
396,272,15904,1,0,1:0:0:0:
396,368,16267,2,0,L|272:368,1,120,4|0,3:0|1:0,0:0:0:0:
228,368,16813,1,4,3:0:0:0:
232,272,17177,2,0,L|232:212,2,60,4|0|4,3:0|1:0|3:0,0:0:0:0:
232,272,17722,2,0,L|112:272,1,120,2|0,3:0|1:0,0:0:0:0:
64,272,18267,1,0,1:0:0:0:
64,224,18449,5,4,3:2:0:0:
64,128,18813,1,0,1:0:0:0:
160,128,19177,2,0,L|292:128,1,120,4|0,3:0|1:0,0:0:0:0:
328,128,19722,1,4,3:0:0:0:
332,224,20086,2,0,L|332:292,2,60,4|0|4,3:0|1:0|3:0,0:0:0:0:
332,224,20631,2,0,B|240:224|240:224|240:260,1,120,4|0,3:0|1:0,0:0:0:0:
240,348,21358,5,12,0:0:0:0:
192,348,21540,1,8,0:0:0:0:
144,348,21722,1,8,0:0:0:0:
144,252,22085,1,12,0:0:0:0:
144,156,22449,1,8,0:0:0:0:
240,156,22813,2,0,L|360:156,2,120,12|12|12,1:2|1:2|1:2,0:0:0:0:
92,32,24267,6,0,B|228:32|228:32|228:68|228:68|356:68,1,300,4|4,1:0|3:0,0:0:0:0:
452,80,25540,1,4,3:0:0:0:
428,124,25722,2,0,B|420:156|420:156|420:208|420:208|432:244,1,120,4|2,3:0|1:3,0:0:0:0:
452,284,26267,1,4,3:0:0:0:
356,288,26631,2,0,L|356:352,2,60,4|2|4,3:0|1:3|3:0,0:0:0:0:
324,252,27177,6,0,B|268:216|268:216|112:216|112:216|52:268,1,300,4|4,3:0|3:0,0:0:0:0:
24,304,28267,1,6,1:3:0:0:
100,360,28631,2,0,B|158:309|158:309|213:309,3,120,4|2|4|2,3:0|1:3|1:3|1:3,0:0:0:0:
284,356,30086,6,0,B|284:212|284:212|364:212|364:212|400:240|400:240|430:240,1,300,4|4,3:2|3:0,0:0:0:0:
426,144,31358,1,4,3:0:0:0:
426,95,31540,2,0,L|290:95,1,120,4|2,3:0|1:3,0:0:0:0:
256,96,32086,1,4,3:0:0:0:
256,192,32449,2,0,L|256:260,3,60,4|2|4|2,3:0|1:3|3:0|1:3,0:0:0:0:
256,192,33086,12,14,35177,3:0:0:0:
436,116,35904,5,4,3:1:0:0:
436,212,36267,1,0,1:0:0:0:
340,212,36631,2,0,L|212:212,1,120,4|0,3:0|1:0,0:0:0:0:
172,212,37177,1,4,3:0:0:0:
176,116,37540,2,0,L|176:56,2,60,4|0|4,3:0|1:0|3:0,0:0:0:0:
176,116,38086,2,0,B|80:116|80:116|80:152,1,120,4|0,3:0|1:0,0:0:0:0:
80,236,38813,5,4,3:0:0:0:
176,236,39177,1,0,1:0:0:0:
176,332,39540,2,0,L|308:332,1,120,4|0,3:0|1:0,0:0:0:0:
344,332,40086,1,4,3:0:0:0:
344,236,40449,2,0,L|344:172,2,60,4|0|4,3:0|1:0|3:0,0:0:0:0:
344,236,40995,2,0,B|436:236|436:236|436:200,1,120,2|0,3:0|1:0,0:0:0:0:
436,160,41540,1,0,1:0:0:0:
436,112,41722,5,4,3:2:0:0:
340,112,42086,1,0,1:0:0:0:
244,112,42449,2,0,L|244:232,1,120,4|0,3:0|1:0,0:0:0:0:
244,280,42995,1,4,3:0:0:0:
340,280,43358,2,0,L|400:280,2,60,4|0|4,3:0|1:0|3:0,0:0:0:0:
340,280,43904,2,0,B|340:384|340:384|368:384,1,120,4|0,3:0|1:0,0:0:0:0:
452,384,44631,5,12,0:0:0:0:
452,336,44813,1,8,0:0:0:0:
452,288,44995,1,8,0:0:0:0:
452,168,45358,1,12,0:0:0:0:
356,168,45722,1,8,0:0:0:0:
260,168,46086,2,0,L|260:300,2,120,12|12|12,1:2|1:2|1:2,0:0:0:0:
72,236,47540,6,0,B|72:52|72:52|172:52|172:52|172:136|172:136,1,360,4|2,0:1|0:0,0:0:0:0:
172,224,48995,2,0,B|264:224|264:224|264:64,1,240,2|2,0:0|0:0,0:0:0:0:
360,76,50085,1,2,0:0:0:0:
456,76,50449,6,0,B|456:256|456:256|400:256|400:256|400:300|400:300|460:300|460:300|460:372|460:372|376:372,1,480,4|2,0:1|0:0,0:0:0:0:
296,376,52267,2,0,L|296:244,2,120,2|2|0,0:0|0:0|0:0,0:0:0:0:
200,376,53358,6,0,B|200:164|200:164|44:164,1,360,4|2,0:1|0:0,0:0:0:0:
52,68,54813,2,0,L|296:68,1,240,2|2,0:0|0:0,0:0:0:0:
388,68,55904,1,2,0:0:0:0:
292,68,56267,6,0,L|292:212,1,120,4|2,0:1|0:0,0:0:0:0:
292,284,56995,2,0,L|148:284,1,120,2|2,0:0|0:0,0:0:0:0:
184,192,57722,5,12,1:2:0:0:
256,128,58086,1,12,1:2:0:0:
328,192,58449,1,12,1:2:0:0:
256,256,58813,1,0,3:0:0:0:
184,192,59177,6,0,B|132:204|88:148|88:148|56:168|52:212,2,180,4|4|0,3:0|3:0|1:0,0:0:0:0:
256,128,60631,2,0,B|252:112|252:112|264:84|264:84|258:69,2,60,0|0|0,1:0|1:0|1:0,0:0:0:0:
328,192,61358,2,0,B|380:204|424:148|424:148|456:168|460:212,1,180,0|4,1:0|3:0,0:0:0:0:
356,304,62449,6,0,P|328:260|332:188,1,120,0|0,1:0|3:0,0:0:0:0:
344,100,63177,1,0,1:0:0:0:
256,68,63540,1,4,1:2:0:0:
168,100,63904,1,4,3:0:0:0:
168,100,64086,2,0,P|196:144|108:224,1,180,4|0,1:2|1:0,0:0:0:0:
36,192,64995,6,0,L|24:56,2,120,4|0|0,3:2|1:0|3:0,0:0:0:0:
123,226,66086,1,0,1:0:0:0:
208,256,66449,2,0,P|172:333|87:331,2,180,4|4|0,3:3|3:0|1:0,0:0:0:0:
304,256,67904,6,0,P|342:326|386:330,1,120,8|8,1:2|1:2,0:0:0:0:
456,276,68631,1,8,1:2:0:0:
436,180,68995,1,8,1:2:0:0:
344,156,69358,2,0,L|344:32,2,120,12|12|12,1:2|1:2|1:2,0:0:0:0:
192,40,70813,6,0,B|192:192|192:192|100:192,1,240,2|2,0:1|1:1,0:0:0:0:
104,288,71904,1,2,0:0:0:0:
200,288,72267,2,0,P|440:288|440:288,1,240,2|2,0:1|1:1,0:0:0:0:
440,192,73358,1,2,0:0:0:0:
344,192,73722,6,0,B|344:96|344:96|416:96|416:96|416:132|416:132,1,180,4|0,3:0|1:0,0:0:0:0:
168,192,75177,2,0,B|168:96|168:96|96:96|96:96|96:132|96:132,1,180,4|0,3:0|1:0,0:0:0:0:
256,288,76631,6,0,B|252:272|252:272|260:184|260:184|255:168,2,120,4|2|2,3:2|3:2|1:1,0:0:0:0:
352,288,77722,1,2,3:2:0:0:
448,284,78085,2,0,L|448:152,1,120,2|2,1:0|3:2,0:0:0:0:
448,68,78813,2,0,L|316:68,1,120,2|2,1:1|3:2,0:0:0:0:
324,164,79540,1,4,3:0:0:0:
256,192,79631,12,2,81722,3:0:0:0:
48,232,82449,5,4,3:1:0:0:
48,328,82813,1,0,1:0:0:0:
144,328,83176,2,0,L|272:328,1,120,4|0,3:0|1:0,0:0:0:0:
312,328,83722,1,4,3:0:0:0:
308,232,84085,2,0,L|308:168,2,60,4|0|4,3:0|1:0|3:0,0:0:0:0:
308,232,84631,2,0,B|212:232|212:232|212:204,1,120,4|0,3:0|1:0,0:0:0:0:
212,112,85358,5,4,3:0:0:0:
116,112,85722,1,0,1:0:0:0:
116,16,86085,2,0,L|240:16,1,120,4|0,3:0|1:0,0:0:0:0:
284,16,86631,1,4,3:0:0:0:
280,112,86995,2,0,L|280:172,2,60,4|0|4,3:0|1:0|3:0,0:0:0:0:
280,112,87540,2,0,L|400:112,1,120,2|0,3:0|1:0,0:0:0:0:
448,112,88085,1,0,1:0:0:0:
448,160,88267,5,4,3:2:0:0:
448,256,88631,1,0,1:0:0:0:
352,256,88995,2,0,L|220:256,1,120,4|0,3:0|1:0,0:0:0:0:
184,256,89540,1,4,3:0:0:0:
180,160,89904,2,0,L|180:92,2,60,4|0|4,3:0|1:0|3:0,0:0:0:0:
180,160,90449,2,0,B|272:160|272:160|272:124,1,120,4|0,3:0|1:0,0:0:0:0:
268,36,91176,5,12,0:0:0:0:
320,36,91358,1,8,0:0:0:0:
368,36,91540,1,8,0:0:0:0:
368,132,91904,1,12,0:0:0:0:
368,228,92267,1,8,0:0:0:0:
272,228,92631,2,0,L|152:228,2,120,12|12|12,1:2|1:2|1:2,0:0:0:0:
460,224,94086,6,0,B|460:72|460:72|360:72,1,240,6|2,2:1|0:0,0:0:0:0:
324,72,94995,1,2,0:1:0:0:
280,156,95358,1,2,0:0:0:0:
280,156,95540,2,0,B|128:156|128:156|128:120,2,180,2|2|10,0:0|0:0|0:0,0:0:0:0:
376,156,96995,6,0,L|376:284,1,120,4|10,0:0|0:0,0:0:0:0:
376,372,97722,1,2,0:0:0:0:
280,372,98086,1,8,0:0:0:0:
184,372,98449,2,0,L|184:244,1,120,2|10,0:0|0:0,0:0:0:0:
136,252,98995,1,2,0:0:0:0:
88,252,99177,2,0,B|92:233|92:233|80:149|80:149|85:133,1,120,2|10,0:0|0:0,0:0:0:0:
88,80,99722,5,6,0:1:0:0:
232,80,100267,1,2,0:1:0:0:
328,80,100631,1,2,0:1:0:0:
424,80,100995,2,0,L|424:148,1,60,8|2,0:0|0:0,0:0:0:0:
424,188,101358,2,0,L|288:188,1,120,2|8,0:0|0:0,0:0:0:0:
304,236,101904,1,2,0:0:0:0:
304,284,102086,2,0,L|168:284,1,120,2|8,0:0|0:0,0:0:0:0:
88,284,102813,6,0,L|88:44,1,240,6|2,1:2|1:2,0:0:0:0:
184,44,103904,1,2,1:2:0:0:
256,124,104267,1,4,1:2:0:0:
328,44,104631,1,4,1:2:0:0:
424,44,104995,2,0,L|424:284,1,240,4|2,1:2|3:2,0:0:0:0:
424,380,106086,5,2,0:2:0:0:
424,380,106449,1,2,0:2:0:0:
256,288,107177,5,4,1:0:0:0:
256,192,107540,5,4,1:0:0:0:
256,96,107904,5,4,1:0:0:0:
