osu file format v14

[General]
AudioFilename: audio.mp3
AudioLeadIn: 0
PreviewTime: 13850
Countdown: 0
SampleSet: Soft
StackLeniency: 0.7
Mode: 0
LetterboxInBreaks: 0
WidescreenStoryboard: 0

[Editor]
DistanceSpacing: 2
BeatDivisor: 16
GridSize: 4
TimelineZoom: 2

[Metadata]
Title:Green Green Dance
TitleUnicode:Green Green Dance
Artist:Mutsuhiko Izumi
ArtistUnicode:Mutsuhiko Izumi
Creator:Beomsan
Version:Insane
Source:jubeat knit
Tags:泉陸奥彦 ユビート Enon bemani folk electronic qubell clan plus jukebeat konami skeleton plus oldschool instrumental video game
BeatmapID:2247800
BeatmapSetID:1074044

[Difficulty]
HPDrainRate:5
CircleSize:3.8
OverallDifficulty:8
ApproachRate:8
SliderMultiplier:1.6
SliderTickRate:1

[Events]
//Background and Video events
0,0,"gongik.jpg",0,0
//Break Periods
//Storyboard Layer 0 (Background)
//Storyboard Layer 1 (Fail)
//Storyboard Layer 2 (Pass)
//Storyboard Layer 3 (Foreground)
//Storyboard Layer 4 (Overlay)
//Storyboard Sound Samples

[TimingPoints]
995.162911787867,363.636363636364,4,2,0,90,1,0
9722,-100,4,2,0,100,0,0
12267,-100,4,2,0,90,0,0
12631,-100,4,2,0,100,0,1
24267,-100,4,2,0,90,0,0
35904,-100,4,2,0,100,0,1
47176,-100,4,2,0,90,0,0
47540,-100,4,2,0,90,0,1
47631,-100,4,2,0,90,0,0
57722,-100,4,2,0,100,0,1
57813,-100,4,2,0,100,0,0
58086,-100,4,2,0,100,0,1
58176,-100,4,2,0,100,0,0
58449,-100,4,2,0,100,0,1
58540,-100,4,2,0,100,0,0
58813,-100,4,2,0,90,0,0
59177,-100,4,2,0,95,0,0
70449,-100,4,2,0,90,0,0
76631,-100,4,2,0,94,0,0
79540,-100,4,2,0,80,0,1
79904,-100,4,2,0,83,0,1
80267,-100,4,2,0,85,0,1
80631,-100,4,2,0,87,0,1
80995,-100,4,2,0,90,0,1
81358,-100,4,2,0,93,0,1
81722,-100,4,2,0,96,0,1
82086,-100,4,2,0,100,0,1
82404,-100,4,2,0,100,0,0
82449,-100,4,2,0,100,0,1
93722,-100,4,2,0,100,0,0
94086,-100,4,2,0,100,0,1
105358,-100,4,2,0,90,0,1
105722,-100,4,2,0,80,0,0
106813,-100,4,2,0,90,0,0
107176,-100,4,2,0,100,0,1
107267,-100,4,2,0,100,0,0
107540,-100,4,2,0,100,0,1
107631,-100,4,2,0,100,0,0
107904,-100,4,2,0,100,0,1
107995,-100,4,2,0,100,0,0

[Colours]
Combo1 : 215,162,0
Combo2 : 0,155,0
Combo3 : 0,77,170
Combo4 : 183,11,36

[HitObjects]
80,152,995,5,4,3:0:0:0:
128,88,1176,2,0,B|236:76,2,80,4|0|4,3:0|1:0|3:0,0:0:0:0:
160,160,1722,2,0,B|268:148,1,80,0|4,3:0|3:0,0:0:0:0:
420,120,2085,1,0,1:0:0:0:
372,248,2267,1,0,1:0:0:0:
372,248,2358,1,0,1:0:0:0:
372,248,2449,5,4,3:3:0:0:
348,168,2631,1,4,3:0:0:0:
444,200,2813,1,0,1:0:0:0:
420,120,2995,1,4,3:0:0:0:
372,248,3176,2,0,B|264:260,1,80,0|4,3:0|3:0,0:0:0:0:
128,276,3540,2,0,B|236:264,1,80,0|0,1:0|1:0,0:0:0:0:
207,267,3813,1,0,1:0:0:0:
207,267,3904,5,4,3:0:0:0:
180,192,4085,1,4,3:0:0:0:
120,140,4267,2,0,B|108:32,1,80,0|4,1:0|3:0,0:0:0:0:
180,16,4631,1,0,3:0:0:0:
256,40,4813,1,4,3:0:0:0:
332,16,4995,2,0,B|368:32|368:32|428:32,1,80,0|0,1:0|1:0,0:0:0:0:
408,32,5267,1,0,1:0:0:0:
408,32,5358,5,4,3:0:0:0:
376,104,5540,1,4,3:0:0:0:
440,148,5722,2,0,B|428:256,1,80,0|4,1:0|3:0,0:0:0:0:
392,320,6085,1,0,3:0:0:0:
356,332,6176,1,0,3:0:0:0:
316,332,6267,1,4,3:0:0:0:
280,312,6358,1,0,3:0:0:0:
256,280,6449,1,0,1:0:0:0:
232,312,6540,1,0,3:0:0:0:
196,332,6631,1,0,1:0:0:0:
156,332,6722,1,0,1:0:0:0:
120,320,6813,6,0,B|108:232,2,80,4|4|0,3:2|3:0|1:0,0:0:0:0:
188,236,7358,1,4,3:0:0:0:
98,161,7540,2,0,B|110:249,1,80,0|4,3:0|3:0,0:0:0:0:
224,120,7904,2,0,B|212:32,1,80,0|0,1:0|1:0,0:0:0:0:
213,40,8176,1,0,1:0:0:0:
213,40,8267,5,4,3:0:0:0:
140,72,8449,1,4,3:0:0:0:
294,174,8631,1,0,1:0:0:0:
304,96,8813,1,4,3:0:0:0:
224,120,8995,1,0,3:0:0:0:
372,144,9176,1,4,3:0:0:0:
188,236,9358,1,0,1:0:0:0:
364,308,9540,1,0,1:0:0:0:
364,308,9631,1,0,1:0:0:0:
364,308,9722,6,0,B|372:268|372:268|360:216,2,80,12|8|8,1:2|1:2|1:2,0:0:0:0:
148,80,10449,2,0,B|140:120|140:120|152:172,2,80,12|8|8,1:2|1:2|1:2,0:0:0:0:
216,36,10995,1,8,1:2:0:0:
432,192,11176,5,12,1:2:0:0:
80,192,11540,1,12,1:2:0:0:
432,192,11904,1,12,1:2:0:0:
80,192,12267,1,0,3:0:0:0:
112,192,12358,1,0,3:0:0:0:
144,192,12449,1,0,3:0:0:0:
176,192,12540,1,0,3:0:0:0:
208,192,12631,6,0,B|208:280,1,80,4|4,3:1|3:0,0:0:0:0:
88,108,12995,2,0,B|88:36|88:36|176:36,1,160,0|4,1:0|3:0,0:0:0:0:
256,128,13540,1,4,3:0:0:0:
256,8,13722,1,0,1:0:0:0:
424,108,13904,2,0,B|424:36|424:36|336:36,1,160,4|4,3:0|3:0,0:0:0:0:
352,184,14449,2,0,B|440:184,1,80,0|4,1:0|3:0,0:0:0:0:
312,268,14813,1,4,3:0:0:0:
256,192,14995,1,4,3:0:0:0:
200,268,15176,1,0,1:0:0:0:
384,104,15540,5,4,3:0:0:0:
312,72,15722,1,4,3:0:0:0:
376,24,15904,2,0,B|460:24|460:24|460:104,1,160,0|4,1:0|3:0,0:0:0:0:
428,172,16449,2,0,B|428:256,1,80,4|0,3:0|1:0,0:0:0:0:
388,324,16813,2,0,B|312:324|312:324|252:252,1,160,4|4,3:0|3:0,0:0:0:0:
308,196,17358,1,0,1:0:0:0:
204,196,17540,1,4,3:0:0:0:
124,324,17722,2,0,L|216:324,1,80,2|0,3:0|0:0,0:0:0:0:
388,324,18086,2,0,L|296:324,1,80,0|0,1:0|1:0,0:0:0:0:
244,64,18449,5,4,3:2:0:0:
164,60,18631,1,4,3:0:0:0:
92,96,18813,2,0,B|60:172|96:252,1,160,0|4,1:0|3:0,0:0:0:0:
168,216,19358,2,0,B|148:176|160:136,1,80,4|0,3:0|1:0,0:0:0:0:
444,60,19722,2,0,B|476:136|440:216,1,160,4|4,3:0|3:0,0:0:0:0:
376,260,20267,2,0,B|356:300|368:340,1,80,0|4,1:0|3:0,0:0:0:0:
372,180,20631,2,0,B|392:144|380:100,2,80,4|4|0,3:0|3:0|1:0,0:0:0:0:
136,336,21358,6,0,B|128:296|128:296|136:256,2,80,12|8|8,1:2|1:2|1:2,0:0:0:0:
376,48,22086,2,0,B|384:88|384:88|376:128,2,80,12|8|8,1:2|1:2|1:2,0:0:0:0:
256,12,22631,1,0,1:0:0:0:
256,12,22722,1,0,1:0:0:0:
256,12,22813,5,12,1:2:0:0:
136,260,23176,1,12,1:2:0:0:
404,200,23540,1,12,1:2:0:0:
196,136,23904,1,0,3:0:0:0:
196,136,23995,1,0,3:0:0:0:
196,136,24085,1,0,3:0:0:0:
288,312,24267,5,4,1:0:0:0:
368,296,24449,2,0,B|456:280,1,80,0|2,3:0|1:3,0:0:0:0:
404,200,24813,2,0,B|372:200|344:176|344:176|332:116|376:72,1,160,4|4,3:0|3:0,0:0:0:0:
436,52,25358,2,0,B|448:140,1,80,2|0,1:3|3:0,0:0:0:0:
446,131,25631,1,0,3:0:0:0:
446,131,25722,1,4,3:0:0:0:
256,56,25904,1,4,3:0:0:0:
66,131,26085,1,2,1:3:0:0:
108,200,26267,2,0,B|140:200|168:176|168:176|180:116|136:72,1,160,4|4,3:0|3:0,0:0:0:0:
76,52,26813,2,0,B|64:140,1,80,2|4,1:3|3:0,0:0:0:0:
164,348,27176,6,0,B|176:260,1,80,4|4,3:0|3:0,0:0:0:0:
174,268,27449,1,4,3:0:0:0:
174,268,27540,1,6,1:3:0:0:
256,384,27722,2,0,B|256:304,1,80,4|0,3:0|3:3,0:0:0:0:
348,348,28086,2,0,B|336:260,1,80,4|6,3:0|1:3,0:0:0:0:
404,220,28449,1,4,3:0:0:0:
472,260,28631,6,0,B|484:348,1,80,4|4,3:0|3:0,0:0:0:0:
482,339,28904,1,4,3:0:0:0:
482,339,28995,1,2,1:3:0:0:
40,124,29358,2,0,B|28:36,1,80,4|4,3:0|3:0,0:0:0:0:
30,45,29631,1,4,3:0:0:0:
30,45,29722,1,2,3:0:0:0:
116,76,29904,1,4,3:0:0:0:
28,236,30085,6,0,B|28:268|52:296|52:296|112:308|156:264,1,160,4|2,3:2|1:3,0:0:0:0:
168,200,30631,2,0,B|72:184,1,80,4|0,3:0|0:0,0:0:0:0:
140,276,30995,2,0,B|172:304|188:352,1,80,4|2,3:0|1:3,0:0:0:0:
256,244,31358,1,4,3:0:0:0:
484,236,31540,6,0,B|484:268|460:296|460:296|400:308|356:264,1,160,4|2,3:0|1:3,0:0:0:0:
344,200,32085,2,0,B|440:184,1,80,4|0,3:0|0:0,0:0:0:0:
372,276,32449,2,0,B|340:304|324:352,2,80,4|2|4,3:0|1:3|3:0,0:0:0:0:
496,156,32995,5,2,1:3:0:0:
423,186,33176,1,4,3:0:0:0:
392,112,33358,1,2,1:3:0:0:
465,82,33539,1,4,3:0:0:0:
423,186,33722,2,0,B|327:202,1,80,2|4,1:3|3:0,0:0:0:0:
256,68,34085,2,0,B|352:52,1,80,2|4,1:3|3:0,0:0:0:0:
256,168,34449,5,2,3:0:0:0:
220,160,34540,1,2,3:0:0:0:
192,140,34631,1,2,3:0:0:0:
168,112,34722,1,2,3:0:0:0:
160,76,34813,1,2,3:0:0:0:
140,104,34904,1,2,3:0:0:0:
112,124,34995,1,2,3:0:0:0:
80,136,35085,1,2,3:0:0:0:
44,140,35176,6,0,B|32:96|48:48,1,80,14|0,3:0|3:0,0:0:0:0:
264,76,35540,1,0,1:0:0:0:
264,76,35631,1,0,1:0:0:0:
264,76,35722,1,0,1:0:0:0:
184,328,35904,6,0,B|184:232,1,80,4|4,3:1|3:0,0:0:0:0:
256,168,36267,2,0,B|348:168|348:168|348:244,1,160,0|4,1:0|3:0,0:0:0:0:
268,328,36813,2,0,B|268:232,1,80,4|0,3:0|1:0,0:0:0:0:
424,140,37176,6,0,B|424:232|424:232|496:232,1,160,4|4,3:0|3:0,0:0:0:0:
356,88,37722,2,0,B|260:88,1,80,0|4,1:0|3:0,0:0:0:0:
176,168,38085,2,0,B|272:168,2,80,4|4|0,3:0|3:0|1:0,0:0:0:0:
24,96,38631,1,0,3:0:0:0:
24,96,38722,1,0,3:0:0:0:
24,96,38813,6,0,B|24:192,1,80,4|4,3:0|3:0,0:0:0:0:
100,252,39176,2,0,B|176:252|176:252|176:160,1,160,0|4,1:0|3:0,0:0:0:0:
100,96,39722,2,0,B|100:192,1,80,4|0,3:0|1:0,0:0:0:0:
100,332,40085,6,0,B|196:332|196:332|264:304,1,160,4|4,3:0|3:0,0:0:0:0:
300,240,40631,1,0,1:0:0:0:
256,172,40813,1,4,3:0:0:0:
256,308,40995,2,0,B|315:332|315:332|368:332,1,80,2|0,3:0|0:0,0:0:0:0:
200,96,41358,2,0,B|176:155|176:155|176:208,1,80,0|0,1:0|1:0,0:0:0:0:
474,153,41722,5,4,3:2:0:0:
426,89,41904,1,4,3:0:0:0:
350,61,42085,2,0,B|266:41|198:97,1,160,0|4,1:0|3:0,0:0:0:0:
250,157,42631,2,0,B|282:129|326:137,1,80,4|0,3:0|1:0,0:0:0:0:
172,332,42995,6,0,B|109:386|17:366,1,160,4|4,3:0|3:0,0:0:0:0:
120,272,43540,2,0,B|88:300|44:292,1,80,0|4,1:0|3:0,0:0:0:0:
256,352,43904,2,0,B|288:324|332:332,2,80,4|4|0,3:0|3:0|1:0,0:0:0:0:
92,120,44631,6,0,B|84:80|84:80|96:40,2,80,12|8|8,1:2|1:2|1:2,0:0:0:0:
420,264,45358,2,0,B|428:304|428:304|416:344,2,80,12|8|8,1:2|1:2|1:2,0:0:0:0:
256,196,45904,1,0,1:0:0:0:
256,196,45995,1,0,1:0:0:0:
256,196,46085,5,12,1:2:0:0:
92,264,46449,1,12,1:2:0:0:
420,264,46813,1,12,1:2:0:0:
192,128,47176,5,0,3:0:0:0:
168,96,47267,1,0,3:0:0:0:
144,64,47358,1,0,3:0:0:0:
172,36,47449,1,0,3:0:0:0:
204,12,47540,6,0,B|252:12|252:12|268:32|268:32|360:32,1,160,4|0,3:1|1:0,0:0:0:0:
396,112,48086,1,0,3:0:0:0:
396,112,48176,1,0,3:0:0:0:
396,112,48267,1,4,3:0:0:0:
476,112,48449,1,0,3:0:0:0:
436,180,48631,2,0,B|476:192|476:192|516:180,1,80,0|0,1:0|3:0,0:0:0:0:
374,231,48995,6,0,B|322:211|322:211|274:311,2,160,4|0|4,3:0|1:0|3:0,0:0:0:0:
242,377,49904,1,0,3:0:0:0:
242,377,49995,1,0,3:0:0:0:
242,377,50085,2,0,B|277:304,1,80,0|0,1:0|3:0,0:0:0:0:
278,150,50449,5,4,3:1:0:0:
278,150,50540,2,0,B|192:153,1,80,0|0,3:0|3:0,0:0:0:0:
170,150,50813,2,0,B|182:234,1,80,0|0,1:0|3:0,0:0:0:0:
412,228,51176,1,4,3:0:0:0:
408,196,51267,1,0,3:0:0:0:
404,164,51358,1,0,3:0:0:0:
400,132,51449,1,0,3:0:0:0:
368,136,51540,1,0,1:0:0:0:
336,140,51631,1,0,3:0:0:0:
304,144,51722,1,0,3:0:0:0:
332,324,51904,6,0,B|416:312,1,80,4|0,3:0|3:0,0:0:0:0:
411,312,52176,1,0,3:0:0:0:
411,312,52267,1,0,1:0:0:0:
324,232,52449,1,0,3:0:0:0:
208,252,52631,5,4,3:0:0:0:
160,320,52813,1,0,3:0:0:0:
76,308,52995,2,0,B|64:224,1,80,0|0,1:0|3:0,0:0:0:0:
112,64,53358,5,4,3:1:0:0:
112,64,53449,2,0,B|200:48,1,80,0|0,3:0|3:0,0:0:0:0:
220,64,53722,2,0,B|308:48,1,80,0|0,1:0|3:0,0:0:0:0:
336,60,53995,1,0,3:0:0:0:
352,56,54085,1,4,3:0:0:0:
368,54,54176,1,0,3:0:0:0:
384,50,54267,1,0,3:0:0:0:
400,48,54358,1,0,3:0:0:0:
416,44,54449,1,0,1:0:0:0:
413,126,54631,1,0,3:0:0:0:
456,192,54813,5,4,3:0:0:0:
412,260,54995,1,0,3:0:0:0:
412,260,55085,1,0,3:0:0:0:
412,260,55176,2,0,B|408:308|428:352,1,80,0|0,1:0|3:0,0:0:0:0:
344,360,55540,2,0,B|328:308|332:248|332:248|296:196,1,160,4|0,3:0|1:0,0:0:0:0:
253,270,56085,1,0,3:0:0:0:
424,340,56267,5,4,3:1:0:0:
424,340,56358,2,0,B|447:333|447:333|469:336|469:336|501:328,1,80,0|0,3:0|3:0,0:0:0:0:
500,304,56631,1,0,1:0:0:0:
492,280,56722,1,0,3:0:0:0:
476,264,56813,1,0,3:0:0:0:
456,256,56904,1,0,3:0:0:0:
432,256,56995,2,0,B|420:204,3,40,4|0|0|0,3:0|3:0|3:0|3:0,0:0:0:0:
400,192,57358,2,0,B|388:140,3,40,0|0|0|0,1:0|3:0|3:0|3:0,0:0:0:0:
472,112,57722,5,12,1:2:0:0:
256,256,58085,1,12,1:2:0:0:
40,112,58449,1,12,1:2:0:0:
256,32,58813,5,0,3:0:0:0:
256,40,58904,1,0,3:0:0:0:
256,48,58995,1,0,3:0:0:0:
256,56,59085,1,0,3:0:0:0:
256,64,59176,6,0,B|224:56|224:56|216:56|216:56|175:47,1,80,4|0,3:0|0:0,0:0:0:0:
304,140,59540,1,0,1:0:0:0:
188,292,59722,2,0,B|220:284|220:284|228:284|228:284|266:275,1,80,4|0,3:0|3:0,0:0:0:0:
380,336,60086,1,4,3:0:0:0:
188,292,60267,1,0,1:2:0:0:
304,140,60449,1,0,3:0:0:0:
452,236,60631,6,0,P|412:235|374:223,1,80,0|0,1:0|1:0,0:0:0:0:
136,180,60995,2,0,P|174:169|207:147,1,80,0|0,1:0|0:0,0:0:0:0:
308,32,61358,2,0,P|311:71|322:110,2,80,4|0|4,3:0|1:0|3:0,0:0:0:0:
288,200,61904,6,0,P|292:256|372:316,1,160,4|4,3:0|3:0,0:0:0:0:
452,236,62449,2,0,P|414:223|374:223,1,80,0|0,1:0|0:0,0:0:0:0:
212,284,62813,2,0,P|182:310|162:345,2,80,4|4|0,3:0|3:0|1:0,0:0:0:0:
322,110,63358,1,4,3:0:0:0:
369,315,63540,5,4,3:0:0:0:
215,163,63722,2,0,P|208:124|208:84,1,80,0|0,0:0|1:0,0:0:0:0:
428,128,64086,2,0,B|410:210|378:189|361:274,1,160,4|4,3:0|3:0,0:0:0:0:
364,280,64540,1,0,3:0:0:0:
368,288,64631,2,0,L|428:276,2,40,0|0|0,1:0|3:0|3:0,0:0:0:0:
140,208,64995,5,4,3:2:0:0:
212,284,65177,1,0,0:0:0:0:
316,144,65358,1,0,1:0:0:0:
112,92,65540,1,4,3:0:0:0:
44,358,65722,5,0,3:0:0:0:
212,284,65904,1,4,3:0:0:0:
88,232,66086,1,0,1:0:0:0:
240,376,66267,5,0,3:0:0:0:
248,372,66358,1,0,3:0:0:0:
256,368,66449,1,4,3:0:0:0:
264,364,66540,1,0,3:0:0:0:
272,360,66631,1,0,3:0:0:0:
228,188,66813,1,0,1:0:0:0:
148,360,66995,6,0,B|131:277|99:298|81:216,1,160,4|4,3:0|3:0,0:0:0:0:
200,100,67540,2,0,P|188:61|167:27,1,80,0|0,1:0|3:0,0:0:0:0:
380,176,67904,5,8,1:2:0:0:
332,256,68085,1,8,1:2:0:0:
380,336,68267,1,8,1:2:0:0:
132,336,68631,5,8,1:2:0:0:
180,256,68813,1,8,1:2:0:0:
132,176,68995,1,8,1:2:0:0:
84,256,69176,1,8,1:2:0:0:
428,256,69358,5,12,1:2:0:0:
60,104,69722,1,12,1:2:0:0:
452,104,70085,1,12,1:2:0:0:
256,344,70449,5,0,3:0:0:0:
256,336,70540,1,0,3:0:0:0:
256,328,70631,1,0,3:0:0:0:
256,320,70722,1,0,3:0:0:0:
308,288,70813,6,0,B|424:288,2,106.666666666667,2|2|2,0:1|0:0|0:0,0:0:0:0:
204,208,71540,2,0,B|84:208,2,106.666666666667,2|2|2,0:1|0:0|0:0,0:0:0:0:
308,128,72267,2,0,B|428:128,2,106.666666666667,2|2|2,0:1|0:0|0:0,0:0:0:0:
204,48,72995,2,0,B|84:48,2,106.666666666667,2|2|2,0:1|0:0|0:0,0:0:0:0:
230,35,73601,1,2,0:0:0:0:
256,24,73722,6,0,B|356:24,1,80,2|0,0:0|1:0,0:0:0:0:
452,104,74085,1,2,0:0:0:0:
452,104,74176,1,2,0:0:0:0:
452,104,74267,2,0,B|454:147|424:176|424:176|416:224|444:268,2,160,0|0|0,1:0|1:0|1:0,0:0:0:0:
256,24,75176,6,0,B|156:24,1,80,2|0,0:0|1:0,0:0:0:0:
60,104,75539,1,2,0:0:0:0:
60,104,75630,1,2,0:0:0:0:
60,104,75722,2,0,B|58:147|88:176|88:176|96:224|68:268,2,160,0|0|0,1:0|1:0|1:0,0:0:0:0:
144,112,76631,5,2,3:1:0:0:
204,172,76813,1,2,3:2:0:0:
204,180,76904,1,2,3:2:0:0:
256,68,77176,1,0,3:0:0:0:
308,172,77358,5,2,3:1:0:0:
368,112,77540,1,2,3:2:0:0:
368,104,77631,1,2,3:2:0:0:
420,224,77904,1,0,3:0:0:0:
256,284,78085,5,2,3:1:0:0:
92,224,78267,1,2,3:2:0:0:
88,232,78358,1,2,3:2:0:0:
256,68,78631,1,0,3:0:0:0:
256,372,78813,5,2,3:1:0:0:
121,120,78995,1,2,3:2:0:0:
121,120,79086,2,0,B|181:124|173:148|241:152,1,120,2|0,3:2|3:0,0:0:0:0:
384,32,79540,5,2,3:1:0:0:
416,40,79631,1,0,3:0:0:0:
432,68,79722,1,0,3:0:0:0:
432,100,79813,1,0,3:0:0:0:
420,128,79904,1,0,1:0:0:0:
388,140,79995,1,0,3:0:0:0:
356,132,80085,1,0,3:0:0:0:
328,108,80176,1,0,3:0:0:0:
300,96,80267,1,2,3:1:0:0:
268,100,80358,1,0,3:0:0:0:
244,120,80449,1,0,3:0:0:0:
236,152,80540,1,0,3:0:0:0:
244,184,80631,1,0,1:0:0:0:
268,204,80722,1,0,3:0:0:0:
300,212,80813,1,0,3:0:0:0:
320,236,80904,1,0,3:0:0:0:
332,268,80995,6,0,B|384:260,7,40,2|0|0|0|0|0|0|0,3:1|3:0|3:0|3:0|1:0|3:0|3:0|3:0,0:0:0:0:
308,300,81722,5,2,3:0:0:0:
266,294,81813,1,2,3:0:0:0:
227,300,81904,1,2,3:0:0:0:
185,295,81995,1,2,3:0:0:0:
146,301,82085,1,2,1:3:0:0:
104,295,82176,1,2,3:0:0:0:
65,305,82267,1,2,3:0:0:0:
28,299,82358,1,2,3:0:0:0:
60,256,82449,6,0,B|60:168,1,80,4|4,3:1|3:0,0:0:0:0:
124,96,82813,2,0,B|216:96|216:96|216:176,1,160,0|4,1:0|3:0,0:0:0:0:
60,176,83358,2,0,B|148:176,1,80,4|0,3:0|1:0,0:0:0:0:
328,212,83722,6,0,B|216:212|216:212|216:164,1,160,4|4,3:0|3:0,0:0:0:0:
296,128,84267,1,0,1:0:0:0:
296,300,84449,1,4,3:0:0:0:
296,300,84540,1,0,3:0:0:0:
296,300,84631,1,4,3:0:0:0:
144,296,84813,1,4,3:0:0:0:
144,124,84995,1,0,1:0:0:0:
224,172,85176,1,0,3:0:0:0:
224,172,85267,1,0,3:0:0:0:
224,172,85358,6,0,B|224:256,1,80,4|4,3:0|3:0,0:0:0:0:
60,124,85722,2,0,B|60:44|60:44|140:44,1,160,0|4,1:0|3:0,0:0:0:0:
60,204,86267,2,0,B|60:120,1,80,4|0,3:0|1:0,0:0:0:0:
140,44,86631,6,0,B|216:44|216:44|260:124,1,160,4|4,3:0|3:0,0:0:0:0:
208,184,87176,1,0,1:0:0:0:
304,184,87358,1,4,3:0:0:0:
384,44,87540,2,0,L|296:44,1,80,2|0,3:0|0:0,0:0:0:0:
256,256,87904,1,0,1:0:0:0:
412,184,88086,1,0,1:0:0:0:
208,184,88267,6,0,L|124:184,1,80,4|4,3:2|3:0,0:0:0:0:
296,332,88631,2,0,B|340:332|340:332|340:207,1,160,0|4,1:0|3:0,0:0:0:0:
208,24,89177,2,0,L|208:124,1,80,4|0,3:0|1:0,0:0:0:0:
424,260,89540,6,0,B|424:144|424:144|368:144,1,160,4|4,3:0|3:0,0:0:0:0:
132,216,90086,1,0,1:0:0:0:
311,215,90267,1,4,3:0:0:0:
311,215,90358,1,4,3:0:0:0:
311,215,90449,1,4,3:0:0:0:
304,28,90632,1,4,3:0:0:0:
125,29,90813,1,0,1:0:0:0:
372,116,90995,1,4,3:0:0:0:
372,116,91085,1,4,3:0:0:0:
372,116,91176,5,12,1:2:0:0:
140,116,91358,1,8,1:2:0:0:
256,320,91540,1,8,1:2:0:0:
256,20,91904,5,12,1:2:0:0:
132,272,92085,1,8,1:2:0:0:
380,272,92267,1,8,1:2:0:0:
256,168,92449,1,0,1:0:0:0:
256,168,92540,1,0,1:0:0:0:
256,168,92631,5,12,1:2:0:0:
256,320,92995,1,12,1:2:0:0:
256,20,93358,1,12,1:2:0:0:
275,163,93540,5,0,3:0:0:0:
392,80,93722,1,0,3:0:0:0:
416,84,93813,1,0,3:0:0:0:
436,96,93904,1,0,3:0:0:0:
452,116,93995,1,0,3:0:0:0:
460,140,94085,6,0,B|460:184|444:232,1,80,6|0,2:1|0:0,0:0:0:0:
376,304,94449,1,2,0:0:0:0:
376,304,94540,1,2,0:1:0:0:
246,257,94813,1,2,0:0:0:0:
376,304,94994,2,0,B|349:265|349:217|349:217|373:185|373:141,1,160,2|2,0:1|0:0,0:0:0:0:
380,153,95449,5,2,0:0:0:0:
387,149,95540,2,0,L|379:97,2,40,2|2|2,0:0|0:0|0:0,0:0:0:0:
324,56,95903,1,8,0:0:0:0:
252,100,96085,1,2,0:0:0:0:
228,180,96267,2,0,B|228:220|252:268,1,80,0|2,0:0|0:0,0:0:0:0:
246,257,96540,1,2,0:0:0:0:
246,257,96631,1,10,0:0:0:0:
308,196,96813,1,2,0:0:0:0:
172,112,96995,5,4,0:0:0:0:
284,24,97176,1,0,0:0:0:0:
228,180,97358,1,10,0:0:0:0:
88,96,97540,1,0,0:0:0:0:
252,100,97722,6,0,B|292:104|336:120,1,80,2|2,0:0|0:0,0:0:0:0:
144,192,98085,2,0,B|104:188|60:172,1,80,8|2,0:0|0:0,0:0:0:0:
200,32,98449,5,2,0:0:0:0:
308,196,98631,1,2,0:0:0:0:
144,304,98813,1,10,0:0:0:0:
88,96,98995,1,2,0:0:0:0:
88,96,99085,1,2,0:0:0:0:
88,96,99176,5,2,0:0:0:0:
340,112,99358,1,0,0:0:0:0:
212,368,99540,1,10,0:0:0:0:
72,180,99722,6,0,B|116:184|144:160|144:160|152:204|180:236,1,160,6|2,0:1|0:0,0:0:0:0:
172,80,100267,2,0,B|168:40|148:0,1,80,2|0,0:1|0:0,0:0:0:0:
340,80,100631,2,0,B|344:40|364:0,1,80,2|2,0:1|0:0,0:0:0:0:
362,3,100904,1,2,0:0:0:0:
362,3,100995,1,8,0:0:0:0:
256,112,101176,1,2,0:0:0:0:
305,215,101358,5,2,0:0:0:0:
324,200,101449,1,2,0:0:0:0:
340,184,101540,1,2,0:0:0:0:
420,208,101722,1,8,0:0:0:0:
476,148,101904,1,2,0:0:0:0:
476,148,101995,1,2,0:0:0:0:
476,148,102085,1,2,0:0:0:0:
340,80,102267,1,2,0:0:0:0:
256,144,102449,1,8,0:0:0:0:
172,80,102631,1,2,0:0:0:0:
172,80,102722,1,2,0:0:0:0:
172,80,102813,5,6,1:2:0:0:
36,148,102995,1,2,1:2:0:0:
164,228,103176,1,2,1:2:0:0:
68,36,103540,5,2,1:2:0:0:
56,264,103722,1,2,1:2:0:0:
252,156,103904,1,2,1:2:0:0:
36,148,104085,1,2,1:2:0:0:
36,148,104176,1,2,1:2:0:0:
36,148,104267,6,0,B|72:132|116:132,1,80,4|0,1:2|0:0,0:0:0:0:
476,148,104631,2,0,B|440:132|396:132,1,80,4|0,1:2|0:0,0:0:0:0:
56,264,104995,1,4,1:2:0:0:
456,264,105358,1,0,3:0:0:0:
448,264,105449,1,0,3:0:0:0:
440,264,105540,1,0,3:0:0:0:
432,264,105631,1,0,3:0:0:0:
424,264,105722,5,2,3:2:0:0:
256,264,106085,1,2,0:2:0:0:
88,264,106449,1,2,3:2:0:0:
256,16,106813,5,0,3:0:0:0:
256,36,106904,1,0,3:0:0:0:
256,56,106995,1,0,3:0:0:0:
256,76,107085,1,0,3:0:0:0:
256,96,107176,5,4,1:0:0:0:
256,368,107540,5,4,1:0:0:0:
256,16,107904,5,4,1:0:0:0:
