osu file format v14

[General]
AudioFilename: audio.mp3
AudioLeadIn: 0
PreviewTime: 13850
Countdown: 0
SampleSet: Soft
StackLeniency: 0.8
Mode: 0
LetterboxInBreaks: 0
WidescreenStoryboard: 1

[Editor]
DistanceSpacing: 1.2
BeatDivisor: 4
GridSize: 4
TimelineZoom: 1.9

[Metadata]
Title:Green Green Dance
TitleUnicode:Green Green Dance
Artist:Mutsuhiko Izumi
ArtistUnicode:Mutsuhiko Izumi
Creator:Beomsan
Version:Hard
Source:jubeat knit
Tags:泉陸奥彦 ユビート Enon bemani folk electronic qubell clan plus jukebeat konami skeleton plus oldschool instrumental video game
BeatmapID:2248510
BeatmapSetID:1074044

[Difficulty]
HPDrainRate:5
CircleSize:3.5
OverallDifficulty:6
ApproachRate:7
SliderMultiplier:1.5
SliderTickRate:1

[Events]
//Background and Video events
0,0,"gongik.jpg",0,0
//Break Periods
//Storyboard Layer 0 (Background)
//Storyboard Layer 1 (Fail)
//Storyboard Layer 2 (Pass)
//Storyboard Layer 3 (Foreground)
//Storyboard Layer 4 (Overlay)
//Storyboard Sound Samples

[TimingPoints]
995,363.636363636364,4,2,0,90,1,0
9722,-100,4,2,0,100,0,0
12267,-100,4,2,0,90,0,0
12631,-100,4,2,0,100,0,1
24267,-100,4,2,0,90,0,0
35904,-100,4,2,0,100,0,1
47176,-100,4,2,0,90,0,0
47540,-100,4,2,0,90,0,1
47631,-100,4,2,0,90,0,0
57722,-100,4,2,0,100,0,1
57813,-100,4,2,0,100,0,0
58085,-100,4,2,0,100,0,1
58176,-100,4,2,0,100,0,0
58449,-100,4,2,0,100,0,1
58540,-100,4,2,0,100,0,0
58813,-100,4,2,0,90,0,0
59177,-100,4,2,0,95,0,0
70449,-100,4,2,0,90,0,0
76631,-100,4,2,0,94,0,0
79540,-100,4,2,0,80,0,1
79904,-100,4,2,0,83,0,1
80267,-100,4,2,0,85,0,1
80631,-100,4,2,0,87,0,1
80995,-100,4,2,0,90,0,1
81358,-100,4,2,0,93,0,1
81722,-100,4,2,0,96,0,1
82086,-100,4,2,0,100,0,1
82404,-100,4,2,0,100,0,0
82449,-100,4,2,0,100,0,1
93722,-100,4,2,0,100,0,0
94085,-100,4,2,0,100,0,1
105358,-100,4,2,0,90,0,1
105722,-100,4,2,0,80,0,0
106813,-100,4,2,0,90,0,0
107176,-100,4,2,0,100,0,1
107267,-100,4,2,0,100,0,0
107540,-100,4,2,0,100,0,1
107631,-100,4,2,0,100,0,0
107904,-100,4,2,0,100,0,1
107995,-100,4,2,0,100,0,0

[Colours]
Combo1 : 236,177,0
Combo2 : 0,189,0
Combo3 : 0,84,187
Combo4 : 203,12,40

[HitObjects]
320,88,995,6,0,L|396:88,2,75,4|4|0,3:0|3:0|1:0,0:0:0:0:
260,156,1540,2,0,L|184:156,2,75,4|0|4,3:0|3:0|3:0,0:0:0:0:
328,232,2086,2,0,L|408:232,1,75,0|0,1:0|1:0,0:0:0:0:
403,232,2358,1,0,1:0:0:0:
403,232,2449,6,0,L|403:316,2,75,4|4|0,3:3|3:0|1:0,0:0:0:0:
312,380,2995,2,0,L|312:296,2,75,4|0|4,3:0|3:0|3:0,0:0:0:0:
236,224,3540,2,0,L|236:312,1,75,0|0,1:0|1:0,0:0:0:0:
236,299,3813,1,0,1:0:0:0:
236,299,3904,6,0,L|142:299,2,75,4|4|0,3:0|3:0|1:0,0:0:0:0:
314,255,4449,2,0,L|408:255,2,75,4|0|4,3:0|3:0|3:0,0:0:0:0:
271,175,4995,2,0,L|191:175,1,75,0|0,1:0|1:0,0:0:0:0:
196,175,5267,1,0,1:0:0:0:
196,175,5358,6,0,L|196:92,1,75,4|4,3:0|3:0,0:0:0:0:
276,12,5722,2,0,L|276:87,1,75,0|4,1:0|3:0,0:0:0:0:
116,88,6086,2,0,L|116:50,3,37.5,0|0|4|0,3:0|3:0|3:0|3:0,0:0:0:0:
96,92,6449,2,0,L|96:129,3,37.5,0|0|0|0,1:0|3:0|1:0|1:0,0:0:0:0:
76,88,6813,6,0,L|-8:88,2,75,4|4|0,3:2|3:0|1:0,0:0:0:0:
32,168,7358,2,0,L|32:252,2,75,4|0|4,3:0|3:0|3:0,0:0:0:0:
120,216,7904,2,0,L|196:216,1,75,0|0,1:0|1:0,0:0:0:0:
195,216,8177,1,0,1:0:0:0:
195,216,8267,2,0,L|279:216,2,75,4|4|0,3:0|3:0|1:0,0:0:0:0:
328,152,8813,2,0,L|328:68,2,75,4|0|4,3:0|3:0|3:0,0:0:0:0:
264,19,9358,2,0,L|176:19,1,75,0|0,1:0|1:0,0:0:0:0:
189,19,9631,1,0,1:0:0:0:
189,19,9722,6,0,L|189:99,2,75,12|8|8,1:2|1:2|1:2,0:0:0:0:
323,365,10449,2,0,L|324:284,2,75,12|8|8,1:2|1:2|1:2,0:0:0:0:
408,328,10995,1,8,1:2:0:0:
492,364,11177,5,12,1:2:0:0:
180,368,11540,1,12,1:2:0:0:
180,56,11904,1,12,1:2:0:0:
376,56,12267,2,0,L|376:96,3,37.5,0|0|0|0,3:0|3:0|3:0|3:0,0:0:0:0:
404,128,12631,6,0,L|404:212,1,75,4|4,3:1|3:0,0:0:0:0:
404,292,12995,2,0,B|304:292|304:292|304:240,1,150,0|4,1:0|3:0,0:0:0:0:
404,292,13540,2,0,B|460:292|460:292|460:328,1,75,4|0,3:0|1:0,0:0:0:0:
404,380,13904,2,0,L|248:380,1,150,4|4,3:0|3:0,0:0:0:0:
184,324,14449,2,0,L|100:324,1,75,0|4,1:0|3:0,0:0:0:0:
229,242,14813,2,0,L|313:242,2,75,4|4|0,3:0|3:0|1:0,0:0:0:0:
56,260,15540,6,0,L|56:176,1,75,4|4,3:0|3:0,0:0:0:0:
56,96,15904,2,0,B|156:96|156:96|156:148,1,150,0|4,1:0|3:0,0:0:0:0:
56,96,16449,2,0,B|0:96|0:96|0:60,1,75,4|0,3:0|1:0,0:0:0:0:
56,8,16813,2,0,L|212:8,1,150,4|4,3:0|3:0,0:0:0:0:
256,84,17358,2,0,L|256:160,1,75,0|4,1:0|3:0,0:0:0:0:
306,8,17722,2,0,L|456:8,1,150,2|0,3:0|1:0,0:0:0:0:
456,100,18267,1,0,1:0:0:0:
456,192,18449,6,0,L|376:192,1,75,4|4,3:2|3:0,0:0:0:0:
300,228,18813,2,0,B|300:340|300:340|344:340,1,150,0|4,1:0|3:0,0:0:0:0:
300,228,19358,2,0,B|300:168|300:168|276:168,1,75,4|0,3:0|1:0,0:0:0:0:
212,224,19722,2,0,L|212:376,1,150,4|4,3:0|3:0,0:0:0:0:
128,336,20267,2,0,L|128:252,1,75,0|4,1:0|3:0,0:0:0:0:
40,260,20631,2,0,L|40:344,2,75,4|4|0,3:0|3:0|1:0,0:0:0:0:
188,100,21358,5,12,1:2:0:0:
256,40,21540,1,8,1:2:0:0:
324,100,21722,1,8,1:2:0:0:
324,284,22086,5,12,1:2:0:0:
256,344,22268,1,8,1:2:0:0:
188,284,22450,1,8,1:2:0:0:
256,224,22631,6,0,L|256:176,2,37.5,0|0|12,1:0|1:0|1:2,0:0:0:0:
256,44,23177,1,12,1:2:0:0:
256,344,23540,1,12,1:2:0:0:
256,44,23904,6,0,L|256:81,2,37.5,0|0|0,3:0|3:0|3:0,0:0:0:0:
340,12,24267,1,4,1:0:0:0:
420,56,24449,2,0,L|496:56,1,75,4|2,3:0|1:3,0:0:0:0:
388,140,24813,2,0,B|388:224|388:224|456:224,2,150,4|4|4,3:0|3:0|3:0,0:0:0:0:
304,228,25722,2,0,B|304:144|304:144|236:144,1,150,4|2,3:0|1:3,0:0:0:0:
148,144,26267,1,4,3:0:0:0:
144,324,26631,1,4,3:0:0:0:
236,324,26813,2,0,L|320:324,2,75,2|4|4,1:3|3:0|3:0,0:0:0:0:
144,324,27358,5,4,3:0:0:0:
144,324,27449,1,4,3:0:0:0:
144,324,27540,1,6,1:3:0:0:
52,324,27722,2,0,B|52:220|52:220|116:220,1,150,4|4,3:0|3:0,0:0:0:0:
104,132,28267,2,0,B|52:132|52:132|52:88,1,75,6|4,1:3|3:0,0:0:0:0:
52,20,28631,5,4,3:0:0:0:
140,28,28813,1,4,3:0:0:0:
140,28,28904,1,4,3:0:0:0:
140,28,28995,1,2,1:3:0:0:
372,20,29358,1,4,1:3:0:0:
460,28,29540,1,4,3:0:0:0:
460,28,29631,1,4,3:0:0:0:
460,28,29722,1,2,1:3:0:0:
256,152,30086,5,4,3:2:0:0:
192,216,30267,2,0,L|104:216,1,75,4|2,3:0|1:3,0:0:0:0:
232,292,30631,2,0,B|232:340|232:340|344:340,2,150,4|4|4,3:0|3:0|3:0,0:0:0:0:
312,252,31540,2,0,L|408:252,1,75,4|0,3:0|3:0,0:0:0:0:
276,172,31904,1,2,1:3:0:0:
312,88,32086,2,0,B|414:88|414:88|414:136,1,150,4|4,3:0|3:0,0:0:0:0:
276,172,32631,2,0,L|192:172,1,75,2|4,1:3|3:0,0:0:0:0:
132,112,32995,6,0,L|132:32,1,75,2|4,1:3|3:0,0:0:0:0:
201,172,33358,2,0,L|201:252,1,75,2|4,1:3|3:0,0:0:0:0:
132,37,33722,2,0,L|216:37,1,75,2|4,1:3|3:0,0:0:0:0:
201,247,34086,2,0,L|117:247,1,75,2|4,1:3|3:0,0:0:0:0:
32,140,34449,6,0,P|80:140|76:140,3,37.5,2|2|2|2,3:0|3:0|3:0|3:0,0:0:0:0:
116,140,34813,2,0,P|164:140|160:140,3,37.5,2|2|2|2,3:0|3:0|3:0|3:0,0:0:0:0:
200,140,35177,1,14,3:0:0:0:
380,140,35540,2,0,L|436:140,2,37.5,0|0|0,1:0|1:0|1:0,0:0:0:0:
300,180,35904,6,0,L|300:264,1,75,4|4,3:1|3:0,0:0:0:0:
332,340,36267,2,0,B|388:340|388:340|388:232,1,150,0|4,1:0|3:0,0:0:0:0:
332,340,36813,2,0,B|276:340|276:340|276:372,1,75,4|0,3:0|1:0,0:0:0:0:
300,255,37177,2,0,B|300:180|300:180|216:180,1,150,4|4,3:0|3:0,0:0:0:0:
148,260,37722,2,0,L|224:260,1,75,0|4,1:0|3:0,0:0:0:0:
225,180,38086,2,0,L|149:180,2,75,4|4|0,3:0|3:0|1:0,0:0:0:0:
312,24,38813,6,0,L|392:24,1,75,4|4,3:0|3:0,0:0:0:0:
468,68,39177,2,0,B|468:148|468:148|396:148,1,150,0|4,1:0|3:0,0:0:0:0:
468,68,39722,2,0,B|468:8|468:8|500:8,1,75,4|0,3:0|1:0,0:0:0:0:
398,148,40086,2,0,B|310:148|310:148|310:212,1,150,4|4,3:0|3:0,0:0:0:0:
308,300,40631,2,0,L|388:300,1,75,0|4,1:0|3:0,0:0:0:0:
202,210,40995,2,0,B|202:148|202:148|114:148,1,150,2|0,3:0|1:0,0:0:0:0:
24,148,41540,1,0,1:0:0:0:
24,240,41722,6,0,L|24:320,1,75,4|4,3:2|3:0,0:0:0:0:
114,358,42086,2,0,B|202:358|202:358|202:296,1,150,0|4,1:0|3:0,0:0:0:0:
204,204,42631,2,0,L|120:204,1,75,4|0,3:0|1:0,0:0:0:0:
64,140,42995,2,0,B|64:40|64:40|114:40,1,150,4|4,3:0|3:0,0:0:0:0:
204,40,43540,2,0,L|204:120,1,75,0|4,1:0|3:0,0:0:0:0:
308,115,43904,2,0,L|308:40,2,75,4|4|0,3:0|3:0|1:0,0:0:0:0:
324,284,44631,5,12,1:2:0:0:
256,344,44813,1,8,1:2:0:0:
188,284,44995,1,8,1:2:0:0:
188,100,45359,5,12,1:2:0:0:
256,40,45541,1,8,1:2:0:0:
324,100,45723,1,8,1:2:0:0:
256,160,45904,6,0,L|256:208,2,37.5,0|0|12,1:0|1:0|1:2,0:0:0:0:
256,340,46450,1,12,1:2:0:0:
256,40,46813,1,12,1:2:0:0:
256,340,47177,6,0,L|256:302,3,37.5,0|0|0|0,3:0|3:0|3:0|3:0,0:0:0:0:
296,280,47540,2,0,B|416:280|416:280|416:336,2,150,4|0|4,3:1|1:0|3:0,0:0:0:0:
304,192,48449,1,0,3:0:0:0:
304,192,48540,1,0,3:0:0:0:
304,192,48631,2,0,L|392:192,1,75,0|0,1:0|3:0,0:0:0:0:
448,132,48995,6,0,B|448:20|448:20|304:20|304:20|304:88,1,300,4|4,3:0|3:0,0:0:0:0:
208,64,49904,2,0,L|208:20,2,37.5,0|0|0,3:0|3:0|1:0,0:0:0:0:
116,64,50267,1,0,3:0:0:0:
24,64,50449,6,0,L|24:220,1,150,4|0,3:1|1:0,0:0:0:0:
20,304,50995,1,0,3:0:0:0:
116,312,51177,2,0,L|212:312,1,75,4|0,3:0|3:0,0:0:0:0:
191,312,51449,1,0,3:0:0:0:
191,312,51540,2,0,L|191:233,1,75,0|0,1:0|3:0,0:0:0:0:
200,92,51904,6,0,L|104:92,1,75,4|0,3:0|3:0,0:0:0:0:
125,92,52176,1,0,3:0:0:0:
125,92,52267,2,0,L|125:171,1,75,0|0,1:0|3:0,0:0:0:0:
191,237,52631,2,0,B|220:264|220:264|296:264|296:264|324:236,1,150,4|0,3:0|1:0,0:0:0:0:
256,172,53177,1,0,3:0:0:0:
320,108,53358,6,0,B|448:108|448:108|448:136,2,150,4|0|4,3:1|1:0|3:0,0:0:0:0:
328,20,54267,1,0,3:0:0:0:
328,20,54358,1,0,3:0:0:0:
328,20,54449,2,0,L|412:20,1,75,0|0,1:0|3:0,0:0:0:0:
448,130,54813,2,0,B|448:266|448:266|320:266|320:266|320:209,1,300,4|4,3:0|3:0,0:0:0:0:
192,230,55722,2,0,L|192:274,2,37.5,0|0|0,3:0|3:0|1:0,0:0:0:0:
101,230,56086,1,0,3:0:0:0:
11,230,56267,6,0,L|11:80,1,150,4|0,3:1|1:0,0:0:0:0:
11,80,56722,1,0,3:0:0:0:
11,80,56813,1,0,3:0:0:0:
112,88,56995,2,0,L|112:40,2,37.5,0|0|0,3:0|3:0|3:0,3:0:0:0:
212,96,57358,1,0,1:0:0:0:
212,96,57449,1,0,3:0:0:0:
212,96,57540,1,0,3:0:0:0:
124,244,57722,5,12,1:2:0:0:
340,344,58086,1,12,1:2:0:0:
318,106,58449,1,12,1:2:0:0:
124,244,58813,2,0,L|180:244,3,37.5,0|0|0|0,3:0|3:0|3:0|3:0,0:0:0:0:
208,244,59177,6,0,L|208:160,1,75,4|4,3:0|3:0,0:0:0:0:
208,80,59540,1,0,1:0:0:0:
116,80,59722,2,0,B|48:80|48:80|48:162,1,150,4|4,3:0|3:0,0:0:0:0:
48,252,60267,2,0,L|48:327,1,75,0|0,1:0|3:0,0:0:0:0:
140,328,60631,2,0,L|216:328,2,75,0|0|0,1:0|1:0|1:0,0:0:0:0:
372,328,61358,2,0,L|296:328,2,75,0|0|0,1:0|1:0|1:0,0:0:0:0:
464,328,61904,6,0,B|464:204|464:204|420:204,1,150,4|4,3:0|3:0,0:0:0:0:
348,204,62449,2,0,B|324:204|324:204|324:144|324:148,1,75,0|4,1:0|3:0,0:0:0:0:
324,64,62813,2,0,L|412:64,2,75,0|4|0,3:0|3:0|1:0,0:0:0:0:
256,8,63358,1,4,3:0:0:0:
188,64,63540,2,0,L|100:64,1,75,4|0,1:2|3:0,0:0:0:0:
24,64,63904,1,4,3:0:0:0:
20,156,64086,2,0,B|20:232|20:232|104:232,1,150,4|0,1:2|3:0,0:0:0:0:
184,232,64631,2,0,L|184:284,2,37.5,0|0|0,1:0|1:0|1:0,0:0:0:0:
92,320,64995,6,0,L|8:320,2,75,4|4|0,3:2|3:0|1:0,0:0:0:0:
176,356,65540,1,4,3:0:0:0:
260,320,65722,2,0,L|344:320,1,75,0|4,3:0|3:0,0:0:0:0:
424,324,66086,2,0,L|424:236,1,75,0|4,1:0|3:0,0:0:0:0:
424,249,66358,1,0,3:0:0:0:
424,249,66449,2,0,L|424:180,2,37.5,4|0|0,3:3|3:0|3:0,0:0:0:0:
336,236,66813,1,0,1:0:0:0:
336,144,66995,2,0,B|336:68|336:68|416:68,1,150,4|4,3:0|3:0,0:0:0:0:
500,68,67540,1,0,1:0:0:0:
176,144,67904,6,0,L|176:60,2,75,8|8|8,1:2|1:2|1:2,0:0:0:0:
40,264,68631,2,0,L|40:348,2,75,8|8|8,1:2|1:2|1:2,0:0:0:0:
132,264,69177,1,8,1:2:0:0:
220,264,69358,1,12,1:2:0:0:
400,264,69722,1,12,1:2:0:0:
400,84,70086,1,12,1:2:0:0:
220,84,70449,2,0,L|220:136,3,37.5,0|0|0|0,3:0|3:0|3:0|3:0,0:0:0:0:
220,84,70813,6,0,L|100:84,2,100,2|2|2,0:1|0:0|0:0,0:0:0:0:
312,176,71540,2,0,L|432:176,2,100,2|2|2,0:1|0:0|0:0,0:0:0:0:
220,268,72267,2,0,L|100:268,2,100,2|2|2,0:1|0:0|0:0,0:0:0:0:
312,360,72995,2,0,L|424:360,2,100,2|2|2,0:1|0:0|0:0,0:0:0:0:
312,360,73601,1,2,0:0:0:0:
312,360,73722,6,0,B|312:276|312:276|424:276|424:276|424:56|424:56|288:56,1,525,2|0,0:0|1:0,0:0:0:0:
197,56,75176,2,0,B|88:56|88:56|88:276|88:276|200:276|200:276|200:360,1,525,2|0,0:0|1:0,0:0:0:0:
112,360,76631,6,0,L|8:360,2,100,2|2|2,3:1|0:0|0:0,0:0:0:0:
200,280,77358,2,0,L|304:280,2,100,2|2|2,3:1|0:0|0:0,0:0:0:0:
104,168,78086,2,0,L|0:168,2,100,2|2|2,3:1|0:0|0:0,0:0:0:0:
200,80,78813,2,0,L|304:80,1,100,2|2,3:1|0:1,0:0:0:0:
256,192,79540,12,2,81722,3:0:0:0:
108,128,82449,6,0,L|108:212,1,75,4|4,3:1|3:0,0:0:0:0:
108,292,82813,2,0,B|208:292|208:292|208:240,1,150,0|4,1:0|3:0,0:0:0:0:
108,292,83358,2,0,B|52:292|52:292|52:328,1,75,4|0,3:0|1:0,0:0:0:0:
108,380,83722,2,0,L|264:380,1,150,4|4,3:0|3:0,0:0:0:0:
328,324,84267,2,0,L|412:324,1,75,0|4,1:0|3:0,0:0:0:0:
283,242,84631,2,0,L|199:242,2,75,4|4|0,3:0|3:0|1:0,0:0:0:0:
456,260,85358,6,0,L|456:176,1,75,4|4,3:0|3:0,0:0:0:0:
456,96,85722,2,0,B|356:96|356:96|356:148,1,150,0|4,1:0|3:0,0:0:0:0:
456,96,86267,2,0,B|512:96|512:96|512:60,1,75,4|0,3:0|1:0,0:0:0:0:
456,8,86631,2,0,L|300:8,1,150,4|4,3:0|3:0,0:0:0:0:
256,84,87176,2,0,L|256:160,1,75,0|4,1:0|3:0,0:0:0:0:
206,8,87540,2,0,L|56:8,1,150,2|0,3:0|1:0,0:0:0:0:
56,100,88085,1,0,1:0:0:0:
56,192,88267,6,0,L|136:192,1,75,4|4,3:2|3:0,0:0:0:0:
212,228,88631,2,0,B|212:340|212:340|168:340,1,150,0|4,1:0|3:0,0:0:0:0:
212,228,89176,2,0,B|212:168|212:168|236:168,1,75,4|0,3:0|1:0,0:0:0:0:
300,224,89540,2,0,L|300:376,1,150,4|4,3:0|3:0,0:0:0:0:
384,336,90085,2,0,L|384:252,1,75,0|4,1:0|3:0,0:0:0:0:
472,260,90449,2,0,L|472:344,2,75,4|4|0,3:0|3:0|1:0,0:0:0:0:
324,100,91176,5,12,1:2:0:0:
256,40,91358,1,8,1:2:0:0:
188,100,91540,1,8,1:2:0:0:
188,284,91904,5,12,1:2:0:0:
256,344,92086,1,8,1:2:0:0:
324,284,92268,1,8,1:2:0:0:
256,224,92449,6,0,L|256:176,2,37.5,0|0|12,1:0|1:0|1:2,0:0:0:0:
256,44,92995,1,12,1:2:0:0:
256,344,93358,1,12,1:2:0:0:
324,284,93540,1,0,3:0:0:0:
388,348,93722,1,0,3:0:0:0:
456,288,93904,1,0,3:0:0:0:
392,224,94085,6,0,L|392:64,2,150,6|8|2,2:1|0:0|0:0,0:0:0:0:
392,224,94995,2,0,B|280:224|280:224|280:160,1,150,2|2,0:1|0:0,0:0:0:0:
276,96,95540,1,2,0:0:0:0:
276,96,95631,1,2,0:0:0:0:
276,96,95722,1,2,0:0:0:0:
272,4,95904,1,8,0:0:0:0:
184,12,96086,2,0,B|108:12|108:12|108:92,1,150,2|2,0:0|0:2,0:0:0:0:
108,86,96540,1,2,0:2:0:0:
108,86,96631,2,0,B|108:144|108:144|84:144,1,75,10|2,0:2|0:0,0:0:0:0:
0,144,96995,6,0,L|0:48,2,75,4|0|10,0:0|0:0|0:0,0:0:0:0:
0,236,97540,1,0,0:0:0:0:
0,328,97722,2,0,L|88:328,1,75,2|2,0:0|0:0,0:0:0:0:
164,328,98086,2,0,L|164:240,1,75,8|2,0:0|0:0,0:0:0:0:
164,112,98449,2,0,L|248:112,2,75,2|2|10,0:0|0:0|0:0,0:0:0:0:
88,112,98995,1,2,0:0:0:0:
239,112,99177,2,0,L|323:112,1,75,2|0,0:0|0:0,0:0:0:0:
404,112,99540,1,10,0:0:0:0:
404,268,99722,6,0,B|240:268|240:268|240:207,1,225,6|2,0:1|0:1,0:0:0:0:
239,112,100449,1,0,0:0:0:0:
404,112,100631,2,0,L|404:32,1,75,2|2,0:1|0:0,0:0:0:0:
322,37,100995,2,0,L|322:112,1,75,8|2,0:0|0:0,0:0:0:0:
322,200,101358,6,0,L|322:240,2,37.5,2|2|2,0:0|0:0|0:0,0:0:0:0:
412,200,101722,1,8,0:0:0:0:
420,300,101904,1,2,0:0:0:0:
420,300,101995,1,2,0:0:0:0:
420,300,102086,1,2,0:0:0:0:
504,296,102267,1,2,0:0:0:0:
504,380,102449,2,0,L|424:380,1,75,8|2,0:0|0:0,0:0:0:0:
322,312,102813,6,0,L|322:236,2,75,6|2|2,1:2|1:2|1:2,0:0:0:0:
190,72,103540,2,0,L|190:148,2,75,6|2|2,1:2|1:2|1:2,0:0:0:0:
260,16,104086,1,2,1:2:0:0:
260,16,104177,1,2,1:2:0:0:
260,16,104267,5,4,1:2:0:0:
388,244,104631,1,4,1:2:0:0:
124,244,104995,1,4,1:2:0:0:
256,16,105722,6,0,B|280:88|232:88|260:172,2,150,2|2|2,3:2|0:2|0:2,0:0:0:0:
328,220,106813,6,0,L|380:220,3,37.5,0|0|0|0,3:0|3:0|3:0|3:0,0:0:0:0:
412,220,107177,5,4,1:0:0:0:
100,220,107540,5,4,1:0:0:0:
412,220,107904,5,4,1:0:0:0:
