osu file format v14

[General]
AudioFilename: audio.mp3
AudioLeadIn: 0
PreviewTime: 13850
Countdown: 0
SampleSet: Soft
StackLeniency: 0.8
Mode: 0
LetterboxInBreaks: 0
WidescreenStoryboard: 1

[Editor]
DistanceSpacing: 1.2
BeatDivisor: 4
GridSize: 8
TimelineZoom: 1.1

[Metadata]
Title:Green Green Dance
TitleUnicode:Green Green Dance
Artist:Mutsuhiko Izumi
ArtistUnicode:Mutsuhiko Izumi
Creator:Beomsan
Version:Collab Easy
Source:jubeat knit
Tags:泉陸奥彦 ユビート Enon bemani folk electronic qubell clan plus jukebeat konami skeleton plus oldschool instrumental video game
BeatmapID:3036274
BeatmapSetID:1074044

[Difficulty]
HPDrainRate:2
CircleSize:2.8
OverallDifficulty:3
ApproachRate:3.5
SliderMultiplier:1
SliderTickRate:1

[Events]
//Background and Video events
0,0,"gongik.jpg",0,0
//Break Periods
//Storyboard Layer 0 (Background)
//Storyboard Layer 1 (Fail)
//Storyboard Layer 2 (Pass)
//Storyboard Layer 3 (Foreground)
//Storyboard Layer 4 (Overlay)
//Storyboard Sound Samples

[TimingPoints]
995,363.636363636364,4,2,0,90,1,0
9722,-100,4,2,0,100,0,0
12267,-100,4,2,0,90,0,0
12631,-100,4,2,0,100,0,1
24267,-100,4,2,0,90,0,0
35904,-100,4,2,0,100,0,1
47176,-100,4,2,0,90,0,0
47540,-100,4,2,0,90,0,1
47631,-100,4,2,0,90,0,0
57722,-100,4,2,0,100,0,1
57813,-100,4,2,0,100,0,0
58085,-100,4,2,0,100,0,1
58176,-100,4,2,0,100,0,0
58449,-100,4,2,0,100,0,1
58540,-100,4,2,0,100,0,0
58813,-100,4,2,0,90,0,0
59177,-100,4,2,0,95,0,0
70449,-100,4,2,0,90,0,0
76631,-100,4,2,0,94,0,0
79540,-100,4,2,0,80,0,1
79904,-100,4,2,0,83,0,1
80267,-100,4,2,0,85,0,1
80631,-100,4,2,0,87,0,1
80995,-100,4,2,0,90,0,1
81358,-100,4,2,0,93,0,1
81722,-100,4,2,0,96,0,1
82086,-100,4,2,0,100,0,1
82404,-100,4,2,0,100,0,0
82449,-100,4,2,0,100,0,1
93722,-100,4,2,0,100,0,0
94085,-100,4,2,0,100,0,1
105358,-100,4,2,0,90,0,1
105722,-100,4,2,0,80,0,0
106813,-100,4,2,0,90,0,0
107176,-100,4,2,0,100,0,1
107267,-100,4,2,0,100,0,0
107540,-100,4,2,0,100,0,1
107631,-100,4,2,0,100,0,0
107904,-100,4,2,0,100,0,1
107995,-100,4,2,0,100,0,0

[Colours]
Combo1 : 236,177,0
Combo2 : 0,189,0
Combo3 : 0,84,187
Combo4 : 203,12,40

[HitObjects]
52,360,995,6,0,P|128:324|4:248,1,300,4|0,3:0|1:0,0:0:0:0:
0,120,2449,2,0,P|96:108|244:236,1,300,4|0,3:3|1:0,0:0:0:0:
360,264,3904,2,0,P|352:184|496:232,1,300,4|0,3:0|1:0,0:0:0:0:
452,340,5358,1,4,3:0:0:0:
256,208,6085,1,0,3:0:0:0:
48,324,6813,6,0,P|90:253|172:380,1,300,4|0,3:2|1:0,0:0:0:0:
296,352,8267,2,0,P|288:252|120:144,1,300,4|0,3:0|1:0,0:0:0:0:
136,24,9722,1,12,1:2:0:0:
376,24,10449,1,12,1:2:0:0:
256,232,11176,2,0,L|256:128,2,100,12|12|12,1:2|1:2|1:2,0:0:0:0:
456,364,12631,6,0,P|380:336|380:220,1,200,4|4,3:1|3:0,0:0:0:0:
472,160,13722,2,0,L|484:92,1,50,0|4,1:0|3:0,0:0:0:0:
320,28,14449,2,0,L|344:136,2,100,0|4|0,1:0|3:0|1:0,0:0:0:0:
200,28,15540,6,0,P|200:96|88:128,1,200,4|4,3:0|3:0,0:0:0:0:
20,228,16631,2,0,L|40:288,1,50,0|4,1:0|3:0,0:0:0:0:
204,344,17358,2,0,L|224:228,2,100,0|2|0,1:0|3:0|1:0,0:0:0:0:
320,308,18449,6,0,P|408:320|400:220,1,200,4|4,3:2|3:0,0:0:0:0:
352,128,19540,2,0,L|412:108,1,50,0|4,1:0|3:0,0:0:0:0:
224,80,20267,2,0,L|108:56,2,100,0|4|0,1:0|3:0|1:0,0:0:0:0:
256,192,21358,6,0,P|368:200|408:288,1,200,8|8,1:2|1:2,1:2:0:0:
488,40,22813,2,8,L|376:56,2,100,8|8|8,1:2|1:2|1:2,1:2:0:0:
256,6,24267,6,0,B|326:90|256:143|185:196|256:280,1,300,4|0,1:0|3:0,0:0:0:0:
364,336,25722,2,0,P|424:336|444:256,1,150,4|4,3:0|3:0,0:0:0:0:
336,212,26631,1,4,3:0:0:0:
432,140,26995,2,0,L|444:84,1,50,4|4,3:0|3:0,0:0:0:0:
340,32,27540,2,0,L|184:72,1,150,4|4,3:0|3:0,0:0:0:0:
136,52,28267,1,6,1:3:0:0:
132,172,28631,6,0,P|152:220|208:220,1,100,4|2,3:0|1:3,0:0:0:0:
316,226,29358,2,0,P|363:217|380:172,1,100,4|2,1:3|1:3,0:0:0:0:
312,72,30085,6,0,P|264:196|248:368,1,300,4|0,3:2|3:0,0:0:0:0:
128,364,31540,2,0,P|120:312|28:292,1,150,4|4,3:0|3:0,0:0:0:0:
68,172,32449,2,0,L|136:164,2,50,4|2|4,3:0|1:3|3:0,0:0:0:0:
16,140,32995,1,2,1:3:0:0:
292,316,34449,6,0,L|396:284,2,100,2|2|6,0:0|0:0|0:0,0:0:0:0:
56,364,35904,6,0,P|132:336|132:220,1,200,4|4,3:1|3:0,0:0:0:0:
40,160,36995,2,0,L|28:92,1,50,0|4,1:0|3:0,0:0:0:0:
192,28,37722,2,0,L|168:136,2,100,0|4|0,1:0|3:0|1:0,0:0:0:0:
312,28,38813,6,0,P|312:96|424:128,1,200,4|4,3:0|3:0,0:0:0:0:
492,228,39904,2,0,L|472:288,1,50,0|4,1:0|3:0,0:0:0:0:
308,344,40631,2,0,L|288:228,2,100,0|2|0,1:0|3:0|1:0,0:0:0:0:
192,308,41722,6,0,P|104:320|112:220,1,200,4|4,3:2|3:0,0:0:0:0:
160,128,42813,2,0,L|100:108,1,50,0|4,1:0|3:0,0:0:0:0:
288,80,43540,2,0,L|404:56,2,100,0|4|0,1:0|3:0|1:0,0:0:0:0:
256,192,44631,6,0,P|144:200|104:288,1,200,8|8,1:2|1:2,1:2:0:0:
24,40,46086,6,8,L|136:56,2,100,8|8|8,1:2|1:2|1:2,1:2:0:0:
285,324,47540,6,0,B|109:369|194:189|-3:273,1,300,2|2,0:0|0:0,0:0:0:0:
0,146,48995,1,2,0:0:0:0:
239,128,49722,1,2,0:0:0:0:
257,367,50449,6,0,P|303:284|504:193,1,300,6|2,0:0|0:0,0:0:0:0:
456,72,51904,2,0,P|375:118|256:107,1,200,2|2,0:0|0:0,0:0:0:0:
256,0,52995,1,0,0:0:0:0:
137,31,53358,6,0,B|167:122|96:163|96:163|25:203|55:295,1,300,6|2,0:0|0:0,0:0:0:0:
148,365,54813,1,2,0:0:0:0:
385,333,55540,1,2,0:0:0:0:
353,96,56267,6,0,P|320:125|157:152,1,200,2|2,0:0|0:0,0:0:0:0:
69,92,57358,1,2,0:0:0:0:
5,194,57722,2,0,P|-3:240|22:305,2,100,12|12|12,1:2|1:2|1:2,0:0:0:0:
206,63,59176,6,0,P|270:88|475:0,1,300,4|0,3:0|1:0,0:0:0:0:
507,120,60631,2,0,P|450:158|417:289,1,200,0|0,1:0|1:0,0:0:0:0:
329,364,61722,1,8,0:0:0:0:
218,317,62085,6,0,P|146:313|79:123,1,300,4|0,3:0|1:0,0:0:0:0:
11,25,63540,2,0,P|74:5|189:84,1,200,4|0,1:2|1:0,0:0:0:0:
256,164,64631,1,0,1:0:0:0:
331,70,64995,6,0,B|277:150|336:208|336:208|394:265|341:346,1,300,4|0,3:2|1:0,0:0:0:0:
461,362,66449,2,0,P|457:307|480:147,1,200,4|2,3:3|0:0,0:0:0:0:
449,47,67540,1,0,1:0:0:0:
331,70,67904,5,8,1:2:0:0:
256,297,68631,1,8,1:2:0:0:
181,70,69358,2,0,L|62:88,2,100,12|12|12,1:2|1:2|1:2,0:0:0:0:
407,149,70813,6,0,P|380:242|293:285,1,200,2|2,0:1|1:1,0:0:0:0:
288,165,71903,1,2,0:0:0:0:
169,182,72267,2,0,P|195:88|282:45,1,200,2|2,0:1|1:1,0:0:0:0:
293,285,73722,6,0,P|114:320|86:335,1,200,4|2,3:0|0:0,0:0:0:0:
0,107,75176,2,0,P|179:72|207:57,1,200,4|2,3:0|0:0,0:0:0:0:
276,151,76267,1,0,0:0:0:0:
359,64,76631,6,0,P|324:116|338:261,1,200,4|2,3:2|1:1,0:0:0:0:
256,342,77722,1,0,3:0:0:0:
181,248,78085,2,0,P|197:151|153:64,1,200,4|2,3:0|1:1,0:0:0:0:
29,269,79540,5,4,3:0:0:0:
256,342,80267,1,4,3:0:0:0:
483,269,80995,1,4,3:0:0:0:
256,192,81722,2,0,L|256:75,1,100,2|0,3:0|0:0,0:0:0:0:
336,3,82449,6,0,P|204:52|144:35,1,200,4|4,3:1|3:0,0:0:0:0:
32,24,83540,2,0,P|30:48|23:73,1,50,0|4,1:0|3:0,0:0:0:0:
56,248,84267,2,0,P|42:303|38:345,2,100,0|4|0,1:0|3:0|1:0,0:0:0:0:
144,168,85358,6,0,P|236:158|294:249,1,200,4|4,3:0|3:0,0:0:0:0:
408,288,86449,2,0,P|411:250|418:228,1,50,0|4,1:0|3:0,0:0:0:0:
400,56,87176,2,0,P|399:105|383:154,2,100,0|2|0,1:0|3:0|1:0,0:0:0:0:
294,113,88267,6,0,P|304:62|182:64,1,200,4|4,3:2|3:0,0:0:0:0:
115,137,89358,2,0,L|126:199,1,50,0|4,1:0|3:0,0:0:0:0:
97,364,90085,2,0,L|-19:340,2,100,0|4|0,1:0|3:0|1:0,0:0:0:0:
152,256,91176,5,12,0:0:0:0:
256,40,91903,1,12,0:0:0:0:
360,256,92631,2,8,L|480:232,2,100,8|8|8,1:2|1:2|1:2,1:2:0:0:
256,35,94085,6,0,B|301:103|254:174|254:174|207:244|254:315,1,300,6|10,2:1|0:0,0:0:0:0:
363,365,95540,2,0,P|428:357|462:232,1,200,2|0,0:0|3:0,0:0:0:0:
358,192,96631,1,10,0:0:0:0:
467,141,96995,6,0,P|453:47|363:19,1,200,4|2,0:0|3:2,0:0:0:0:
256,73,98085,1,8,0:0:0:0:
148,18,98449,2,0,P|58:47|44:141,1,200,2|2,0:0|0:0,0:0:0:0:
154,192,99540,1,10,0:0:0:0:
138,311,99904,6,0,L|26:338,2,100,6|2|2,0:0|0:1|0:1,0:0:0:0:
256,291,100995,1,8,0:0:0:0:
374,311,101358,2,0,L|486:338,2,100,2|8|2,0:0|0:0|0:0,0:0:0:0:
256,291,102449,1,8,0:0:0:0:
160,219,102813,1,2,1:2:0:0:
256,0,103540,1,2,1:2:0:0:
352,219,104267,2,10,P|400:200|448:192,2,100,10|10|10,1:2|1:2|1:2,1:2:0:0:
336,56,105722,6,0,L|444:42,2,100,2|2|2,3:2|0:2|0:2,0:0:0:0:
256,146,106813,1,0,3:0:0:0:
176,56,107176,2,0,L|68:42,2,100,4|4|4,1:0|1:0|1:0,0:0:0:0:
