osu file format v14

[General]
AudioFilename: audio.mp3
AudioLeadIn: 0
PreviewTime: 41730
Countdown: 0
SampleSet: None
StackLeniency: 0.5
Mode: 0
LetterboxInBreaks: 0
WidescreenStoryboard: 1

[Editor]
Bookmarks: 1530,2130,2730,3330,3930,4530,5130,5730,6330,6930,7530,8130,8730,9330,9405,9480,9555,9630,9780,9855,10005,10080,10230,10305,10380,10455,10530,10605,10680,10755,10830,10980,11055,11205,11280,11430,11505,11580,11655,11730,21030,21330,39330,39780,40530,40980,41730,48930,49230,49530,49830,50130,50430,50730,51030,51330,52530,53730,54930,56130,57330,58530,58830,59130,59430,59730,60030,60330,60630,60930,71730,72330,72930,73530,74130,74730,75330,75930,76530,77130,77730,78330,78930,79530,80130,82530,89730,90930,91530,92130,101730,105330,106530,110130,110580,111330,111780,112530,112980,113730,114930,115830,116730
DistanceSpacing: 0.1
BeatDivisor: 4
GridSize: 4
TimelineZoom: 1.5

[Metadata]
Title:Blue Goose
TitleUnicode:Blue Goose
Artist:Mutsuhiko Izumi
ArtistUnicode:Mutsuhiko Izumi
Creator:-NeBu-
Version:Soaring Elegance
Source:jubeat saucer fulfill
Tags:nold_1702 training speed stamina stream jump spaced streams nebu nebusc2 extra insane
BeatmapID:2020104
BeatmapSetID:964979

[Difficulty]
HPDrainRate:6
CircleSize:4
OverallDifficulty:9.4
ApproachRate:9.6
SliderMultiplier:2.2
SliderTickRate:1

[Events]
//Background and Video events
0,0,"background.jpg",0,0
//Break Periods
//Storyboard Layer 0 (Background)
//Storyboard Layer 1 (Fail)
//Storyboard Layer 2 (Pass)
//Storyboard Layer 3 (Foreground)
//Storyboard Sound Samples

[TimingPoints]
930,300,4,2,0,25,1,0
9330,-100,4,1,0,50,0,0
11730,-100,4,1,0,65,0,0
34980,-133.333333333333,4,1,0,65,0,0
37680,-100,4,1,0,65,0,0
41730,-66.6666666666667,4,1,0,70,0,0
48930,-100,4,1,0,70,0,0
51330,-100,4,2,0,75,0,1
58530,-66.6666666666667,4,1,0,70,0,0
60930,-100,4,1,0,65,0,0
71730,-100,4,2,0,35,0,0
80130,-100,4,1,0,65,0,0
82530,-142.857142857143,4,2,0,45,0,0
89730,-111.111111111111,4,1,0,55,0,0
92130,-76.9230769230769,4,1,0,75,0,0
101730,-76.9230769230769,4,1,0,75,0,1
110130,-76.9230769230769,4,1,0,80,0,1
114930,-76.9230769230769,4,1,0,45,0,0

[Colours]
Combo1 : 255,255,0
Combo2 : 36,36,255
Combo3 : 173,133,71
Combo4 : 192,192,192
SliderTrackOverride : 6,12,25
SliderBorder : 130,160,210

[HitObjects]
328,73,930,5,6,0:0:0:0:
379,64,1005,1,2,0:0:0:0:
421,87,1080,1,2,0:0:0:0:
437,125,1155,1,2,0:0:0:0:
435,159,1230,1,2,0:0:0:0:
419,178,1305,1,2,0:0:0:0:
405,184,1380,2,2,L|341:196,1,55
210,168,1530,5,6,0:0:0:0:
181,174,1605,1,2,0:0:0:0:
155,161,1680,1,2,0:0:0:0:
128,148,1755,1,2,0:0:0:0:
100,155,1830,1,2,0:0:0:0:
71,162,1905,1,2,0:0:0:0:
46,149,1980,2,2,L|36:84,1,55
210,30,2130,5,6,0:0:0:0:
256,30,2205,1,2,0:0:0:0:
293,50,2280,1,2,0:0:0:0:
313,84,2355,1,2,0:0:0:0:
315,113,2430,1,2,0:0:0:0:
307,138,2505,1,2,0:0:0:0:
286,151,2580,2,2,P|278:183|282:211,1,55
434,337,2730,5,6,0:0:0:0:
394,306,2805,1,2,0:0:0:0:
353,294,2880,1,2,0:0:0:0:
317,293,2955,1,2,0:0:0:0:
284,299,3030,1,2,0:0:0:0:
266,307,3105,1,2,0:0:0:0:
258,316,3180,2,2,L|184:328,1,55
86,255,3330,5,6,0:0:0:0:
64,226,3405,1,2,0:0:0:0:
63,190,3480,1,2,0:0:0:0:
84,160,3555,1,2,0:0:0:0:
118,149,3630,1,2,0:0:0:0:
152,160,3705,1,2,0:0:0:0:
173,189,3780,2,2,P|203:182|236:188,1,55
382,224,3930,5,6,0:0:0:0:
396,190,4005,1,2,0:0:0:0:
400,154,4080,1,2,0:0:0:0:
392,118,4155,1,2,0:0:0:0:
374,86,4230,1,2,0:0:0:0:
347,62,4305,1,2,0:0:0:0:
314,47,4380,2,2,L|388:24,1,55
192,40,4530,5,6,0:0:0:0:
173,38,4605,1,2,0:0:0:0:
155,36,4680,1,2,0:0:0:0:
137,34,4755,1,2,0:0:0:0:
119,32,4830,1,2,0:0:0:0:
100,30,4905,1,2,0:0:0:0:
80,28,4980,2,2,P|54:35|28:53,1,55
100,127,5130,5,6,0:0:0:0:
111,141,5205,1,2,0:0:0:0:
120,156,5280,1,2,0:0:0:0:
127,173,5355,1,2,0:0:0:0:
132,191,5430,1,2,0:0:0:0:
133,209,5505,1,2,0:0:0:0:
128,228,5580,2,2,P|122:260|108:293,1,55
252,328,5730,5,6,0:0:0:0:
227,287,5805,1,2,0:0:0:0:
235,237,5880,1,2,0:0:0:0:
262,207,5955,1,2,0:0:0:0:
301,199,6030,1,2,0:0:0:0:
334,212,6105,1,2,0:0:0:0:
351,234,6180,2,2,P|380:240|416:229,1,55
467,67,6330,5,6,0:0:0:0:
437,84,6405,1,2,0:0:0:0:
406,69,6480,1,2,0:0:0:0:
381,90,6555,1,2,0:0:0:0:
350,75,6630,1,2,0:0:0:0:
321,92,6705,1,2,0:0:0:0:
290,81,6780,2,2,P|258:76|227:83,1,55
56,48,6930,5,6,0:0:0:0:
13,77,7005,1,2,0:0:0:0:
0,123,7080,1,2,0:0:0:0:
15,161,7155,1,2,0:0:0:0:
41,184,7230,1,2,0:0:0:0:
65,186,7305,1,2,0:0:0:0:
80,180,7380,2,2,P|107:162|144:158,1,55
290,81,7530,5,6,0:0:0:0:
322,95,7605,1,2,0:0:0:0:
345,119,7680,1,2,0:0:0:0:
361,149,7755,1,2,0:0:0:0:
364,182,7830,1,2,0:0:0:0:
357,216,7905,1,2,0:0:0:0:
339,244,7980,2,2,L|400:256,1,55
255,318,8130,5,6,0:0:0:0:
224,298,8205,1,2,0:0:0:0:
188,291,8280,1,2,0:0:0:0:
152,298,8355,1,2,0:0:0:0:
119,317,8430,1,2,0:0:0:0:
83,324,8505,1,2,0:0:0:0:
47,317,8580,2,2,L|37:256,1,55
117,34,8730,5,6,0:0:0:0:
114,52,8805,1,2,0:0:0:0:
112,70,8880,1,2,0:0:0:0:
109,88,8955,1,2,0:0:0:0:
107,106,9030,1,2,0:0:0:0:
105,124,9105,1,2,0:0:0:0:
100,144,9180,2,2,L|164:160,1,55,2|2,0:0|0:0,0:0:0:0:
356,164,9330,5,8,0:0:0:0:
315,170,9405,1,8,0:0:0:0:
284,196,9480,1,8,0:0:0:0:
269,234,9555,1,8,0:0:0:0:
276,274,9630,1,8,0:0:0:0:
468,336,9780,1,8,0:0:0:0:
463,317,9855,1,8,0:0:0:0:
229,342,10005,1,8,0:0:0:0:
224,361,10080,1,8,0:0:0:0:
383,132,10230,5,8,0:0:0:0:
350,98,10305,1,8,0:0:0:0:
305,90,10380,1,8,0:0:0:0:
263,109,10455,1,8,0:0:0:0:
237,146,10530,1,8,0:0:0:0:
195,165,10605,1,8,0:0:0:0:
150,157,10680,1,8,0:0:0:0:
117,123,10755,1,8,0:0:0:0:
110,75,10830,1,8,0:0:0:0:
191,0,10980,5,8,0:0:0:0:
186,19,11055,1,8,0:0:0:0:
46,170,11205,1,8,0:0:0:0:
41,151,11280,1,8,0:0:0:0:
237,146,11430,1,8,0:0:0:0:
243,186,11505,1,8,0:0:0:0:
229,224,11580,1,8,0:0:0:0:
197,249,11655,1,8,0:0:0:0:
157,256,11730,5,12,0:0:0:0:
344,328,11880,1,8,0:0:0:0:
256,120,12030,1,8,0:0:0:0:
61,314,12180,2,0,B|202:342|124:257|265:258,1,220,8|8,0:0|0:0,0:0:0:0:
364,340,12630,1,8,0:0:0:0:
271,147,12780,1,8,0:0:0:0:
416,268,12930,5,12,0:0:0:0:
472,36,13080,1,8,0:0:0:0:
321,239,13230,1,8,0:0:0:0:
186,0,13380,2,0,B|205:83|205:83|181:125|181:125|199:214,1,220,8|8,0:0|0:0,0:0:0:0:
355,111,13830,1,10,0:0:0:0:
355,111,13905,1,2,0:0:0:0:
355,111,13980,1,10,0:0:0:0:
108,64,14130,5,12,0:0:0:0:
216,320,14280,1,8,0:0:0:0:
336,24,14430,1,8,0:0:0:0:
54,172,14580,2,0,B|38:208|38:208|100:261|170:240|210:192,1,220,8|8,0:0|0:0,0:0:0:0:
124,56,15030,1,8,0:0:0:0:
80,357,15180,1,8,0:0:0:0:
356,204,15330,5,12,0:0:0:0:
41,90,15480,1,8,0:0:0:0:
160,384,15630,1,8,0:0:0:0:
450,153,15780,2,0,B|424:108|424:108|361:109|361:109|350:116|350:116|338:111|338:111|252:116,1,220,8|8,0:0|0:0,0:0:0:0:
104,320,16230,1,8,0:0:0:0:
214,49,16380,1,8,0:0:0:0:
289,262,16530,6,0,L|225:274,1,55,12|0,0:0|0:0,0:0:0:0:
425,175,16680,2,0,L|489:187,1,55,8|0,0:0|0:0,0:0:0:0:
200,63,16830,2,0,L|136:75,1,55,8|0,0:0|0:0,0:0:0:0:
383,69,16980,2,0,B|387:114|387:114|373:180|373:180|398:246|398:246|403:293,1,220,8|8,0:0|0:0,0:0:0:0:
96,348,17430,1,10,0:0:0:0:
96,348,17505,1,2,0:0:0:0:
96,348,17580,1,10,0:0:0:0:
96,348,17655,1,2,0:0:0:0:
96,348,17730,6,0,P|113:310|129:294,1,55,12|0,0:0|0:0,0:0:0:0:
338,245,17880,2,0,P|321:207|305:191,1,55,8|0,0:0|0:0,0:0:0:0:
18,122,18030,2,0,P|35:84|51:68,1,55,8|0,0:0|0:0,0:0:0:0:
383,76,18180,2,0,B|355:60|319:56|319:56|291:92|291:92|248:51|187:68,1,220,8|8,0:0|0:0,0:0:0:0:
117,337,18630,1,8,0:0:0:0:
223,151,18780,1,8,0:0:0:0:
117,337,18930,6,0,L|104:224,1,110,12|0,0:0|0:0,0:0:0:0:
137,154,19155,2,0,L|149:263,1,110,8|0,0:0|0:0,0:0:0:0:
164,272,19380,2,0,L|157:210,1,55,8|0,0:0|0:0,0:0:0:0:
61,124,19530,6,0,B|81:79|127:73|127:73|126:28|93:5,2,165,8|8|8,0:0|0:0|0:0,0:0:0:0:
9,241,20130,2,0,B|133:248|31:361|193:359,1,220,12|8,0:0|0:0,0:0:0:0:
364,226,20580,2,0,B|332:182|272:198|241:278|340:346,1,220,12|8,0:0|0:0,0:0:0:0:
428,176,21030,1,10,0:0:0:0:
422,161,21105,1,2,0:0:0:0:
409,152,21180,1,10,0:0:0:0:
387,24,21330,6,0,P|408:51|415:79,1,55,12|0,0:0|0:0,0:0:0:0:
364,226,21480,1,8,0:0:0:0:
207,95,21630,1,8,0:0:0:0:
485,152,21780,2,0,B|445:128|445:128|405:156|405:156|370:131|312:141|289:194,1,220,8|8,0:0|0:0,0:0:0:0:
72,256,22230,1,10,0:0:0:0:
96,272,22305,1,10,0:0:0:0:
124,272,22380,1,10,0:0:0:0:
320,320,22530,6,0,L|260:332,1,55,12|0,0:0|0:0,0:0:0:0:
424,368,22680,1,8,0:0:0:0:
288,200,22830,1,8,0:0:0:0:
429,3,22980,2,0,B|449:50|449:50|440:74|440:74|460:102|460:102|444:131|444:131|456:153|456:153|443:201,1,220,8|8,0:0|0:0,0:0:0:0:
196,104,23430,1,10,0:0:0:0:
232,99,23505,1,2,0:0:0:0:
264,123,23580,1,10,0:0:0:0:
144,312,23730,6,0,P|130:275|132:249,1,55,12|0,0:0|0:0,0:0:0:0:
381,260,23880,2,0,P|379:287|368:312,1,55,8|0,0:0|0:0,0:0:0:0:
90,182,24030,2,0,P|76:145|78:119,1,55,8|0,0:0|0:0,0:0:0:0:
404,116,24180,2,0,B|266:183|316:60|168:128,1,220,8|8,0:0|0:0,0:0:0:0:
367,312,24630,1,10,0:0:0:0:
381,260,24705,1,2,0:0:0:0:
378,207,24780,1,10,0:0:0:0:
172,31,24930,6,0,P|146:40|126:58,1,55,12|0,0:0|0:0,0:0:0:0:
484,96,25080,2,0,P|502:75|511:49,1,55,8|0,0:0|0:0,0:0:0:0:
268,272,25230,2,0,P|258:297|259:324,1,55,8|0,0:0|0:0,0:0:0:0:
404,116,25380,2,0,B|232:120|232:120|200:164,1,220,8|8,0:0|0:0,0:0:0:0:
124,308,25830,1,10,0:0:0:0:
105,292,25905,1,2,0:0:0:0:
81,288,25980,1,10,0:0:0:0:
320,352,26130,6,0,L|380:342,1,55,12|0,0:0|0:0,0:0:0:0:
252,188,26280,2,0,L|312:183,1,55,8|0,0:0|0:0,0:0:0:0:
212,20,26430,2,0,L|272:20,1,55,8|0,0:0|0:0,0:0:0:0:
366,146,26580,1,8,0:0:0:0:
204,312,26730,1,0,0:0:0:0:
111,98,26880,1,8,0:0:0:0:
371,243,27030,1,10,0:0:0:0:
332,248,27105,1,2,0:0:0:0:
304,280,27180,1,10,0:0:0:0:
300,320,27255,1,2,0:0:0:0:
324,356,27330,6,0,P|288:364|271:379,1,55,12|0,0:0|0:0,0:0:0:0:
381,161,27480,2,0,P|417:169|434:184,1,55,8|0,0:0|0:0,0:0:0:0:
160,78,27630,2,0,P|124:86|107:101,1,55,8|0,0:0|0:0,0:0:0:0:
68,276,27780,2,0,B|104:280|129:258|129:258|101:171|17:163,1,220,8|8,0:0|0:0,0:0:0:0:
160,78,28230,1,10,0:0:0:0:
176,95,28305,1,2,0:0:0:0:
201,105,28380,1,10,0:0:0:0:
396,68,28530,6,0,P|324:67|300:192,1,220,12|0,0:0|0:0,0:0:0:0:
331,317,28980,1,10,0:0:0:0:
331,317,29055,1,2,0:0:0:0:
331,317,29130,2,0,L|217:334,1,110,12|0,0:0|0:0,0:0:0:0:
210,305,29355,2,0,L|84:294,1,110,12|0,0:0|0:0,0:0:0:0:
77,310,29580,1,12,0:0:0:0:
384,44,29730,6,0,B|437:77|437:77|412:233,1,220,12|8,0:0|0:0,0:0:0:0:
168,384,30180,2,0,B|161:323|161:323|168:304|168:304|156:290|156:290|140:164,1,220,12|8,0:0|0:0,0:0:0:0:
240,0,30630,2,0,L|216:112,1,110,8|8,0:0|0:0,0:0:0:0:
58,213,30930,5,12,0:0:0:0:
58,213,31230,1,8,0:0:0:0:
58,213,31530,1,8,0:0:0:0:
144,204,31680,1,8,0:0:0:0:
200,272,31830,1,8,0:0:0:0:
172,356,31980,1,8,0:0:0:0:
404,320,32130,5,12,0:0:0:0:
404,320,32430,1,8,0:0:0:0:
404,320,32730,1,8,0:0:0:0:
352,248,32880,1,8,0:0:0:0:
400,172,33030,1,8,0:0:0:0:
352,100,33180,1,8,0:0:0:0:
256,340,33330,5,12,0:0:0:0:
256,340,33630,1,8,0:0:0:0:
256,340,33930,1,8,0:0:0:0:
216,260,34080,1,8,0:0:0:0:
128,248,34230,1,8,0:0:0:0:
108,164,34380,1,8,0:0:0:0:
436,100,34530,5,12,0:0:0:0:
436,100,34830,1,8,0:0:0:0:
436,100,34980,2,0,L|272:80,1,165.000006294251,12|8,0:0|0:0,0:0:0:0:
412,4,35430,1,8,0:0:0:0:
465,196,35580,1,8,0:0:0:0:
248,280,35730,5,12,0:0:0:0:
248,280,36030,1,8,0:0:0:0:
248,280,36330,1,8,0:0:0:0:
328,296,36480,1,8,0:0:0:0:
347,212,36630,1,8,0:0:0:0:
267,196,36780,1,8,0:0:0:0:
512,384,36930,5,12,0:0:0:0:
512,384,37230,1,8,0:0:0:0:
512,384,37530,1,8,0:0:0:0:
496,296,37680,1,8,0:0:0:0:
444,224,37830,1,8,0:0:0:0:
368,180,37980,1,8,0:0:0:0:
84,192,38130,5,12,0:0:0:0:
84,192,38430,1,8,0:0:0:0:
84,192,38730,1,8,0:0:0:0:
156,244,38880,1,8,0:0:0:0:
244,240,39030,1,8,0:0:0:0:
300,172,39180,1,8,0:0:0:0:
228,16,39330,5,14,0:0:0:0:
195,14,39405,1,2,0:0:0:0:
168,31,39480,1,2,0:0:0:0:
156,62,39555,1,2,0:0:0:0:
165,93,39630,1,10,0:0:0:0:
190,113,39705,1,2,0:0:0:0:
148,124,39780,5,14,0:0:0:0:
116,152,39855,1,2,0:0:0:0:
104,196,39930,1,2,0:0:0:0:
116,240,40005,1,2,0:0:0:0:
148,272,40080,1,2,0:0:0:0:
192,280,40155,1,2,0:0:0:0:
232,264,40230,1,2,0:0:0:0:
256,228,40305,1,2,0:0:0:0:
296,208,40380,1,2,0:0:0:0:
340,212,40455,1,2,0:0:0:0:
304,236,40530,5,14,0:0:0:0:
296,280,40605,1,2,0:0:0:0:
312,320,40680,1,2,0:0:0:0:
288,356,40755,1,2,0:0:0:0:
248,368,40830,1,10,0:0:0:0:
212,344,40905,1,2,0:0:0:0:
204,300,40980,5,14,0:0:0:0:
225,302,41055,1,2,0:0:0:0:
247,304,41130,1,2,0:0:0:0:
269,306,41205,1,2,0:0:0:0:
291,309,41280,1,2,0:0:0:0:
313,311,41355,1,2,0:0:0:0:
335,313,41430,1,2,0:0:0:0:
357,315,41505,1,2,0:0:0:0:
379,318,41580,1,2,0:0:0:0:
400,320,41655,1,2,0:0:0:0:
424,320,41730,6,0,L|416:224,1,82.5000031471254,12|0,0:0|0:0,0:0:0:0:
254,33,41880,2,0,L|248:116,1,82.5000031471254,8|0,0:0|0:0,0:0:0:0:
88,320,42030,2,0,L|96:224,1,82.5000031471254,8|0,0:0|0:0,0:0:0:0:
117,43,42180,2,0,B|153:19|153:19|173:151|173:151|45:126|45:126|64:103,1,330.000012588501,8|8,0:0|0:0,0:0:0:0:
254,33,42630,1,10,0:0:0:0:
290,18,42705,1,2,0:0:0:0:
331,23,42780,1,10,0:0:0:0:
363,48,42855,1,2,0:0:0:0:
379,85,42930,6,0,P|360:144|420:224,1,165.000006294251,12|0,0:0|0:0,0:0:0:0:
461,23,43230,1,8,0:0:0:0:
191,120,43380,1,8,0:0:0:0:
370,282,43530,5,14,0:0:0:0:
386,275,43605,1,2,0:0:0:0:
392,246,43680,1,10,0:0:0:0:
376,213,43755,1,2,0:0:0:0:
339,189,43830,1,10,0:0:0:0:
291,194,43905,1,2,0:0:0:0:
259,241,43980,1,10,0:0:0:0:
280,312,44055,1,2,0:0:0:0:
353,350,44130,6,0,P|398:358|435:342,1,82.5000031471254,12|0,0:0|0:0,0:0:0:0:
326,121,44280,2,0,P|281:113|244:129,1,82.5000031471254,8|0,0:0|0:0,0:0:0:0:
364,363,44430,2,0,P|409:371|446:355,1,82.5000031471254,8|0,0:0|0:0,0:0:0:0:
248,44,44580,2,0,B|289:25|338:43|338:43|297:10|227:-7|201:80|110:7,1,330.000012588501,8|8,0:0|0:0,0:0:0:0:
80,184,45030,1,10,0:0:0:0:
116,170,45105,1,2,0:0:0:0:
120,131,45180,1,10,0:0:0:0:
86,111,45255,1,2,0:0:0:0:
54,133,45330,6,0,P|44:96|15:62,1,82.5000031471254,12|0,0:0|0:0,0:0:0:0:
248,44,45480,2,0,P|221:75|210:114,1,82.5000031471254,0|0,0:0|0:0,0:0:0:0:
161,335,45630,2,0,P|168:297|151:249,1,82.5000031471254,8|0,0:0|0:0,0:0:0:0:
339,3,45780,2,0,B|363:71|315:123|315:123|351:147|351:147|306:221|349:307,1,330.000012588501,8|8,0:0|0:0,0:0:0:0:
497,348,46230,1,10,0:0:0:0:
499,332,46305,1,2,0:0:0:0:
496,302,46380,1,10,0:0:0:0:
476,268,46455,1,2,0:0:0:0:
434,235,46530,6,0,P|382:219|286:271,1,165.000006294251,12|0,0:0|0:0,0:0:0:0:
424,380,46830,1,8,0:0:0:0:
490,152,46980,2,0,B|460:57|380:33|380:33|317:98|334:182,1,330.000012588501,8|8,0:0|0:0,0:0:0:0:
96,332,47430,1,10,0:0:0:0:
96,332,47505,1,2,0:0:0:0:
96,332,47580,1,10,0:0:0:0:
96,332,47655,1,2,0:0:0:0:
96,332,47730,6,0,B|171:324|171:324|181:328|181:328|188:321|188:321|272:312,1,165.000006294251,12|0,0:0|0:0,0:0:0:0:
92,136,48030,1,8,0:0:0:0:
331,270,48180,2,0,B|313:123|252:160|228:236|278:257|349:219|360:140|327:66,1,330.000012588501,8|8,0:0|0:0,0:0:0:0:
163,0,48630,1,10,0:0:0:0:
163,27,48705,1,2,0:0:0:0:
173,53,48780,1,10,0:0:0:0:
193,73,48855,1,2,0:0:0:0:
216,84,48930,6,0,L|271:79,3,55,12|0|0|0,0:0|0:0|0:0|0:0,0:0:0:0:
112,152,49230,2,0,L|58:146,3,55,12|0|0|0,0:0|0:0|0:0|0:0,0:0:0:0:
216,238,49530,2,0,L|271:230,3,55,12|0|0|0,0:0|0:0|0:0|0:0,0:0:0:0:
112,306,49830,2,0,L|47:298,3,55,12|0|0|0,0:0|0:0|0:0|0:0,0:0:0:0:
234,372,50130,5,12,0:0:0:0:
261,375,50205,1,0,0:0:0:0:
287,369,50280,1,0,0:0:0:0:
311,355,50355,1,0,0:0:0:0:
372,315,50430,5,12,0:0:0:0:
399,311,50505,1,0,0:0:0:0:
425,317,50580,1,0,0:0:0:0:
449,331,50655,1,0,0:0:0:0:
512,376,50730,2,0,L|503:320,3,55,12|0|0|0,0:0|0:0|0:0|0:0,0:0:0:0:
436,224,51030,2,0,L|447:168,3,55,12|0|0|0,0:0|0:0|0:0|0:0,0:0:0:0:
392,75,51330,5,12,0:0:0:0:
334,35,51405,1,8,0:0:0:0:
265,35,51480,1,8,0:0:0:0:
207,75,51555,1,8,0:0:0:0:
183,140,51630,1,8,0:0:0:0:
201,208,51705,1,8,0:0:0:0:
236,244,51780,1,8,0:0:0:0:
280,252,51855,1,8,0:0:0:0:
320,240,51930,1,2,0:0:0:0:
336,220,52005,1,2,0:0:0:0:
336,196,52080,1,2,0:0:0:0:
331,180,52155,1,2,0:0:0:0:
322,171,52230,1,2,0:0:0:0:
314,168,52305,1,2,0:0:0:0:
303,168,52380,1,2,0:0:0:0:
292,172,52455,1,2,0:0:0:0:
287,180,52530,5,12,0:0:0:0:
229,219,52605,1,8,0:0:0:0:
160,219,52680,1,8,0:0:0:0:
102,179,52755,1,8,0:0:0:0:
78,114,52830,1,8,0:0:0:0:
96,46,52905,1,8,0:0:0:0:
131,11,52980,1,8,0:0:0:0:
175,3,53055,1,8,0:0:0:0:
215,15,53130,1,2,0:0:0:0:
231,35,53205,1,2,0:0:0:0:
231,59,53280,1,2,0:0:0:0:
226,75,53355,1,2,0:0:0:0:
217,84,53430,1,2,0:0:0:0:
209,87,53505,1,2,0:0:0:0:
198,87,53580,1,2,0:0:0:0:
187,83,53655,1,2,0:0:0:0:
181,76,53730,5,12,0:0:0:0:
238,36,53805,1,8,0:0:0:0:
308,37,53880,1,8,0:0:0:0:
365,76,53955,1,8,0:0:0:0:
389,142,54030,1,8,0:0:0:0:
371,209,54105,1,8,0:0:0:0:
337,245,54180,1,8,0:0:0:0:
293,253,54255,1,8,0:0:0:0:
253,241,54330,1,2,0:0:0:0:
237,221,54405,1,2,0:0:0:0:
237,197,54480,1,2,0:0:0:0:
242,181,54555,1,2,0:0:0:0:
251,172,54630,1,2,0:0:0:0:
259,169,54705,1,2,0:0:0:0:
270,169,54780,1,2,0:0:0:0:
281,173,54855,1,2,0:0:0:0:
288,179,54930,5,12,0:0:0:0:
292,108,55005,1,8,0:0:0:0:
257,48,55080,1,8,0:0:0:0:
194,18,55155,1,8,0:0:0:0:
126,30,55230,1,8,0:0:0:0:
76,79,55305,1,8,0:0:0:0:
67,125,55380,1,8,0:0:0:0:
70,165,55455,1,8,0:0:0:0:
86,197,55530,1,2,0:0:0:0:
107,214,55605,1,2,0:0:0:0:
127,222,55680,1,2,0:0:0:0:
139,224,55755,1,2,0:0:0:0:
148,223,55830,1,2,0:0:0:0:
157,219,55905,1,2,0:0:0:0:
163,211,55980,1,2,0:0:0:0:
164,201,56055,1,2,0:0:0:0:
162,192,56130,5,12,0:0:0:0:
219,231,56205,1,8,0:0:0:0:
288,231,56280,1,8,0:0:0:0:
346,191,56355,1,8,0:0:0:0:
370,126,56430,1,8,0:0:0:0:
352,58,56505,1,8,0:0:0:0:
291,23,56580,5,6,0:0:0:0:
356,0,56655,1,2,0:0:0:0:
423,17,56730,1,2,0:0:0:0:
467,70,56805,1,2,0:0:0:0:
473,139,56880,1,2,0:0:0:0:
440,200,56955,1,2,0:0:0:0:
400,219,57030,1,2,0:0:0:0:
367,220,57105,1,2,0:0:0:0:
344,212,57180,1,2,0:0:0:0:
331,199,57255,1,2,0:0:0:0:
327,182,57330,5,12,0:0:0:0:
270,143,57405,1,8,0:0:0:0:
201,143,57480,1,8,0:0:0:0:
143,183,57555,1,8,0:0:0:0:
119,248,57630,1,8,0:0:0:0:
137,316,57705,1,8,0:0:0:0:
198,351,57780,5,6,0:0:0:0:
133,374,57855,1,2,0:0:0:0:
66,357,57930,1,2,0:0:0:0:
22,304,58005,1,2,0:0:0:0:
16,235,58080,1,2,0:0:0:0:
49,174,58155,1,2,0:0:0:0:
89,155,58230,1,2,0:0:0:0:
122,154,58305,1,2,0:0:0:0:
145,162,58380,1,2,0:0:0:0:
158,175,58455,1,2,0:0:0:0:
168,188,58530,6,0,L|256:172,1,82.5000031471254,8|0,0:0|0:0,0:0:0:0:
178,198,58680,2,0,L|266:182,1,82.5000031471254
303,15,58830,2,0,L|318:97,1,82.5000031471254,8|0,0:0|0:0,0:0:0:0:
293,25,58980,2,0,L|308:107,1,82.5000031471254,0|0,0:0|0:0,0:0:0:0:
482,150,59130,2,0,L|394:166,1,82.5000031471254,8|0,0:0|0:0,0:0:0:0:
472,140,59280,2,0,L|384:156,1,82.5000031471254,0|0,0:0|0:0,0:0:0:0:
346,322,59430,2,0,L|331:240,1,82.5000031471254,8|0,0:0|0:0,0:0:0:0:
356,312,59580,2,0,L|341:230,1,82.5000031471254,0|0,0:0|0:0,0:0:0:0:
140,224,59730,6,0,B|120:217|101:232|101:232|129:240|142:219,1,82.5000031471254,8|0,0:0|0:0,0:0:0:0:
392,136,59880,1,0,0:0:0:0:
96,116,60030,2,0,B|76:123|57:108|57:108|85:100|98:121,1,82.5000031471254,8|0,0:0|0:0,0:0:0:0:
492,248,60180,1,0,0:0:0:0:
56,308,60330,2,0,B|36:301|17:316|17:316|45:324|58:303,1,82.5000031471254,8|0,0:0|0:0,0:0:0:0:
512,56,60480,1,0,0:0:0:0:
184,232,60630,1,10,0:0:0:0:
174,250,60705,1,2,0:0:0:0:
171,270,60780,1,2,0:0:0:0:
173,291,60855,1,2,0:0:0:0:
180,312,60930,6,0,P|236:316|276:362,1,110,12|0,0:0|0:0,0:0:0:0:
432,176,61230,2,0,P|376:180|336:226,1,110,8|0,0:0|0:0,0:0:0:0:
460,340,61530,1,8,0:0:0:0:
508,156,61680,1,8,0:0:0:0:
289,124,61830,1,8,0:0:0:0:
374,331,61980,1,8,0:0:0:0:
447,97,62130,6,0,L|435:41,3,55,12|0|0|0,0:0|0:0|0:0|0:0,0:0:0:0:
310,118,62430,2,0,L|298:171,3,55,8|0|0|0,0:0|0:0|0:0|0:0,0:0:0:0:
288,44,62730,2,0,B|232:25|232:25|181:46,1,110,8|8,0:0|0:0,0:0:0:0:
246,236,63030,2,0,B|302:255|302:255|353:234,1,110,8|8,0:0|0:0,0:0:0:0:
141,172,63330,6,0,P|117:224|126:279,1,110,12|0,0:0|0:0,0:0:0:0:
332,338,63630,2,0,P|356:286|347:231,1,110,8|0,0:0|0:0,0:0:0:0:
212,140,63930,1,8,0:0:0:0:
412,72,64080,1,8,0:0:0:0:
291,170,64230,1,8,0:0:0:0:
509,237,64380,1,8,0:0:0:0:
218,61,64530,5,14,0:0:0:0:
197,61,64605,1,2,0:0:0:0:
177,66,64680,1,2,0:0:0:0:
160,77,64755,1,2,0:0:0:0:
145,92,64830,1,10,0:0:0:0:
136,110,64905,1,2,0:0:0:0:
131,130,64980,1,2,0:0:0:0:
132,151,65055,1,2,0:0:0:0:
140,172,65130,2,0,L|76:184,3,55,8|0|0|0,0:0|0:0|0:0|0:0,0:0:0:0:
264,260,65430,2,0,L|328:272,3,55,8|0|0|0,0:0|0:0|0:0|0:0,0:0:0:0:
184,282,65730,6,0,P|160:334|172:389,1,110,12|0,0:0|0:0,0:0:0:0:
380,220,66030,2,0,P|404:168|392:113,1,110,8|0,0:0|0:0,0:0:0:0:
204,208,66330,1,8,0:0:0:0:
392,300,66480,1,8,0:0:0:0:
316,100,66630,1,8,0:0:0:0:
272,380,66780,1,8,0:0:0:0:
394,117,66930,6,0,L|382:1,1,110,12|0,0:0|0:0,0:0:0:0:
204,208,67230,1,8,0:0:0:0:
432,376,67380,1,2,0:0:0:0:
434,348,67455,1,2,0:0:0:0:
431,321,67530,1,10,0:0:0:0:
421,295,67605,1,2,0:0:0:0:
406,273,67680,1,10,0:0:0:0:
386,254,67755,1,2,0:0:0:0:
362,241,67830,2,0,P|372:214|395:193,3,55,8|0|8|0,0:0|0:0|0:0|0:0,0:0:0:0:
257,273,68130,6,0,P|217:293|150:275,1,110,12|0,0:0|0:0,0:0:0:0:
149,146,68430,2,0,P|189:126|256:144,1,110,8|0,0:0|0:0,0:0:0:0:
320,320,68730,1,8,0:0:0:0:
104,360,68880,1,0,0:0:0:0:
149,146,69030,1,8,0:0:0:0:
264,380,69180,1,8,0:0:0:0:
85,196,69330,6,0,P|65:144|89:89,1,110,12|0,0:0|0:0,0:0:0:0:
427,188,69630,2,0,P|447:240|423:295,1,110,8|0,0:0|0:0,0:0:0:0:
149,146,69930,1,8,0:0:0:0:
380,44,70080,1,0,0:0:0:0:
329,299,70230,1,8,0:0:0:0:
176,72,70380,1,0,0:0:0:0:
442,172,70530,6,8,L|506:184,1,55,8|8,0:0|0:0,0:0:0:0:
201,286,70680,2,8,L|137:298,1,55,8|8,0:0|0:0,0:0:0:0:
417,269,70830,2,8,L|453:322,1,55,8|8,0:0|0:0,0:0:0:0:
165,179,70980,2,8,L|111:142,1,55,8|8,0:0|0:0,0:0:0:0:
329,299,71130,5,8,0:0:0:0:
329,305,71205,1,8,0:0:0:0:
330,312,71280,1,8,0:0:0:0:
331,319,71355,1,8,0:0:0:0:
332,326,71430,1,8,0:0:0:0:
333,333,71505,1,8,0:0:0:0:
334,339,71580,1,8,0:0:0:0:
335,346,71655,1,8,0:0:0:0:
337,354,71730,5,6,0:0:0:0:
286,363,71805,1,2,0:0:0:0:
244,340,71880,1,2,0:0:0:0:
228,302,71955,1,2,0:0:0:0:
230,268,72030,1,2,0:0:0:0:
246,249,72105,1,2,0:0:0:0:
260,243,72180,2,2,L|324:231,1,55
367,156,72330,5,6,0:0:0:0:
335,138,72405,1,2,0:0:0:0:
319,106,72480,1,2,0:0:0:0:
325,71,72555,1,2,0:0:0:0:
351,46,72630,1,2,0:0:0:0:
387,41,72705,1,2,0:0:0:0:
419,58,72780,2,2,L|480:44,1,55
228,52,72930,5,6,0:0:0:0:
200,49,73005,1,2,0:0:0:0:
173,47,73080,1,2,0:0:0:0:
145,44,73155,1,2,0:0:0:0:
118,42,73230,1,2,0:0:0:0:
91,39,73305,1,2,0:0:0:0:
63,37,73380,2,2,B|32:32|32:32|16:12,1,55
312,0,73530,5,6,0:0:0:0:
342,42,73605,1,2,0:0:0:0:
353,80,73680,1,2,0:0:0:0:
356,114,73755,1,2,0:0:0:0:
353,135,73830,1,2,0:0:0:0:
351,151,73905,1,2,0:0:0:0:
346,162,73980,2,2,P|336:192|340:224,1,55
440,320,74130,5,6,0:0:0:0:
407,304,74205,1,2,0:0:0:0:
370,304,74280,1,2,0:0:0:0:
338,320,74355,1,2,0:0:0:0:
317,349,74430,1,2,0:0:0:0:
285,365,74505,1,2,0:0:0:0:
246,362,74580,2,2,P|216:360|186:347,1,55
135,242,74730,5,6,0:0:0:0:
144,207,74805,1,2,0:0:0:0:
172,184,74880,1,2,0:0:0:0:
208,183,74955,1,2,0:0:0:0:
238,203,75030,1,2,0:0:0:0:
250,237,75105,1,2,0:0:0:0:
239,271,75180,2,2,P|282:274|305:289,1,55
408,286,75330,5,6,0:0:0:0:
413,262,75405,1,2,0:0:0:0:
401,240,75480,1,2,0:0:0:0:
407,216,75555,1,2,0:0:0:0:
395,194,75630,1,2,0:0:0:0:
401,170,75705,1,2,0:0:0:0:
388,148,75780,2,2,P|395:120|417:103,1,55
301,44,75930,5,6,0:0:0:0:
306,51,76005,1,2,0:0:0:0:
314,55,76080,1,2,0:0:0:0:
323,55,76155,1,2,0:0:0:0:
330,50,76230,1,2,0:0:0:0:
335,42,76305,1,2,0:0:0:0:
336,32,76380,2,2,L|396:16,1,55
182,51,76530,5,6,0:0:0:0:
131,42,76605,1,2,0:0:0:0:
89,65,76680,1,2,0:0:0:0:
73,103,76755,1,2,0:0:0:0:
75,137,76830,1,2,0:0:0:0:
91,156,76905,1,2,0:0:0:0:
105,162,76980,2,2,L|169:174,1,55
332,186,77130,5,6,0:0:0:0:
383,177,77205,1,2,0:0:0:0:
425,200,77280,1,2,0:0:0:0:
441,238,77355,1,2,0:0:0:0:
439,272,77430,1,2,0:0:0:0:
423,291,77505,1,2,0:0:0:0:
409,297,77580,2,2,L|345:309,1,55
65,260,77730,5,6,0:0:0:0:
92,255,77805,1,2,0:0:0:0:
118,260,77880,1,2,0:0:0:0:
142,274,77955,1,2,0:0:0:0:
160,295,78030,1,2,0:0:0:0:
170,320,78105,1,2,0:0:0:0:
172,348,78180,2,2,L|240:336,1,55
492,269,78330,5,6,0:0:0:0:
473,237,78405,1,2,0:0:0:0:
443,216,78480,1,2,0:0:0:0:
407,209,78555,1,2,0:0:0:0:
372,217,78630,1,2,0:0:0:0:
342,238,78705,1,2,0:0:0:0:
324,269,78780,2,2,P|304:240|281:228,1,55
114,118,78930,5,6,0:0:0:0:
131,97,79005,1,2,0:0:0:0:
148,75,79080,1,2,0:0:0:0:
165,54,79155,1,2,0:0:0:0:
188,67,79230,1,2,0:0:0:0:
211,82,79305,1,2,0:0:0:0:
234,97,79380,2,2,L|307:69,1,55
452,0,79530,5,6,0:0:0:0:
446,45,79605,1,2,0:0:0:0:
441,91,79680,1,2,0:0:0:0:
436,136,79755,1,2,0:0:0:0:
431,182,79830,1,2,0:0:0:0:
426,227,79905,1,2,0:0:0:0:
421,273,79980,2,2,L|472:316,1,55,2|2,0:0|0:0,0:0:0:0:
234,97,80130,5,8,0:0:0:0:
182,104,80205,1,8,0:0:0:0:
143,137,80280,1,8,0:0:0:0:
124,184,80355,1,8,0:0:0:0:
133,235,80430,1,8,0:0:0:0:
332,256,80580,1,8,0:0:0:0:
322,218,80655,1,8,0:0:0:0:
233,322,80805,1,8,0:0:0:0:
224,361,80880,1,8,0:0:0:0:
442,129,81030,5,8,0:0:0:0:
405,125,81105,1,8,0:0:0:0:
368,122,81180,1,8,0:0:0:0:
332,119,81255,1,8,0:0:0:0:
304,89,81330,1,8,0:0:0:0:
267,85,81405,1,8,0:0:0:0:
230,82,81480,1,8,0:0:0:0:
194,79,81555,1,8,0:0:0:0:
156,96,81630,1,8,0:0:0:0:
336,256,81780,5,8,0:0:0:0:
347,297,81855,1,8,0:0:0:0:
83,209,82005,1,8,0:0:0:0:
94,168,82080,1,8,0:0:0:0:
430,83,82230,5,8,0:0:0:0:
482,99,82305,1,8,0:0:0:0:
482,154,82380,1,8,0:0:0:0:
430,171,82455,1,8,0:0:0:0:
397,127,82530,5,12,0:0:0:0:
257,94,82680,1,8,0:0:0:0:
298,230,82830,1,8,0:0:0:0:
334,53,82980,2,0,P|270:9|190:39,1,153.999995300293,8|8,0:0|0:0,0:0:0:0:
356,290,83430,2,0,P|378:249|373:200,1,76.9999976501466,8|8,0:0|0:0,0:0:0:0:
146,206,83730,5,12,0:0:0:0:
206,338,83880,1,8,0:0:0:0:
298,230,84030,1,8,0:0:0:0:
190,124,84180,2,0,B|132:117|132:117|101:133|101:133|39:125,1,153.999995300293,8|8,0:0|0:0,0:0:0:0:
256,0,84630,2,0,L|268:88,1,76.9999976501466,8|8,0:0|0:0,0:0:0:0:
319,272,84930,5,12,0:0:0:0:
497,189,85080,1,8,0:0:0:0:
351,64,85230,1,8,0:0:0:0:
244,233,85380,2,0,P|236:285|329:353,1,153.999995300293,8|8,0:0|0:0,0:0:0:0:
497,189,85830,2,0,L|484:96,1,76.9999976501466,8|8,0:0|0:0,0:0:0:0:
257,70,86130,5,12,0:0:0:0:
203,334,86280,1,8,0:0:0:0:
434,247,86430,1,8,0:0:0:0:
257,70,86580,2,0,B|169:53|207:122|87:91,1,153.999995300293,8|8,0:0|0:0,0:0:0:0:
305,2,87030,2,0,P|330:31|339:78,1,76.9999976501466,8|8,0:0|0:0,0:0:0:0:
208,304,87330,5,12,0:0:0:0:
352,288,87480,1,8,0:0:0:0:
208,304,87630,1,8,0:0:0:0:
352,288,87780,2,0,B|462:304|462:304|481:348,1,153.999995300293,8|8,0:0|0:0,0:0:0:0:
512,183,88230,2,0,L|420:195,1,76.9999976501466,8|8,0:0|0:0,0:0:0:0:
102,81,88530,5,12,0:0:0:0:
337,108,88680,1,8,0:0:0:0:
102,81,88830,1,8,0:0:0:0:
324,24,88980,2,0,P|388:40|420:124,1,153.999995300293,8|8,0:0|0:0,0:0:0:0:
324,184,89430,2,0,L|336:108,1,76.9999976501466,8|8,0:0|0:0,0:0:0:0:
205,274,89730,6,0,P|157:306|106:303,1,98.9999969787599,12|0,0:0|0:0,0:0:0:0:
73,185,89955,2,0,P|121:153|172:156,1,98.9999969787599,12|8,0:0|0:0,0:0:0:0:
140,229,90180,1,4,0:0:0:0:
205,274,90330,6,0,L|313:290,1,98.9999969787599,12|0,0:0|0:0,0:0:0:0:
406,270,90555,2,0,L|298:254,1,98.9999969787599,12|8,0:0|0:0,0:0:0:0:
302,288,90780,1,4,0:0:0:0:
493,217,90930,6,0,B|452:169|457:121|457:121|431:162|373:173,1,197.99999395752,12|8,0:0|0:0,0:0:0:0:
382,171,91380,1,12,0:0:0:0:
266,2,91530,1,2,0:0:0:0:
284,0,91605,1,2,0:0:0:0:
302,3,91680,1,10,0:0:0:0:
320,9,91755,1,2,0:0:0:0:
336,18,91830,1,10,0:0:0:0:
350,30,91905,1,2,0:0:0:0:
362,44,91980,1,10,0:0:0:0:
370,61,92055,1,2,0:0:0:0:
376,79,92130,5,12,0:0:0:0:
264,324,92280,1,8,0:0:0:0:
184,80,92430,1,8,0:0:0:0:
415,191,92580,2,0,B|476:207|476:207|477:290|477:290|406:325|406:325|362:284,1,285.99998690796,8|8,0:0|0:0,0:0:0:0:
115,125,93030,1,10,0:0:0:0:
99,94,93105,1,2,0:0:0:0:
102,61,93180,1,10,0:0:0:0:
292,192,93330,5,12,0:0:0:0:
43,313,93480,1,8,0:0:0:0:
150,0,93630,1,8,0:0:0:0:
391,198,93780,2,0,B|439:206|475:270|403:325|308:309|290:185,1,285.99998690796,8|8,0:0|0:0,0:0:0:0:
504,1,94230,1,10,0:0:0:0:
489,55,94305,1,2,0:0:0:0:
443,83,94380,1,10,0:0:0:0:
213,27,94530,6,0,P|175:20|146:-5,1,71.4999967269899,12|0,0:0|0:0,0:0:0:0:
443,83,94680,2,0,P|481:90|510:115,1,71.4999967269899,8|0,0:0|0:0,0:0:0:0:
275,258,94830,2,0,P|268:296|243:325,1,71.4999967269899,8|0,0:0|0:0,0:0:0:0:
213,27,94980,2,0,B|176:57|127:66|127:66|255:86|255:86|251:90|251:90|260:87|260:87|311:94,1,285.99998690796,8|8,0:0|0:0,0:0:0:0:
459,227,95430,1,10,0:0:0:0:
451,155,95505,1,2,0:0:0:0:
443,83,95580,1,10,0:0:0:0:
147,149,95730,6,0,L|67:137,1,71.4999967269899,12|0,0:0|0:0,0:0:0:0:
339,314,95880,2,0,L|327:394,1,71.4999967269899,8|0,0:0|0:0,0:0:0:0:
436,72,96030,2,0,L|516:84,1,71.4999967269899,8|0,0:0|0:0,0:0:0:0:
66,64,96180,2,0,B|71:21|71:21|125:12|164:31|209:82|178:151|178:151|135:147,1,285.99998690796,8|8,0:0|0:0,0:0:0:0:
28,248,96630,1,10,0:0:0:0:
59,278,96705,1,2,0:0:0:0:
68,319,96780,1,10,0:0:0:0:
198,345,96930,6,0,P|201:295|223:260,1,71.4999967269899,12|0,0:0|0:0,0:0:0:0:
119,171,97080,2,0,P|156:137|196:128,1,71.4999967269899,8|0,0:0|0:0,0:0:0:0:
232,0,97230,2,0,P|282:3|317:24,1,71.4999967269899,8|0,0:0|0:0,0:0:0:0:
413,206,97380,1,8,0:0:0:0:
137,283,97530,1,0,0:0:0:0:
232,0,97680,1,8,0:0:0:0:
413,206,97830,1,10,0:0:0:0:
437,237,97905,1,2,0:0:0:0:
434,279,97980,1,10,0:0:0:0:
408,310,98055,1,2,0:0:0:0:
366,319,98130,6,0,P|385:350|387:383,1,71.4999967269899,12|0,0:0|0:0,0:0:0:0:
416,128,98280,2,0,P|452:135|476:158,1,71.4999967269899,8|0,0:0|0:0,0:0:0:0:
242,20,98430,2,0,P|273:0|306:0,1,71.4999967269899,8|0,0:0|0:0,0:0:0:0:
23,214,98580,2,0,B|48:248|48:248|115:254|115:254|156:201|156:201|224:207|224:207|245:245,1,285.99998690796,8|8,0:0|0:0,0:0:0:0:
416,128,99030,1,10,0:0:0:0:
388,102,99105,1,2,0:0:0:0:
372,62,99180,1,10,0:0:0:0:
116,153,99330,6,0,B|99:116|115:73|115:73|85:109|70:171|147:194|83:274,1,285.99998690796,12|0,0:0|0:0,0:0:0:0:
356,312,99780,1,8,0:0:0:0:
346,298,99855,1,0,0:0:0:0:
331,289,99930,2,0,P|264:272|192:311,1,142.99999345398,12|0,0:0|0:0,0:0:0:0:
161,373,100155,2,0,P|123:330|155:237,1,142.99999345398,12|0,0:0|0:0,0:0:0:0:
204,208,100380,2,0,L|196:132,1,71.4999967269899,12|0,0:0|0:0,0:0:0:0:
279,94,100530,6,0,B|259:49|308:-6|433:24|366:89|369:149|477:133,1,285.99998690796,12|8,0:0|0:0,0:0:0:0:
164,39,100980,2,0,P|80:67|52:247,1,285.99998690796,8|8,0:0|0:0,0:0:0:0:
200,332,101430,1,10,0:0:0:0:
204,296,101505,1,2,0:0:0:0:
188,264,101580,1,10,0:0:0:0:
64,120,101730,5,12,0:0:0:0:
112,356,101880,1,0,0:0:0:0:
252,76,102030,1,8,0:0:0:0:
200,332,102180,1,0,0:0:0:0:
33,99,102330,1,8,0:0:0:0:
89,375,102480,1,8,0:0:0:0:
271,50,102630,2,0,L|431:38,1,142.99999345398,8|8,0:0|0:0,0:0:0:0:
184,176,102930,5,12,0:0:0:0:
460,268,103080,1,0,0:0:0:0:
364,24,103230,1,8,0:0:0:0:
216,264,103380,1,0,0:0:0:0:
508,184,103530,1,8,0:0:0:0:
236,40,103680,1,8,0:0:0:0:
268,334,103830,2,0,P|350:353|397:317,1,142.99999345398,8|8,0:0|0:0,0:0:0:0:
177,117,104130,5,12,0:0:0:0:
461,77,104280,1,0,0:0:0:0:
110,282,104430,1,8,0:0:0:0:
394,322,104580,1,0,0:0:0:0:
126,92,104730,1,8,0:0:0:0:
496,39,104880,1,8,0:0:0:0:
82,201,105030,2,0,P|30:262|39:330,1,142.99999345398,8|8,0:0|0:0,0:0:0:0:
353,213,105330,6,0,B|323:267|323:267|254:271|254:271|222:293|222:293|188:276|188:276|91:283,1,285.99998690796,12|8,0:0|0:0,0:0:0:0:
0,40,105780,2,0,B|187:-9|66:134|285:75,1,285.99998690796,12|8,0:0|0:0,0:0:0:0:
424,37,106230,2,0,P|360:69|351:147,1,142.99999345398,8|8,0:0|0:0,0:0:0:0:
416,332,106530,5,12,0:0:0:0:
252,92,106680,1,0,0:0:0:0:
140,320,106830,1,8,0:0:0:0:
368,264,106980,1,0,0:0:0:0:
192,32,107130,1,8,0:0:0:0:
80,376,107280,1,8,0:0:0:0:
368,264,107430,2,0,L|392:112,1,142.99999345398,8|8,0:0|0:0,0:0:0:0:
113,53,107730,5,12,0:0:0:0:
252,352,107880,1,0,0:0:0:0:
352,28,108030,1,8,0:0:0:0:
99,267,108180,1,0,0:0:0:0:
446,216,108330,1,8,0:0:0:0:
185,0,108480,1,8,0:0:0:0:
252,352,108630,2,0,P|324:368|387:325,1,142.99999345398,8|8,0:0|0:0,0:0:0:0:
164,48,108930,5,12,0:0:0:0:
110,349,109080,1,0,0:0:0:0:
348,48,109230,1,8,0:0:0:0:
402,349,109380,1,0,0:0:0:0:
143,16,109530,5,8,0:0:0:0:
77,383,109680,1,8,0:0:0:0:
368,16,109830,2,0,L|384:164,1,142.99999345398,8|8,0:0|0:0,0:0:0:0:
402,349,110130,5,12,0:0:0:0:
392,315,110205,1,8,0:0:0:0:
371,287,110280,1,8,0:0:0:0:
342,269,110355,1,8,0:0:0:0:
308,262,110430,1,8,0:0:0:0:
273,269,110505,1,8,0:0:0:0:
296,232,110580,5,14,0:0:0:0:
292,188,110655,1,2,0:0:0:0:
264,156,110730,1,2,0:0:0:0:
224,140,110805,1,2,0:0:0:0:
184,156,110880,1,2,0:0:0:0:
144,148,110955,1,2,0:0:0:0:
116,116,111030,1,2,0:0:0:0:
112,72,111105,1,2,0:0:0:0:
136,36,111180,1,2,0:0:0:0:
180,28,111255,1,2,0:0:0:0:
142,2,111330,5,12,0:0:0:0:
94,0,111405,1,8,0:0:0:0:
51,20,111480,1,8,0:0:0:0:
22,57,111555,1,8,0:0:0:0:
12,103,111630,1,8,0:0:0:0:
23,149,111705,1,8,0:0:0:0:
53,185,111780,5,14,0:0:0:0:
100,140,111855,1,2,0:0:0:0:
164,124,111930,1,2,0:0:0:0:
224,144,112005,1,2,0:0:0:0:
260,196,112080,1,2,0:0:0:0:
272,260,112155,1,2,0:0:0:0:
320,304,112230,1,2,0:0:0:0:
384,316,112305,1,2,0:0:0:0:
444,292,112380,1,2,0:0:0:0:
472,232,112455,1,2,0:0:0:0:
400,200,112530,5,12,0:0:0:0:
324,220,112605,1,8,0:0:0:0:
292,292,112680,1,8,0:0:0:0:
224,332,112755,1,8,0:0:0:0:
144,324,112830,1,8,0:0:0:0:
100,260,112905,1,8,0:0:0:0:
176,300,112980,5,14,0:0:0:0:
256,272,113055,1,2,0:0:0:0:
288,192,113130,1,2,0:0:0:0:
252,116,113205,1,2,0:0:0:0:
168,92,113280,1,2,0:0:0:0:
92,136,113355,1,2,0:0:0:0:
84,220,113430,1,2,0:0:0:0:
148,280,113505,1,2,0:0:0:0:
232,300,113580,1,2,0:0:0:0:
316,288,113655,1,2,0:0:0:0:
384,236,113730,5,12,0:0:0:0:
400,180,113805,1,8,0:0:0:0:
388,124,113880,1,8,0:0:0:0:
348,80,113955,1,8,0:0:0:0:
292,64,114030,1,8,0:0:0:0:
236,72,114105,1,8,0:0:0:0:
192,108,114180,1,8,0:0:0:0:
176,164,114255,1,8,0:0:0:0:
192,212,114330,1,8,0:0:0:0:
224,240,114405,1,8,0:0:0:0:
260,244,114480,1,8,0:0:0:0:
284,228,114555,1,8,0:0:0:0:
296,208,114630,1,8,0:0:0:0:
292,196,114705,1,8,0:0:0:0:
285,189,114780,1,8,0:0:0:0:
278,185,114855,1,8,0:0:0:0:
271,185,114930,5,12,0:0:0:0:
80,40,115830,6,0,P|123:50|152:79,1,71.4999967269899,8|0,0:0|0:0,0:0:0:0:
432,40,115980,2,0,P|389:50|360:79,1,71.4999967269899,0|0,0:0|0:0,0:0:0:0:
290,384,116130,2,0,B|286:300|286:300|302:284|302:284|226:240|226:240|262:208|262:208|250:8,1,428.999980361939,8|10,0:0|0:0,0:0:0:0:
250,22,116655,1,10,0:0:0:0:
250,22,116730,1,10,0:0:0:0:
