osu file format v14

[General]
AudioFilename: audio.mp3
AudioLeadIn: 0
PreviewTime: 93959
Countdown: 0
SampleSet: None
StackLeniency: 0.9
Mode: 0
LetterboxInBreaks: 1
WidescreenStoryboard: 1

[Editor]
Bookmarks: 8245,11673,47673,93959,107673,114530,128245,148816,162530,171102,210530
DistanceSpacing: 1
BeatDivisor: 2
GridSize: 4
TimelineZoom: 1.100006

[Metadata]
Title:System Override
TitleUnicode:System Override
Artist:Music-Story
ArtistUnicode:Music-Story
Creator:Mjenk5150
Version:Normal
Source:VR Defender Y3K
Tags:VR Defender Y3k
BeatmapID:1129391
BeatmapSetID:532597

[Difficulty]
HPDrainRate:3
CircleSize:2.5
OverallDifficulty:3
ApproachRate:4
SliderMultiplier:1.4
SliderTickRate:2

[Events]
//Background and Video events
0,0,"system overrde background 2.jpg",0,0
//Break Periods
2,86016,92639
//Storyboard Layer 0 (Background)
//Storyboard Layer 1 (Fail)
//Storyboard Layer 2 (Pass)
//Storyboard Layer 3 (Foreground)
//Storyboard Sound Samples

[TimingPoints]
1388,428.571428571429,4,2,0,100,1,0
8245,-133.333333333333,4,3,0,100,0,0

[Colours]
Combo1 : 0,0,128
Combo2 : 188,116,7
Combo3 : 128,128,128
Combo4 : 242,216,223

[HitObjects]
260,300,8245,5,0,0:0:0:0:
364,300,8673,2,0,P|412:236|412:196,1,105.000004005432
372,116,9530,1,0,0:0:0:0:
300,192,9959,1,0,0:0:0:0:
208,144,10388,2,0,P|192:192|220:252,1,105.000004005432
272,328,11245,1,0,0:0:0:0:
256,192,11673,12,0,14245,0:0:0:0:
364,112,15102,5,0,0:0:0:0:
264,88,15530,2,0,L|204:88,2,52.5000020027161
236,188,16388,1,0,0:0:0:0:
156,256,16816,1,0,0:0:0:0:
64,204,17245,2,0,P|44:120|76:40,1,157.500006008148
65,54,18102,1,0,0:0:0:0:
168,28,18530,2,0,B|220:28|328:24|388:76|408:188|352:344|156:300,1,525.000020027161
186,305,20888,1,0,0:0:0:0:
344,308,21530,1,0,0:0:0:0:
408,224,21959,6,0,L|292:224,1,105.000004005432
230,147,22816,2,0,L|366:147,1,105.000004005432
424,92,23673,2,0,L|423:205,1,105.000004005432
469,258,24530,2,0,P|416:276|360:243,1,105.000004005432
364,364,25388,2,0,B|96:364|96:364|36:336|44:280|100:260|100:260|212:260|416:264,1,682.50002603531
370,263,28388,1,0,0:0:0:0:
456,128,28816,6,0,B|416:100|364:76|288:72|228:80|184:104|128:152,1,315.000012016297
154,232,30530,6,0,B|178:255|222:279|282:287|358:283|410:259|450:231,1,315.000012016297
256,192,32245,12,0,35673,0:0:0:0:
109,120,37388,5,0,0:0:0:0:
207,83,37816,2,0,P|216:146|169:221,1,105.000004005432
167,283,38673,1,0,0:0:0:0:
271,272,39102,6,0,P|321:257|372:267,1,105.000004005432
443,344,39959,2,0,P|392:358|341:348,1,105.000004005432
241,336,40816,6,0,L|103:336,1,105.000004005432
68,255,41673,2,0,L|173:255,1,105.000004005432
309,176,42531,5,0,0:0:0:0:
214,129,42959,1,0,0:0:0:0:
196,232,43388,1,0,0:0:0:0:
279,295,43816,1,0,0:0:0:0:
370,242,44245,5,0,0:0:0:0:
462,191,44673,1,0,0:0:0:0:
387,117,45102,1,0,0:0:0:0:
289,149,45530,1,0,0:0:0:0:
188,179,45959,6,0,L|188:41,1,105.000004005432
290,50,46816,2,0,L|395:50,1,105.000004005432
420,152,47673,6,0,L|420:290,1,105.000004005432
316,280,48530,2,0,L|211:280,1,105.000004005432
244,180,49388,5,0,0:0:0:0:
180,96,49816,2,0,L|148:160,1,52.5000020027161
136,192,50245,1,0,0:0:0:0:
156,296,50673,1,0,0:0:0:0:
260,296,51102,5,0,0:0:0:0:
344,236,51530,2,0,L|388:200,1,52.5000020027161
424,168,51959,1,0,0:0:0:0:
388,68,52388,1,0,0:0:0:0:
284,56,52816,5,0,0:0:0:0:
292,160,53245,2,0,L|156:104,1,105.000004005432
204,224,54102,1,0,0:0:0:0:
128,148,54530,6,0,L|264:92,1,105.000004005432
328,124,55388,2,0,L|192:68,1,105.000004005432
132,52,56245,5,0,0:0:0:0:
80,144,56673,2,0,L|112:208,1,52.5000020027161
124,240,57102,1,0,0:0:0:0:
68,328,57530,1,0,0:0:0:0:
176,332,57959,5,0,0:0:0:0:
240,248,58387,2,0,L|272:184,1,52.5000020027161
284,152,58816,1,0,0:0:0:0:
368,216,59244,1,0,0:0:0:0:
408,324,59673,6,0,L|284:324,1,105.000004005432
288,220,60530,2,0,L|164:220,1,105.000004005432
172,116,61388,6,0,L|48:116,1,105.000004005432
124,204,62245,2,0,L|229:204,1,105.000004005432
416,104,63530,5,0,0:0:0:0:
360,308,64388,5,0,0:0:0:0:
260,124,65245,5,0,0:0:0:0:
116,276,66102,6,0,L|248:276,1,105.000004005432
328,276,66959,1,0,0:0:0:0:
328,68,67816,5,0,0:0:0:0:
116,68,68673,5,0,0:0:0:0:
116,276,69530,1,0,0:0:0:0:
220,288,69959,6,0,P|288:256|332:216,1,105.000004005432
388,168,70816,2,0,P|434:108|455:53,1,105.000004005432
344,52,71673,1,0,0:0:0:0:
244,88,72102,1,0,0:0:0:0:
148,52,72530,1,0,0:0:0:0:
68,120,72959,2,0,L|136:212,1,105.000004005432
88,300,73816,5,0,0:0:0:0:
176,356,74245,1,0,0:0:0:0:
268,304,74673,1,0,0:0:0:0:
360,352,75102,1,0,0:0:0:0:
416,264,75531,1,0,0:0:0:0:
364,172,75959,1,0,0:0:0:0:
412,80,76388,2,0,P|332:76|284:100,1,105.000004005432
212,124,77245,5,0,0:0:0:0:
132,188,77673,2,0,P|132:264|164:312,1,105.000004005432
248,284,78530,2,0,P|265:235|260:183,1,105.000004005432
180,116,79388,2,0,L|180:240,1,105.000004005432
244,304,80245,6,0,P|295:298|344:316,1,105.000004005432
448,312,81102,1,0,0:0:0:0:
384,228,81530,1,0,0:0:0:0:
448,144,81959,6,0,L|416:32,1,105.000004005432
312,36,82816,1,0,0:0:0:0:
216,76,83245,2,0,L|187:176,1,105.000004005432
176,280,84102,5,0,0:0:0:0:
92,216,84530,1,0,0:0:0:0:
64,316,84959,2,0,L|164:344,1,105.000004005432
264,312,85816,5,0,0:0:0:0:
452,52,93959,5,4,0:0:0:0:
400,144,94388,2,4,L|272:156,1,105.000004005432,6|4,0:0|0:0,0:0:0:0:
324,256,95245,2,4,L|196:268,1,105.000004005432,6|4,0:0|0:0,0:0:0:0:
120,232,96102,1,6,0:0:0:0:
48,156,96530,1,4,0:0:0:0:
120,80,96959,1,14,0:0:0:0:
196,152,97388,6,4,L|84:196,1,105.000004005432,4|6,0:0|0:0,0:0:0:0:
68,292,98245,2,4,L|180:336,1,105.000004005432,4|6,0:0|0:0,0:0:0:0:
272,332,99102,1,4,0:0:0:0:
364,280,99530,1,6,0:0:0:0:
272,220,99959,1,4,0:0:0:0:
364,172,100388,1,6,0:0:0:0:
284,104,100816,6,4,L|256:224,1,105.000004005432,4|6,0:0|0:0,0:0:0:0:
176,144,101673,2,4,L|199:41,1,105.000004005432,4|6,0:0|0:0,0:0:0:0:
96,56,102530,2,4,L|68:176,1,105.000004005432,4|6,0:0|0:0,0:0:0:0:
72,264,103388,2,4,P|142:248|161:314,1,105.000004005432,4|6,0:0|0:0,0:0:0:0:
252,320,104245,5,4,0:0:0:0:
328,248,104673,1,6,0:0:0:0:
404,320,105102,1,4,0:0:0:0:
436,248,105531,1,6,0:0:0:0:
432,224,105745,6,6,P|392:172|352:168,1,105.000004005432
252,152,106602,1,4,0:0:0:0:
244,164,106816,1,4,0:0:0:0:
152,216,107245,1,4,0:0:0:0:
116,180,107459,1,4,0:0:0:0:
104,128,107673,6,4,P|128:68|168:48,1,105.000004005432,4|6,0:0|0:0,0:0:0:0:
240,120,108530,2,4,P|290:80|335:82,1,105.000004005432,4|6,0:0|0:0,0:0:0:0:
372,176,109388,2,4,P|321:215|276:213,1,105.000004005432,4|6,0:0|0:0,0:0:0:0:
180,220,110245,2,4,L|184:100,1,105.000004005432,4|6,0:0|0:0,0:0:0:0:
