osu file format v14

[General]
AudioFilename: audio.mp3
AudioLeadIn: 0
PreviewTime: 93959
Countdown: 0
SampleSet: Soft
StackLeniency: 1
Mode: 0
LetterboxInBreaks: 1
WidescreenStoryboard: 1

[Editor]
Bookmarks: 8245,47673,93959,107673,114530,128245,148816,162530,171102,210530
DistanceSpacing: 1.2
BeatDivisor: 4
GridSize: 4
TimelineZoom: 2.000006

[Metadata]
Title:System Override
TitleUnicode:System Override
Artist:Music-Story
ArtistUnicode:Music-Story
Creator:Mjenk5150
Version:All Systems Down!
Source:VR Defender Y3K
Tags:VR Defender Y3k
BeatmapID:1128532
BeatmapSetID:532597

[Difficulty]
HPDrainRate:6
CircleSize:4
OverallDifficulty:8.5
ApproachRate:9.2
SliderMultiplier:1.4
SliderTickRate:1

[Events]
//Background and Video events
0,0,"system overrde background 2.jpg",0,0
//Break Periods
2,35846,47073
2,76989,89930
//Storyboard Layer 0 (Background)
//Storyboard Layer 1 (Fail)
//Storyboard Layer 2 (Pass)
//Storyboard Layer 3 (Foreground)
//Storyboard Sound Samples

[TimingPoints]
1388,428.571428571429,4,2,0,100,1,0
14245,-66.6666666666667,4,3,0,100,0,0
14888,-50,4,3,0,100,0,0
15102,-90.9090909090909,4,3,0,100,0,0
18530,-66.6666666666667,4,2,0,100,0,0
20673,-83.3333333333333,4,2,0,100,0,0
23673,-66.6666666666667,4,2,0,100,0,0
25388,-200,4,2,0,100,0,0
27102,-62.5,4,2,0,100,0,0
28816,-200,4,2,0,100,0,0
35620,-100,4,2,0,100,0,0
35673,-80,4,2,0,100,0,0
49388,-111.111111111111,4,2,0,100,0,0
51530,-66.6666666666667,4,2,0,100,0,0
52816,-71.4285714285714,4,2,0,100,0,0
56673,-133.333333333333,4,2,0,100,0,0
58388,-76.9230769230769,4,2,0,100,0,0
59245,-133.333333333333,4,2,0,100,0,0
60959,-133.333333333333,4,2,0,100,0,0
61816,-133.333333333333,4,2,0,100,0,0
69959,-100,4,2,0,100,0,0
70388,-83.3333333333333,4,2,0,100,0,0
70816,-71.4285714285714,4,2,0,100,0,0
71245,-62.5,4,2,0,100,0,0
72530,-35.7142857142857,4,2,0,100,0,0
72959,-90.9090909090909,4,2,0,100,0,0
92245,-200,4,3,0,5,0,0
93959,-90.9090909090909,4,3,0,100,0,0
94388,-90.9090909090909,4,3,0,100,0,0
94602,-90.9090909090909,4,3,0,100,0,0
96959,-55.5555555555556,4,3,0,100,0,0
97388,-83.3333333333333,4,2,0,100,0,0
97391,-83.3333333333333,4,3,0,100,0,0
103816,-50,4,3,0,100,0,0
110673,-166.666666666667,4,3,0,100,0,0
111959,-83.3333333333333,4,3,0,100,0,0
114530,-83.3333333333333,4,3,0,100,0,0
114673,-83.3333333333333,4,3,0,100,0,0
115388,-74.0740740740741,4,3,0,100,0,0
116245,-66.6666666666667,4,2,0,100,0,0
117956,-66.6666666666667,4,3,0,100,0,0
128245,-55.5555555555556,4,2,0,100,0,0
133388,-50,4,2,0,100,0,0
140030,-57.1428571428571,4,2,0,100,0,0
140673,-50,4,2,0,100,0,0
142816,-66.6666666666667,4,2,0,100,0,0
143459,-62.5,4,2,0,100,0,0
150959,-62.5,4,3,0,100,0,0
151173,-200,4,2,0,100,0,0
151388,-100,4,2,0,100,0,0
151816,-100,4,3,2,100,0,0
152030,-100,4,2,0,100,0,0
152245,-62.5,4,2,0,100,0,0
153209,-200,4,2,0,100,0,0
153316,-50,4,3,0,100,0,0
153423,-50,4,2,0,100,0,0
154816,-66.6666666666667,4,2,0,100,0,0
155245,-50,4,3,2,100,0,0
155673,-66.6666666666667,4,2,0,100,0,0
156530,-58.8235294117647,4,2,0,100,0,0
156959,-200,4,2,0,100,0,0
157388,-50,4,2,0,100,0,0
158349,-200,4,2,0,30,0,0
158459,-200,4,2,0,100,0,0
158780,-200,4,2,0,100,0,0
158880,-200,4,2,0,30,0,0
158888,-200,4,2,0,100,0,0
159102,-44.4444444444445,4,2,0,100,0,0
159959,-66.6666666666667,4,2,0,100,0,0
160066,-62.5,4,2,0,100,0,0
162530,-62.5,4,1,0,100,0,0
165102,-74.0740740740741,4,2,0,100,0,0
165959,-66.6666666666667,4,2,0,100,0,0
166816,-62.5,4,2,0,100,0,0
177959,-46.5116279069767,4,3,0,100,0,1
186316,-57.1428571428571,4,2,0,100,0,1
188245,-50,4,2,0,100,0,1
198102,-55.5555555555556,4,2,0,100,0,1
205388,-200,4,3,0,100,0,1
208816,-62.5,4,3,0,100,0,1
213852,-166.666666666667,4,2,0,100,0,0

[Colours]
Combo1 : 0,0,128
Combo2 : 188,116,7
Combo3 : 128,128,128
Combo4 : 242,216,223

[HitObjects]
116,96,8245,5,0,0:0:0:0:
128,104,8673,1,0,0:0:0:0:
140,112,9102,1,0,0:0:0:0:
152,120,9530,1,0,0:0:0:0:
376,108,9959,5,0,0:0:0:0:
368,116,10388,1,0,0:0:0:0:
356,124,10816,1,0,0:0:0:0:
348,136,11245,1,0,0:0:0:0:
96,224,11673,5,0,0:0:0:0:
112,240,12102,1,0,0:0:0:0:
128,256,12530,1,0,0:0:0:0:
148,272,12959,1,0,0:0:0:0:
296,312,13388,5,0,0:0:0:0:
416,196,13602,1,0,0:0:0:0:
256,160,13816,1,0,0:0:0:0:
300,308,14030,1,0,0:0:0:0:
140,72,14245,1,0,0:0:0:0:
140,80,14352,1,0,0:0:0:0:
140,88,14459,1,0,0:0:0:0:
140,96,14566,1,0,0:0:0:0:
140,104,14673,2,0,L|140:176,1,52.5000020027161
132,248,14888,2,0,P|168:240|212:244,1,70
332,224,15102,6,0,L|372:224,15,38.5000011749268
232,292,16816,2,0,L|188:292,15,38.5000011749268
332,272,18530,6,0,P|360:244|328:140,1,157.500006008148
284,48,18959,2,0,B|228:48|228:48|152:152,1,157.500006008148
108,216,19388,2,0,P|124:256|176:296,1,105.000004005432
392,212,19816,1,12,0:0:0:0:
400,208,19923,1,12,0:0:0:0:
336,128,20138,1,0,0:0:0:0:
344,124,20245,1,0,0:0:0:0:
112,196,20673,2,0,B|117:207|117:207|131:192|131:192|129:212|129:212|143:198|143:198|140:218|140:218|169:228,1,83.9999974365235
392,280,21316,1,0,0:0:0:0:
392,280,21530,1,0,0:0:0:0:
143,112,21959,6,0,P|136:153|152:192,1,83.9999974365235
373,122,22388,2,0,P|378:163|360:200,1,83.9999974365235
160,232,22816,2,0,P|176:272|224:296,1,83.9999974365235
364,78,23245,2,0,P|345:41|308:24,1,83.9999974365235
184,80,23673,6,0,P|240:56|292:84,1,105.000004005432
284,288,24102,2,0,P|228:312|176:284,1,105.000004005432
416,224,24530,2,0,P|404:284|360:312,1,105.000004005432
96,152,24959,2,0,P|104:92|148:60,1,105.000004005432
408,300,25388,6,0,B|380:320|332:332|272:332|220:320|172:292|156:268,1,262.5
72,68,27102,6,0,B|296:68|296:68|332:92|332:92|392:128|392:128|504:128|504:128|512:260|512:260|424:264|424:264|268:264,1,784
232,192,28816,6,0,L|232:216,15,17.5
260,308,30530,6,0,L|260:288,15,17.5
136,196,32245,6,0,L|136:220,7,17.5
264,232,33102,2,0,L|288:232,7,17.5
164,176,33959,6,0,L|164:148,3,17.5
176,72,34388,2,0,L|176:52,3,17.5
312,104,34816,6,0,L|312:128,1,17.5
388,208,35030,2,0,L|388:232,1,17.5
440,336,35245,2,10,L|444:336,15,4.375
40,32,47673,5,0,0:0:0:0:
44,36,47780,1,0,0:0:0:0:
48,40,47888,1,0,0:0:0:0:
52,44,47995,1,0,0:0:0:0:
56,48,48102,1,0,0:0:0:0:
60,52,48209,1,0,0:0:0:0:
64,56,48316,1,0,0:0:0:0:
68,60,48423,1,0,0:0:0:0:
72,72,48530,5,0,0:0:0:0:
84,92,48638,1,0,0:0:0:0:
100,120,48745,1,0,0:0:0:0:
120,148,48852,1,0,0:0:0:0:
156,176,48959,1,0,0:0:0:0:
204,196,49066,1,0,0:0:0:0:
272,184,49173,1,0,0:0:0:0:
344,144,49280,1,0,0:0:0:0:
400,84,49388,1,0,0:0:0:0:
476,120,49602,5,0,0:0:0:0:
472,252,49816,2,0,L|404:268,1,62.9999980773926
344,372,50352,1,0,0:0:0:0:
344,372,50459,1,0,0:0:0:0:
216,316,50673,2,0,B|196:312|196:312|168:308|144:312|116:328,1,94.499997116089
76,220,51102,6,0,P|64:172|68:152,1,62.9999980773926
204,80,51530,2,0,P|244:112|260:184,1,105.000004005432
236,272,51852,1,0,0:0:0:0:
236,288,51959,1,0,0:0:0:0:
236,304,52066,1,0,0:0:0:0:
236,320,52173,2,0,P|292:288|348:292,1,105.000004005432
412,228,52602,1,0,0:0:0:0:
416,224,52709,1,0,0:0:0:0:
420,220,52816,6,0,P|428:180|392:128,1,97.9999970092774
336,76,53245,1,0,0:0:0:0:
128,112,53673,5,0,0:0:0:0:
136,144,53780,1,0,0:0:0:0:
144,176,53888,1,0,0:0:0:0:
152,204,53995,1,0,0:0:0:0:
168,264,54102,2,0,P|196:248|264:248,1,97.9999970092774
264,72,54530,1,0,0:0:0:0:
272,104,54637,1,0,0:0:0:0:
280,136,54745,1,0,0:0:0:0:
288,164,54852,1,0,0:0:0:0:
296,220,54959,2,0,P|248:220|184:268,1,97.9999970092774
120,96,55388,5,0,0:0:0:0:
128,128,55495,1,0,0:0:0:0:
136,160,55602,1,0,0:0:0:0:
144,192,55709,1,0,0:0:0:0:
208,76,55816,5,0,0:0:0:0:
216,108,55923,1,0,0:0:0:0:
224,140,56030,1,0,0:0:0:0:
232,172,56137,1,0,0:0:0:0:
352,160,56245,1,0,0:0:0:0:
400,116,56459,5,0,0:0:0:0:
420,224,56673,2,0,L|376:232,1,26.2500010013581
304,320,56888,1,0,0:0:0:0:
432,204,57102,2,0,L|388:224,1,26.2500010013581
304,320,57317,1,0,0:0:0:0:
444,168,57530,2,0,L|408:204,1,26.2500010013581
304,320,57745,1,0,0:0:0:0:
36,320,57959,5,0,0:0:0:0:
168,376,58173,1,0,0:0:0:0:
128,232,58388,2,0,P|176:220|224:232,1,90.9999958343508
268,232,58709,1,0,0:0:0:0:
224,200,58816,1,0,0:0:0:0:
204,148,58923,1,0,0:0:0:0:
220,96,59030,1,0,0:0:0:0:
256,56,59138,1,0,0:0:0:0:
356,16,59245,2,0,L|356:52,1,26.2500010013581
472,128,59459,2,0,L|472:84,1,26.2500010013581
236,304,59673,6,0,P|276:308|304:324,1,52.5000020027161
396,340,60102,2,0,P|428:360|464:360,1,52.5000020027161
356,280,60530,5,0,0:0:0:0:
364,260,60638,1,0,0:0:0:0:
372,240,60745,1,0,0:0:0:0:
380,220,60852,1,0,0:0:0:0:
396,176,60959,2,0,L|364:156,1,26.2500010013581
280,104,61173,1,0,0:0:0:0:
160,116,61388,5,0,0:0:0:0:
156,136,61495,1,0,0:0:0:0:
152,156,61602,1,0,0:0:0:0:
148,176,61709,1,0,0:0:0:0:
72,244,61816,2,0,L|68:276,1,26.2500010013581
212,256,62030,2,0,L|208:288,1,26.2500010013581
232,128,62245,5,0,0:0:0:0:
232,128,62352,1,0,0:0:0:0:
120,304,62459,2,0,L|140:284,1,26.2500010013581
308,168,62673,1,0,0:0:0:0:
308,172,62780,1,0,0:0:0:0:
56,232,62888,2,0,L|88:224,1,26.2500010013581
156,108,63530,5,0,0:0:0:0:
108,340,64388,1,0,0:0:0:0:
232,116,65245,1,0,0:0:0:0:
144,272,65673,1,0,0:0:0:0:
144,272,65888,1,0,0:0:0:0:
144,272,66102,1,0,0:0:0:0:
404,104,66959,5,0,0:0:0:0:
304,348,67816,1,0,0:0:0:0:
124,256,68673,5,0,0:0:0:0:
164,168,68888,1,0,0:0:0:0:
176,144,68995,1,0,0:0:0:0:
212,128,69102,1,0,0:0:0:0:
224,104,69209,1,0,0:0:0:0:
200,72,69316,1,0,0:0:0:0:
288,40,69530,2,0,L|296:40,13,6.56250025033952
360,104,69959,6,0,P|376:152|364:192,1,70
352,320,70388,2,0,P|372:289|376:240,1,83.9999974365235
136,208,70816,2,0,P|138:256|161:300,1,97.9999970092774
136,92,71245,2,0,P|212:68|272:76,1,112
296,148,71673,2,0,B|284:156|284:156|304:168|304:168|280:176|280:176|304:188|304:188|292:212,1,112
402,299,72102,2,0,B|412:280|412:280|388:268|388:268|412:260|412:260|392:248|392:248|404:240,1,112
384,88,72530,2,0,B|368:100|368:100|356:84|356:84|344:100|344:100|336:84|336:84|324:100|324:100|308:88|308:88|216:88,1,195.999994018555
108,124,72959,2,0,L|64:136,3,38.5000011749268
168,268,73388,5,0,0:0:0:0:
296,336,73602,1,0,0:0:0:0:
284,208,73816,2,0,L|284:168,1,38.5000011749268
240,68,74030,1,0,0:0:0:0:
240,68,74138,1,0,0:0:0:0:
124,140,74245,2,0,P|128:184|144:212,1,77.0000023498536
128,36,74673,2,0,L|172:36,3,38.5000011749268
148,180,75102,6,0,P|204:140|232:136,1,77.0000023498536
428,172,75530,1,0,0:0:0:0:
284,288,75745,1,0,0:0:0:0:
284,288,75852,1,0,0:0:0:0:
288,292,75959,2,0,P|272:332|224:356,1,77.0000023498536
84,280,76388,2,0,L|76:272,15,9.6250002937317
168,232,90530,5,0,0:0:0:0:
256,192,92245,12,0,93638,0:0:0:0:
64,88,93959,5,0,0:0:0:0:
88,92,94066,1,0,0:0:0:0:
112,280,94280,5,0,0:0:0:0:
136,284,94388,1,8,0:0:0:0:
284,344,94602,1,0,0:0:0:0:
388,264,94816,1,0,0:0:0:0:
264,132,95030,2,0,L|312:132,1,38.5000011749268
444,180,95245,1,8,0:0:0:0:
300,312,95459,1,0,0:0:0:0:
104,304,95673,5,0,0:0:0:0:
128,300,95780,1,0,0:0:0:0:
52,152,95995,5,0,0:0:0:0:
96,140,96102,1,8,0:0:0:0:
296,304,96316,1,0,0:0:0:0:
208,200,96530,5,0,0:0:0:0:
188,168,96638,1,0,0:0:0:0:
176,128,96745,1,0,0:0:0:0:
184,84,96852,1,0,0:0:0:0:
208,48,96959,2,12,P|244:72|256:116,1,62.9999980773926,12|0,0:0|0:0,0:0:0:0:
328,128,97388,6,0,L|320:184,1,41.9999987182618
444,188,97709,2,0,L|448:132,1,41.9999987182618,0|8,0:0|0:0,0:0:0:0:
404,60,98030,1,0,0:0:0:0:
300,56,98245,1,0,0:0:0:0:
168,96,98566,1,0,0:0:0:0:
200,112,98673,1,8,0:0:0:0:
144,252,98888,1,0,0:0:0:0:
304,312,99102,5,0,0:0:0:0:
424,252,99316,1,0,0:0:0:0:
424,232,99423,1,0,0:0:0:0:
424,216,99530,2,0,L|420:164,1,41.9999987182618,8|0,0:0|0:0,0:0:0:0:
416,68,99745,1,0,0:0:0:0:
288,88,99959,5,0,0:0:0:0:
260,100,100066,1,0,0:0:0:0:
240,120,100173,1,0,0:0:0:0:
224,144,100280,1,0,0:0:0:0:
216,172,100388,2,4,P|208:200|216:232,1,41.9999987182618,12|4,0:0|0:0,0:0:0:0:
204,344,100602,1,0,0:0:0:0:
344,304,100816,6,0,B|384:280|404:248|400:200,1,125.999996154785
360,108,101245,1,8,0:0:0:0:
164,104,101459,1,0,0:0:0:0:
104,220,101673,1,0,0:0:0:0:
244,192,101888,2,0,L|206:173,1,41.9999987182618
328,260,102102,1,8,0:0:0:0:
344,368,102316,1,0,0:0:0:0:
452,176,102530,5,0,0:0:0:0:
316,112,102745,1,0,0:0:0:0:
304,112,102852,1,0,0:0:0:0:
292,112,102959,2,0,B|260:108|212:124|200:148,1,83.9999974365235,8|0,0:0|0:0,0:0:0:0:
76,192,103388,2,0,L|72:144,1,41.9999987182618
204,172,103602,2,0,L|208:214,1,41.9999987182618
224,64,103816,2,8,P|268:48|300:56,1,70
432,116,104030,1,0,0:0:0:0:
384,232,104245,5,0,0:0:0:0:
384,232,104352,1,0,0:0:0:0:
296,312,104566,1,0,0:0:0:0:
296,312,104673,1,8,0:0:0:0:
232,152,104888,1,0,0:0:0:0:
368,304,105102,1,0,0:0:0:0:
92,180,105423,2,0,B|80:152|92:124|120:104,1,70,0|8,0:0|0:0,0:0:0:0:
106,115,105745,1,0,0:0:0:0:
264,48,105959,5,0,0:0:0:0:
304,172,106173,2,0,P|340:164|376:172,1,70
484,216,106388,1,8,0:0:0:0:
436,296,106602,1,0,0:0:0:0:
384,136,106816,1,0,0:0:0:0:
380,140,106923,1,0,0:0:0:0:
376,144,107030,1,0,0:0:0:0:
372,148,107138,2,0,P|342:172|305:186,1,70,0|8,0:0|0:0,0:0:0:0:
136,96,107673,5,0,0:0:0:0:
136,96,107780,1,0,0:0:0:0:
156,304,107995,1,0,0:0:0:0:
156,304,108102,1,8,0:0:0:0:
260,348,108316,1,0,0:0:0:0:
428,284,108530,1,0,0:0:0:0:
194,126,108852,2,0,L|264:120,1,70,0|8,0:0|0:0,0:0:0:0:
244,192,109173,1,0,0:0:0:0:
184,312,109388,5,0,0:0:0:0:
304,300,109602,1,0,0:0:0:0:
304,300,109709,1,0,0:0:0:0:
304,300,109816,2,0,L|352:248,1,70,8|0,0:0|0:0,0:0:0:0:
404,188,110030,1,0,0:0:0:0:
324,104,110245,1,0,0:0:0:0:
260,80,110352,1,0,0:0:0:0:
192,80,110459,1,0,0:0:0:0:
124,100,110566,1,0,0:0:0:0:
60,132,110673,2,0,L|92:112,1,20.9999993591309,8|0,0:0|0:0,0:0:0:0:
440,60,111102,6,0,L|440:84,1,20.9999993591309
260,144,111423,2,0,L|260:124,1,20.9999993591309,0|8,0:0|0:0,0:0:0:0:
60,208,111745,1,0,0:0:0:0:
148,336,111959,2,0,B|188:368|232:368|280:328,1,125.999996154785
400,196,112388,2,0,L|360:220,1,41.9999987182618,8|0,0:0|0:0,0:0:0:0:
92,68,112816,5,0,0:0:0:0:
116,220,113030,1,0,0:0:0:0:
116,220,113138,1,0,0:0:0:0:
116,220,113245,2,0,P|160:192|200:184,1,83.9999974365235,8|0,0:0|0:0,0:0:0:0:
352,300,113673,1,0,0:0:0:0:
412,252,113780,1,0,0:0:0:0:
428,180,113888,1,0,0:0:0:0:
408,108,113995,1,0,0:0:0:0:
352,60,114102,1,8,0:0:0:0:
52,216,114530,5,2,0:0:0:0:
164,328,114745,1,2,0:0:0:0:
248,256,114959,2,2,P|296:240|356:188,1,125.999996154785
256,96,115388,2,0,P|208:140|136:168,1,141.750000540733
48,220,115816,2,2,L|188:324,1,141.750000540733
248,228,116245,2,4,B|276:244|320:280|456:140|436:40|264:-116|164:8|92:84|128:156|168:200|216:208,1,577.500022029878,4|0,0:0|0:0,0:0:0:0:
380,108,117959,5,2,0:0:0:0:
220,252,118173,1,2,0:0:0:0:
260,64,118388,1,2,0:0:0:0:
360,308,118602,1,2,0:0:0:0:
144,124,118816,1,2,0:0:0:0:
420,92,119030,1,2,0:0:0:0:
248,348,119245,1,2,0:0:0:0:
248,348,119673,5,2,0:0:0:0:
420,92,119888,1,2,0:0:0:0:
144,124,120102,1,2,0:0:0:0:
360,308,120316,1,2,0:0:0:0:
260,64,120530,1,2,0:0:0:0:
220,252,120745,1,2,0:0:0:0:
380,108,120959,1,2,0:0:0:0:
152,64,121388,5,2,0:0:0:0:
212,328,121602,1,2,0:0:0:0:
228,64,121816,1,2,0:0:0:0:
176,328,122030,1,2,0:0:0:0:
132,64,122245,1,2,0:0:0:0:
212,328,122459,1,2,0:0:0:0:
296,60,122673,1,2,0:0:0:0:
228,252,122888,1,2,0:0:0:0:
360,104,123102,5,2,0:0:0:0:
164,204,123316,1,2,0:0:0:0:
392,176,123530,1,2,0:0:0:0:
144,128,123745,1,2,0:0:0:0:
376,256,123959,1,2,0:0:0:0:
172,56,124173,1,2,0:0:0:0:
252,176,124388,2,12,L|252:200,1,23.6250000901222,12|4,0:0|0:0,0:0:0:0:
48,168,124816,5,2,0:0:0:0:
464,152,125030,1,2,0:0:0:0:
48,120,125245,1,2,0:0:0:0:
464,212,125459,1,2,0:0:0:0:
48,216,125673,1,2,0:0:0:0:
464,128,125888,1,2,0:0:0:0:
260,188,126102,2,0,L|260:212,1,23.6250000901222,8|0,0:0|0:0,0:0:0:0:
336,48,126530,5,2,0:0:0:0:
240,352,126745,1,2,0:0:0:0:
196,44,126959,1,2,0:0:0:0:
292,352,127173,1,2,0:0:0:0:
252,48,127388,1,2,0:0:0:0:
180,352,127602,1,2,0:0:0:0:
148,48,127816,1,2,0:0:0:0:
252,348,128030,1,2,0:0:0:0:
176,128,128245,5,0,0:0:0:0:
296,272,128459,2,0,P|344:252|416:272,1,125.999996154785
413,270,128888,1,0,0:0:0:0:
293,129,129102,2,0,P|245:109|173:129,1,125.999996154785
293,129,129530,1,0,0:0:0:0:
192,272,129745,1,0,0:0:0:0:
296,292,129959,2,0,P|356:268|424:296,1,125.999996154785
112,296,130388,1,0,0:0:0:0:
332,256,130602,2,0,P|389:232|448:250,1,125.999996154785
112,296,131030,1,0,0:0:0:0:
296,292,131245,1,0,0:0:0:0:
104,312,131459,1,0,0:0:0:0:
96,328,131673,5,0,0:0:0:0:
384,208,131888,6,0,P|324:196|264:228,1,125.999996154785
64,336,132316,1,0,0:0:0:0:
456,300,132530,6,0,P|396:312|336:280,1,125.999996154785
180,320,132959,1,0,0:0:0:0:
248,368,133173,1,0,0:0:0:0:
248,264,133388,2,0,P|288:232|384:216,1,140
180,116,133816,2,0,P|228:112|300:52,1,140
376,260,134245,2,0,P|314:270|252:319,1,140
140,77,134673,2,0,P|209:66|264:23,1,140
116,192,135102,5,0,0:0:0:0:
352,320,135316,1,0,0:0:0:0:
96,204,135530,1,0,0:0:0:0:
360,192,135745,1,0,0:0:0:0:
72,224,135959,1,0,0:0:0:0:
336,80,136173,1,0,0:0:0:0:
48,256,136388,1,0,0:0:0:0:
344,20,136602,1,0,0:0:0:0:
120,348,136816,5,0,0:0:0:0:
196,348,137245,1,0,0:0:0:0:
272,348,137673,1,0,0:0:0:0:
348,348,138102,1,0,0:0:0:0:
400,68,138530,5,0,0:0:0:0:
324,68,138959,1,0,0:0:0:0:
248,68,139387,1,0,0:0:0:0:
172,68,139816,1,0,0:0:0:0:
48,140,140030,2,0,B|80:144|80:144|91:117,1,61.2500005841255
56,280,140245,5,0,0:0:0:0:
204,344,140459,1,0,0:0:0:0:
304,180,140673,2,0,P|348:132|332:64,1,140
256,308,141102,1,0,0:0:0:0:
332,64,141316,2,0,P|348:129|304:180,1,140
172,248,141745,1,0,0:0:0:0:
224,52,141959,5,0,0:0:0:0:
248,60,142066,1,0,0:0:0:0:
364,168,142280,1,0,0:0:0:0:
340,180,142388,1,0,0:0:0:0:
204,208,142602,2,0,L|216:220,7,17.5
272,276,142816,2,0,L|316:316,1,52.5000020027161
456,220,143030,2,0,L|412:260,1,52.5000020027161
360,128,143245,1,0,0:0:0:0:
360,128,143352,1,0,0:0:0:0:
360,128,143459,2,0,P|336:160|272:176,1,56
240,216,143673,5,0,0:0:0:0:
16,348,143888,1,0,0:0:0:0:
112,80,144102,1,0,0:0:0:0:
244,328,144316,1,0,0:0:0:0:
328,120,144530,1,0,0:0:0:0:
404,212,144745,1,0,0:0:0:0:
84,60,144959,1,0,0:0:0:0:
356,164,145173,1,0,0:0:0:0:
80,240,145388,5,0,0:0:0:0:
292,248,145602,1,0,0:0:0:0:
140,100,145816,1,0,0:0:0:0:
128,284,146030,1,0,0:0:0:0:
324,248,146245,1,0,0:0:0:0:
276,72,146459,1,0,0:0:0:0:
96,104,146673,1,0,0:0:0:0:
128,284,146888,1,0,0:0:0:0:
304,132,147102,5,0,0:0:0:0:
304,132,147316,1,0,0:0:0:0:
304,132,147530,1,0,0:0:0:0:
304,132,147745,1,0,0:0:0:0:
304,132,147959,1,0,0:0:0:0:
304,132,148173,1,0,0:0:0:0:
304,132,148388,1,0,0:0:0:0:
304,132,148602,1,0,0:0:0:0:
104,256,148816,5,0,0:0:0:0:
104,256,149030,1,0,0:0:0:0:
104,256,149244,1,0,0:0:0:0:
104,256,149459,1,0,0:0:0:0:
120,276,149673,5,0,0:0:0:0:
152,304,149780,1,0,0:0:0:0:
196,328,149888,1,0,0:0:0:0:
256,328,149995,1,0,0:0:0:0:
312,288,150102,1,0,0:0:0:0:
340,224,150209,1,0,0:0:0:0:
328,148,150316,1,0,0:0:0:0:
280,72,150423,1,0,0:0:0:0:
196,32,150530,5,0,0:0:0:0:
196,32,150745,1,0,0:0:0:0:
96,108,150959,2,0,B|52:136|48:140|48:140|68:204,1,112,8|0,0:0|0:0,0:0:0:0:
220,296,151388,2,0,L|220:236,1,35
208,96,151602,1,0,0:0:0:0:
208,96,151709,1,0,0:0:0:0:
336,256,151816,2,0,L|304:208,1,35,8|0,0:0|0:0,0:0:0:0:
204,92,152030,1,0,0:0:0:0:
208,96,152245,5,0,0:0:0:0:
200,184,152459,1,0,0:0:0:0:
200,184,152566,2,0,P|248:204|264:264,1,112,8|0,0:0|0:0,0:0:0:0:
252,328,152888,1,0,0:0:0:0:
88,240,153102,5,0,0:0:0:0:
64,196,153209,1,0,0:0:0:0:
52,148,153316,1,0,0:0:0:0:
60,100,153423,1,0,0:0:0:0:
88,56,153530,2,0,P|160:48|216:84,1,140,8|0,0:0|0:0,0:0:0:0:
272,332,153959,5,0,0:0:0:0:
432,240,154173,1,0,0:0:0:0:
432,240,154280,1,8,0:0:0:0:
312,92,154495,1,0,0:0:0:0:
312,92,154602,1,0,0:0:0:0:
232,188,154816,2,0,L|180:188,1,52.5000020027161
232,228,155030,2,0,L|180:228,1,52.5000020027161
148,296,155245,2,8,B|200:348|200:348|264:292,1,140
436,272,155673,6,0,B|424:176|424:176|344:116,1,157.500006008148
292,136,156102,2,0,B|244:168|244:168|204:140|204:140|148:172|148:172|144:172,1,157.500006008148
88,208,156530,2,0,B|108:328|108:328|164:360,1,178.500003404617
264,348,156959,2,0,L|316:328,1,52.5
388,296,157388,5,0,0:0:0:0:
200,84,157602,2,0,B|168:52|168:52|36:44,1,140
72,288,158030,1,0,0:0:0:0:
248,132,158245,1,2,0:0:0:0:
264,112,158352,1,0,0:0:0:0:
280,96,158459,1,2,0:0:0:0:
384,184,158673,1,2,0:0:0:0:
400,164,158780,1,0,0:0:0:0:
416,148,158888,1,2,0:0:0:0:
256,284,159102,5,0,0:0:0:0:
168,112,159316,2,0,B|144:68|144:68|36:28,1,157.500006008148
184,200,159745,1,0,0:0:0:0:
296,104,159959,1,2,0:0:0:0:
296,104,160066,2,0,L|380:76,1,56
388,176,160280,1,2,0:0:0:0:
385,182,160388,2,0,L|332:200,1,56
360,296,160602,1,2,0:0:0:0:
363,299,160709,2,0,L|417:282,1,56
476,244,161030,5,0,0:0:0:0:
476,244,161245,1,0,0:0:0:0:
476,244,161459,1,0,0:0:0:0:
440,200,161673,1,0,0:0:0:0:
372,152,161888,1,0,0:0:0:0:
268,132,162102,1,0,0:0:0:0:
152,148,162316,1,0,0:0:0:0:
48,228,162530,5,8,0:0:0:0:
48,228,162638,1,8,0:0:0:0:
48,228,162745,1,8,0:0:0:0:
48,228,162852,1,8,0:0:0:0:
80,256,162959,1,8,0:0:0:0:
124,280,163066,1,8,0:0:0:0:
180,292,163173,1,8,0:0:0:0:
244,296,163280,1,8,0:0:0:0:
316,280,163388,5,8,0:0:0:0:
380,236,163495,1,8,0:0:0:0:
428,172,163602,1,8,0:0:0:0:
432,96,163709,1,8,0:0:0:0:
388,32,163816,1,8,0:0:0:0:
304,8,163923,1,8,0:0:0:0:
208,32,164030,1,8,0:0:0:0:
120,104,164138,1,8,0:0:0:0:
32,212,164245,6,0,B|100:224|100:224|152:188,1,112
252,100,164673,1,0,0:0:0:0:
440,180,164888,1,0,0:0:0:0:
440,180,164995,1,0,0:0:0:0:
444,184,165102,2,0,L|376:264,1,94.5000003604889
300,304,165530,1,0,0:0:0:0:
224,312,165638,1,0,0:0:0:0:
152,296,165745,1,0,0:0:0:0:
112,232,165852,1,0,0:0:0:0:
96,160,165959,6,0,B|104:108|104:108|164:80,1,105.000004005432
312,36,166388,2,0,L|328:92,1,52.5000020027161
344,152,166602,1,0,0:0:0:0:
392,304,166816,2,0,P|328:320|268:292,1,112
112,212,167245,2,0,L|36:256,1,56
80,140,167459,2,0,L|16:176,1,56
44,68,167673,5,0,0:0:0:0:
192,72,168102,1,0,0:0:0:0:
336,352,168530,1,0,0:0:0:0:
384,60,168959,1,0,0:0:0:0:
56,60,169388,5,0,0:0:0:0:
340,324,169816,1,0,0:0:0:0:
304,56,170245,1,0,0:0:0:0:
256,192,170673,1,0,0:0:0:0:
256,192,171102,12,0,177530,0:0:0:0:
96,300,177959,6,0,B|152:300|152:300|172:320|172:320|252:320,1,150.500002296448
416,304,178388,1,8,0:0:0:0:
416,304,178602,1,0,0:0:0:0:
376,48,178816,2,0,B|352:96|352:96|228:128,1,150.500002296448
96,148,179245,2,0,L|104:224,1,75.2500011482239,8|0,0:0|0:0,0:0:0:0:
116,308,179459,1,0,0:0:0:0:
264,348,179673,1,0,0:0:0:0:
424,316,179888,1,0,0:0:0:0:
408,184,180102,2,0,B|368:112|368:112|244:112,1,150.500002296448,8|0,0:0|0:0,0:0:0:0:
188,96,180530,5,0,0:0:0:0:
188,124,180638,1,0,0:0:0:0:
184,208,180745,1,0,0:0:0:0:
184,236,180852,1,0,0:0:0:0:
180,328,180959,2,0,P|116:288|96:184,1,150.500002296448,8|0,0:0|0:0,0:0:0:0:
76,124,181388,5,0,0:0:0:0:
404,276,181602,1,0,0:0:0:0:
72,140,181816,1,8,0:0:0:0:
400,128,182030,1,0,0:0:0:0:
88,32,182245,2,0,L|128:108,1,75.2500011482239
168,184,182459,1,0,0:0:0:0:
176,308,182673,5,8,0:0:0:0:
308,308,182888,2,0,L|404:336,1,75.2500011482239
324,260,183102,2,0,L|420:288,1,75.2500011482239
416,232,183316,2,0,L|343:210,1,75.2500011482239
436,184,183530,2,0,L|363:162,1,75.2500011482239,8|0,0:0|0:0,0:0:0:0:
288,136,183745,1,0,0:0:0:0:
160,232,183959,6,0,L|116:240,1,37.6250005741119
164,188,184066,2,0,L|128:168,1,37.6250005741119
192,136,184173,2,0,L|148:96,1,37.6250005741119
240,112,184280,2,0,L|224:72,1,37.6250005741119
336,100,184388,2,0,L|428:100,1,75.2500011482239,8|0,0:0|0:0,0:0:0:0:
416,184,184602,2,0,L|328:184,1,75.2500011482239
364,268,184816,6,0,B|304:268|304:268|276:292|276:292|212:292,1,150.500002296448
196,200,185245,2,0,B|249:200|249:200|277:176|277:176|337:176,1,150.500002296448,8|0,0:0|0:0,0:0:0:0:
384,56,185673,1,0,0:0:0:0:
464,324,185888,1,0,0:0:0:0:
276,144,186102,1,8,0:0:0:0:
180,300,186316,1,0,0:0:0:0:
332,312,186530,6,0,L|268:312,1,61.2500005841255
104,312,186745,1,0,0:0:0:0:
72,312,186852,1,0,0:0:0:0:
336,220,186959,2,0,L|272:220,1,61.2500005841255,14|0,0:0|0:0,0:0:0:0:
100,216,187174,1,0,0:0:0:0:
72,216,187281,1,0,0:0:0:0:
128,56,187388,5,0,0:0:0:0:
236,360,187602,1,0,0:0:0:0:
216,56,187816,1,14,0:0:0:0:
152,360,188030,1,0,0:0:0:0:
220,284,188245,2,0,P|296:280|368:288,1,140
360,132,188673,2,0,P|290:138|220:134,1,140,14|0,0:0|0:0,0:0:0:0:
80,128,189102,1,0,0:0:0:0:
80,128,189530,1,14,0:0:0:0:
72,336,189745,5,0,0:0:0:0:
112,332,189852,1,0,0:0:0:0:
152,316,189959,1,0,0:0:0:0:
184,288,190066,1,0,0:0:0:0:
208,244,190173,1,0,0:0:0:0:
228,196,190280,1,0,0:0:0:0:
260,152,190388,1,14,0:0:0:0:
304,120,190495,1,0,0:0:0:0:
352,96,190602,5,0,0:0:0:0:
404,104,190709,1,0,0:0:0:0:
456,116,190816,1,0,0:0:0:0:
492,148,190923,1,0,0:0:0:0:
504,192,191030,1,0,0:0:0:0:
500,240,191138,1,0,0:0:0:0:
476,280,191245,1,14,0:0:0:0:
440,316,191352,1,0,0:0:0:0:
388,336,191459,5,0,0:0:0:0:
336,328,191566,1,0,0:0:0:0:
288,300,191673,6,0,B|248:260|248:260|216:260|216:260|144:316,1,140,14|0,0:0|0:0,0:0:0:0:
112,200,192102,2,0,B|72:240|72:240|40:240|40:240|-32:184,1,140,14|0,0:0|0:0,0:0:0:0:
64,112,192530,2,0,B|104:80|104:80|136:80|136:80|176:120,1,140,14|0,0:0|0:0,0:0:0:0:
168,240,192959,2,14,B|208:271|208:271|240:271|240:271|280:231,1,140
400,88,193388,6,0,B|440:148|440:148|392:224,1,140
232,184,193816,2,0,B|192:244|192:244|228:301,1,140,14|0,0:0|0:0,0:0:0:0:
368,360,194245,2,0,B|404:302|404:302|364:242,1,140
200,168,194673,2,0,B|163:110|163:110|203:50,1,140,14|0,0:0|0:0,0:0:0:0:
388,64,195102,5,0,0:0:0:0:
388,64,195530,1,14,0:0:0:0:
376,256,195959,1,0,0:0:0:0:
376,256,196066,1,0,0:0:0:0:
376,256,196173,1,0,0:0:0:0:
308,44,196388,1,14,0:0:0:0:
228,296,196602,1,0,0:0:0:0:
76,268,196816,5,0,0:0:0:0:
76,268,196923,1,0,0:0:0:0:
76,268,197030,1,0,0:0:0:0:
76,268,197138,2,0,P|60:236|68:188,1,70,0|14,0:0|0:0,0:0:0:0:
88,96,197459,1,0,0:0:0:0:
176,304,197673,5,0,0:0:0:0:
220,292,197780,1,0,0:0:0:0:
260,260,197888,1,0,0:0:0:0:
280,212,197995,1,0,0:0:0:0:
284,160,198102,2,0,P|244:128|148:148,1,125.999996154785,14|0,0:0|0:0,0:0:0:0:
80,80,198530,5,4,0:0:0:0:
356,328,198959,1,4,0:0:0:0:
244,48,199388,1,4,0:0:0:0:
168,344,199816,1,4,0:0:0:0:
432,128,200245,5,4,0:0:0:0:
64,88,200673,1,4,0:0:0:0:
352,348,201102,1,4,0:0:0:0:
240,48,201530,1,4,0:0:0:0:
88,344,201959,5,4,0:0:0:0:
208,76,202388,1,4,0:0:0:0:
148,356,202816,1,4,0:0:0:0:
420,64,203245,1,4,0:0:0:0:
176,80,203673,5,4,0:0:0:0:
396,344,204102,1,4,0:0:0:0:
248,44,204530,1,4,0:0:0:0:
300,344,204959,1,4,0:0:0:0:
104,80,205388,5,0,0:0:0:0:
104,80,205495,1,0,0:0:0:0:
104,80,205602,1,8,0:0:0:0:
140,340,205816,5,0,0:0:0:0:
140,340,205923,1,0,0:0:0:0:
140,340,206030,1,8,0:0:0:0:
432,316,206245,5,0,0:0:0:0:
432,316,206352,1,0,0:0:0:0:
432,316,206459,1,8,0:0:0:0:
432,36,206673,5,0,0:0:0:0:
432,36,206780,1,0,0:0:0:0:
432,36,206888,1,8,0:0:0:0:
160,176,207102,5,0,0:0:0:0:
160,176,207209,1,0,0:0:0:0:
160,176,207316,1,8,0:0:0:0:
140,328,207530,5,0,0:0:0:0:
140,328,207637,1,0,0:0:0:0:
140,328,207744,1,8,0:0:0:0:
424,280,207959,5,0,0:0:0:0:
424,280,208066,1,0,0:0:0:0:
424,280,208173,1,8,0:0:0:0:
344,92,208388,5,0,0:0:0:0:
344,92,208495,1,0,0:0:0:0:
344,92,208602,1,8,0:0:0:0:
176,176,208816,2,0,L|96:176,2,56,0|0|8,0:0|0:0|0:0,0:0:0:0:
256,276,209245,2,0,L|256:340,2,56,0|0|8,0:0|0:0|0:0,0:0:0:0:
332,176,209673,2,0,L|388:176,2,56,0|0|8,0:0|0:0|0:0,0:0:0:0:
256,84,210102,2,0,L|256:4,2,56,0|0|8,0:0|0:0|0:0,0:0:0:0:
256,192,210530,12,0,213852,0:0:0:0:
