osu file format v14

[General]
AudioFilename: [SDVX--] Hello world! [NOFX].mp3
AudioLeadIn: 0
PreviewTime: 44570
Countdown: 0
SampleSet: Soft
StackLeniency: 0.7
Mode: 3
LetterboxInBreaks: 0
SpecialStyle: 0
WidescreenStoryboard: 0

[Editor]
DistanceSpacing: 1
BeatDivisor: 4
GridSize: 4
TimelineZoom: 4.099998

[Metadata]
Title:Hello world!
TitleUnicode:Hello world!
Artist:Music by Minamotoya, Vocal by SOPHY
ArtistUnicode:Music by 源屋, Vocal by SOPHY
Creator:-SoraGami-
Version:ADVANCED
Source:SOUND VOLTEX BOOTH
Tags:Kazuma Minamoto jubeat saucer sdvx x dtm magazine collaboration contest floor infection
BeatmapID:694588
BeatmapSetID:310861

[Difficulty]
HPDrainRate:7
CircleSize:4
OverallDifficulty:8
ApproachRate:5
SliderMultiplier:1.4
SliderTickRate:1

[Events]
//Background and Video events
0,0,"BGfull.jpg.jpg",0,0
//Break Periods
//Storyboard Layer 0 (Background)
//Storyboard Layer 1 (Fail)
//Storyboard Layer 2 (Pass)
//Storyboard Layer 3 (Foreground)
//Storyboard Sound Samples

[TimingPoints]
685,342.857142857143,4,2,1,35,1,0
44570,-100,4,2,1,35,0,1
66513,-100,4,2,1,35,0,0
91542,-100,4,2,1,35,0,1
102170,-100,4,2,1,35,0,0

[HitObjects]
64,192,685,5,0,0:0:0:0:
448,192,685,1,0,0:0:0:0:
192,192,856,1,0,0:0:0:0:
320,192,1027,1,0,0:0:0:0:
64,192,1113,1,0,0:0:0:0:
192,192,1285,1,0,0:0:0:0:
448,192,1370,1,0,0:0:0:0:
64,192,1542,1,0,0:0:0:0:
320,192,1627,1,0,0:0:0:0:
192,192,1713,1,0,0:0:0:0:
448,192,1885,1,0,0:0:0:0:
64,192,2056,1,0,0:0:0:0:
320,192,2227,1,0,0:0:0:0:
192,192,2399,1,0,0:0:0:0:
448,192,2485,1,0,0:0:0:0:
320,192,2656,1,0,0:0:0:0:
64,192,2742,1,0,0:0:0:0:
448,192,2913,1,0,0:0:0:0:
192,192,2999,1,0,0:0:0:0:
320,192,3085,1,0,0:0:0:0:
64,192,3256,1,0,0:0:0:0:
192,192,3427,1,0,0:0:0:0:
320,192,3513,1,0,0:0:0:0:
448,192,3599,1,0,0:0:0:0:
64,192,3770,1,0,0:0:0:0:
448,192,3856,1,0,0:0:0:0:
320,192,4027,1,0,0:0:0:0:
192,192,4113,1,0,0:0:0:0:
448,192,4285,1,0,0:0:0:0:
64,192,4370,1,0,0:0:0:0:
320,192,4456,1,0,0:0:0:0:
192,192,4627,1,0,0:0:0:0:
448,192,4799,1,0,0:0:0:0:
320,192,4970,1,0,0:0:0:0:
64,192,5142,1,0,0:0:0:0:
448,192,5227,1,0,0:0:0:0:
192,192,5313,1,0,0:0:0:0:
320,192,5485,1,0,0:0:0:0:
192,192,5656,1,0,0:0:0:0:
320,192,5827,1,0,0:0:0:0:
192,192,5999,1,0,0:0:0:0:
320,192,6170,1,0,0:0:0:70:kick.wav
448,192,6170,1,0,0:0:0:0:
64,192,6170,1,0,0:0:0:0:
192,192,6342,1,0,0:0:0:0:
64,192,6513,1,0,0:0:0:70:kick.wav
320,192,6513,1,0,0:0:0:0:
192,192,6685,1,0,0:0:0:0:
320,192,6856,1,0,0:0:0:70:kick.wav
448,192,6856,1,0,0:0:0:0:
192,192,7027,1,0,0:0:0:0:
320,192,7113,1,0,0:0:0:0:
64,192,7199,1,0,0:0:0:70:kick.wav
448,192,7199,1,0,0:0:0:0:
192,192,7285,1,0,0:0:0:0:
320,192,7370,1,0,0:0:0:0:
448,192,7542,1,0,0:0:0:70:kick.wav
192,192,7542,1,0,0:0:0:0:
320,192,7713,1,0,0:0:0:0:
64,192,7799,1,0,0:0:0:0:
448,192,7885,1,0,0:0:0:70:kick.wav
192,192,7970,1,0,0:0:0:0:
320,192,8056,1,0,0:0:0:0:
64,192,8142,1,0,0:0:0:0:
448,192,8227,1,0,0:0:0:70:kick.wav
192,192,8313,1,0,0:0:0:0:
320,192,8399,1,0,0:0:0:0:
192,192,8485,1,0,0:0:0:0:
64,192,8570,1,0,0:0:0:70:kick.wav
448,192,8570,1,0,0:0:0:0:
192,192,8742,1,0,0:0:0:0:
320,192,8913,1,0,0:0:0:70:kick.wav
448,192,8913,1,0,0:0:0:0:
320,192,9085,1,0,0:0:0:70:kick.wav
192,192,9085,1,0,0:0:0:0:
64,192,9256,1,0,0:0:0:70:kick.wav
448,192,9256,1,0,0:0:0:0:
192,192,9427,1,0,0:0:0:70:kick.wav
64,192,9427,1,0,0:0:0:0:
192,192,9599,1,0,0:0:0:70:kick.wav
448,192,9599,1,0,0:0:0:0:
448,192,9770,1,0,0:0:0:70:kick.wav
320,192,9770,1,0,0:0:0:0:
320,192,9942,1,0,0:0:0:70:kick.wav
64,192,9942,1,0,0:0:0:0:
192,192,10113,1,0,0:0:0:70:kick.wav
64,192,10113,1,0,0:0:0:70:cymbal.wav
448,192,10113,1,0,0:0:0:0:
320,192,10799,128,0,11656:0:0:0:0:
448,192,11656,1,0,0:0:0:70:cymbal.wav
64,192,11656,1,0,0:0:0:70:kick.wav
192,192,11656,1,0,0:0:0:0:
320,192,11742,1,0,0:0:0:0:
192,192,11827,1,0,0:0:0:0:
64,192,11913,1,0,0:0:0:0:
320,192,11999,1,0,0:0:0:50:clap.wav
448,192,11999,1,0,0:0:0:0:
192,192,12170,1,0,0:0:0:0:
448,192,12342,1,0,0:0:0:70:kick.wav
64,192,12342,1,0,0:0:0:0:
320,192,12513,1,0,0:0:0:0:
192,192,12685,1,0,0:0:0:50:clap.wav
64,192,12685,1,0,0:0:0:0:
320,192,12856,1,0,0:0:0:0:
64,192,13027,1,0,0:0:0:70:kick.wav
448,192,13027,1,0,0:0:0:0:
320,192,13113,1,0,0:0:0:0:
192,192,13199,1,0,0:0:0:0:
64,192,13285,1,0,0:0:0:0:
448,192,13370,1,0,0:0:0:50:clap.wav
192,192,13370,1,0,0:0:0:0:
320,192,13542,1,0,0:0:0:0:
448,192,13713,1,0,0:0:0:70:kick.wav
64,192,13713,1,0,0:0:0:0:
192,192,13885,1,0,0:0:0:0:
320,192,14056,1,0,0:0:0:50:clap.wav
448,192,14056,1,0,0:0:0:0:
192,192,14227,1,0,0:0:0:0:
448,192,14399,1,0,0:0:0:70:kick.wav
64,192,14399,1,0,0:0:0:0:
320,192,14485,1,0,0:0:0:0:
192,192,14570,1,0,0:0:0:0:
64,192,14656,1,0,0:0:0:0:
192,192,14742,1,0,0:0:0:50:clap.wav
320,192,14742,1,0,0:0:0:0:
448,192,14913,1,0,0:0:0:0:
192,192,15085,1,0,0:0:0:70:kick.wav
64,192,15085,1,0,0:0:0:0:
320,192,15256,1,0,0:0:0:0:
448,192,15427,1,0,0:0:0:50:clap.wav
64,192,15427,1,0,0:0:0:0:
192,192,15599,1,0,0:0:0:70:cymbal.wav
320,192,15599,1,0,0:0:0:70:kick.wav
448,192,15599,1,0,0:0:0:0:
64,192,15942,1,0,0:0:0:70:kick.wav
192,192,15942,1,0,0:0:0:0:
320,192,16285,1,0,0:0:0:70:kick.wav
448,192,16285,1,0,0:0:0:0:
64,192,16627,1,0,0:0:0:70:kick.wav
192,192,16627,1,0,0:0:0:70:cymbal.wav
448,192,16627,1,0,0:0:0:0:
320,192,16799,1,0,0:0:0:0:
192,192,16970,1,0,0:0:0:70:kick.wav
448,192,16970,1,0,0:0:0:0:
448,192,17142,1,0,0:0:0:70:kick.wav
320,192,17142,1,0,0:0:0:70:cymbal.wav
64,192,17142,1,0,0:0:0:0:
192,192,17227,1,0,0:0:0:0:
320,192,17313,1,0,0:0:0:0:
448,192,17399,1,0,0:0:0:0:
64,192,17485,1,0,0:0:0:50:clap.wav
320,192,17485,1,0,0:0:0:0:
192,192,17656,1,0,0:0:0:0:
448,192,17827,1,0,0:0:0:70:kick.wav
320,192,17827,1,0,0:0:0:0:
192,192,17999,1,0,0:0:0:0:
448,192,18170,1,0,0:0:0:50:clap.wav
64,192,18170,1,0,0:0:0:0:
320,192,18342,1,0,0:0:0:0:
448,192,18513,1,0,0:0:0:70:kick.wav
64,192,18513,1,0,0:0:0:0:
192,192,18599,1,0,0:0:0:0:
320,192,18685,1,0,0:0:0:0:
448,192,18770,1,0,0:0:0:0:
64,192,18856,1,0,0:0:0:50:clap.wav
192,192,18856,1,0,0:0:0:0:
320,192,19027,1,0,0:0:0:0:
448,192,19199,1,0,0:0:0:70:kick.wav
64,192,19199,1,0,0:0:0:0:
192,192,19370,1,0,0:0:0:0:
448,192,19542,1,0,0:0:0:50:clap.wav
320,192,19542,1,0,0:0:0:0:
64,192,19713,1,0,0:0:0:0:
192,192,19885,1,0,0:0:0:70:kick.wav
448,192,19885,1,0,0:0:0:0:
448,192,20056,1,0,0:0:0:70:kick.wav
320,192,20056,1,0,0:0:0:0:
64,192,20227,1,0,0:0:0:70:kick.wav
320,192,20227,1,0,0:0:0:50:clap.wav
448,192,20399,1,0,0:0:0:70:kick.wav
64,192,20399,1,0,0:0:0:0:
192,192,20570,1,0,0:0:0:70:kick.wav
448,192,20570,1,0,0:0:0:0:
320,192,20742,1,0,0:0:0:70:kick.wav
192,192,20742,1,0,0:0:0:0:
64,192,20913,1,0,0:0:0:50:clap.wav
448,192,20913,1,0,0:0:0:70:kick.wav
192,192,21085,1,0,0:0:0:70:cymbal.wav
64,192,21085,1,0,0:0:0:70:kick.wav
320,192,21085,1,0,0:0:0:0:
448,192,21256,1,0,0:0:0:0:
320,192,21342,1,0,0:0:0:0:
192,192,21427,1,0,0:0:0:0:
64,192,21513,1,0,0:0:0:0:
448,192,21599,1,0,0:0:0:0:
192,192,21685,1,0,0:0:0:0:
64,192,21770,1,0,0:0:0:0:
320,192,21856,1,0,0:0:0:0:
192,192,22027,1,0,0:0:0:0:
448,192,22113,1,0,0:0:0:0:
320,192,22285,1,0,0:0:0:0:
192,192,22456,1,0,0:0:0:0:
320,192,22627,1,0,0:0:0:70:cymbal.wav
448,192,22627,1,0,0:0:0:70:kick.wav
64,192,22627,1,0,0:0:0:0:
192,192,22799,1,0,0:0:0:0:
448,192,22970,1,0,0:0:0:50:clap.wav
64,192,22970,1,0,0:0:0:0:
320,192,23142,1,0,0:0:0:0:
448,192,23313,1,0,0:0:0:70:kick.wav
192,192,23313,1,0,0:0:0:0:
64,192,23485,1,0,0:0:0:0:
320,192,23656,1,0,0:0:0:50:clap.wav
448,192,23656,1,0,0:0:0:0:
192,192,23827,1,0,0:0:0:0:
448,192,23999,1,0,0:0:0:70:kick.wav
64,192,23999,1,0,0:0:0:0:
320,192,24170,1,0,0:0:0:0:
64,192,24342,1,0,0:0:0:50:clap.wav
192,192,24342,1,0,0:0:0:0:
448,192,24513,1,0,0:0:0:0:
320,192,24685,1,0,0:0:0:70:kick.wav
64,192,24685,1,0,0:0:0:0:
192,192,24856,1,0,0:0:0:0:
320,192,25027,1,0,0:0:0:50:clap.wav
448,192,25027,1,0,0:0:0:0:
64,192,25199,1,0,0:0:0:0:
192,192,25370,1,0,0:0:0:70:kick.wav
448,192,25370,1,0,0:0:0:0:
320,192,25542,1,0,0:0:0:0:
448,192,25713,1,0,0:0:0:50:clap.wav
64,192,25713,1,0,0:0:0:0:
192,192,25885,1,0,0:0:0:0:
320,192,26056,1,0,0:0:0:70:kick.wav
448,192,26056,1,0,0:0:0:0:
64,192,26227,1,0,0:0:0:0:
192,192,26399,1,0,0:0:0:50:clap.wav
448,192,26399,1,0,0:0:0:0:
320,192,26570,1,0,0:0:0:70:kick.wav
448,192,26570,1,0,0:0:0:70:cymbal.wav
64,192,26570,1,0,0:0:0:0:
192,192,26913,1,0,0:0:0:70:kick.wav
64,192,26913,1,0,0:0:0:0:
320,192,27085,1,0,0:0:0:0:
448,192,27256,1,0,0:0:0:70:kick.wav
192,192,27256,1,0,0:0:0:0:
320,192,27599,128,0,27770:0:0:0:70:kick.wav
64,192,27599,1,0,0:0:0:0:
448,192,27770,1,0,0:0:0:50:clap.wav
192,192,27770,128,0,27942:0:0:0:0:
64,192,27942,128,0,28113:0:0:0:0:
448,192,28113,1,0,0:0:0:70:cymbal.wav
320,192,28113,1,0,0:0:0:70:kick.wav
64,192,28285,1,0,0:0:0:0:
320,192,28456,1,0,0:0:0:50:clap.wav
448,192,28456,1,0,0:0:0:0:
192,192,28627,1,0,0:0:0:0:
320,192,28799,1,0,0:0:0:70:kick.wav
64,192,28799,1,0,0:0:0:0:
448,192,28970,1,0,0:0:0:0:
192,192,29142,1,0,0:0:0:50:clap.wav
64,192,29142,1,0,0:0:0:0:
320,192,29313,1,0,0:0:0:0:
448,192,29485,1,0,0:0:0:70:kick.wav
192,192,29485,1,0,0:0:0:0:
64,192,29656,1,0,0:0:0:0:
320,192,29827,1,0,0:0:0:50:clap.wav
448,192,29827,1,0,0:0:0:0:
192,192,29999,1,0,0:0:0:0:
64,192,30170,1,0,0:0:0:70:kick.wav
320,192,30170,1,0,0:0:0:0:
448,192,30342,1,0,0:0:0:0:
320,192,30513,1,0,0:0:0:50:clap.wav
192,192,30513,1,0,0:0:0:0:
64,192,30685,1,0,0:0:0:0:
320,192,30856,1,0,0:0:0:70:kick.wav
448,192,30856,1,0,0:0:0:0:
192,192,31027,1,0,0:0:0:0:
448,192,31199,1,0,0:0:0:50:clap.wav
64,192,31199,1,0,0:0:0:0:
320,192,31370,1,0,0:0:0:0:
192,192,31542,1,0,0:0:0:70:kick.wav
448,192,31542,1,0,0:0:0:0:
64,192,31713,1,0,0:0:0:0:
320,192,31885,1,0,0:0:0:50:clap.wav
192,192,31885,1,0,0:0:0:0:
320,192,32056,1,0,0:0:0:70:kick.wav
64,192,32056,1,0,0:0:0:70:cymbal.wav
448,192,32056,1,0,0:0:0:0:
192,192,32399,1,0,0:0:0:70:kick.wav
64,192,32399,1,0,0:0:0:0:
320,192,32570,1,0,0:0:0:0:
448,192,32742,1,0,0:0:0:70:cymbal.wav
64,192,32742,1,0,0:0:0:70:kick.wav
192,192,32742,1,0,0:0:0:0:
320,192,32913,1,0,0:0:0:0:
192,192,33085,1,0,0:0:0:0:
64,192,33256,1,0,0:0:0:0:
192,192,33342,1,0,0:0:0:0:
320,192,33427,1,0,0:0:0:0:
448,192,33513,1,0,0:0:0:0:
192,192,33599,1,0,0:0:0:70:kick.wav
64,192,33599,1,0,0:0:0:70:cymbal.wav
320,192,33599,1,0,0:0:0:0:
448,192,33942,1,0,0:0:0:50:clap.wav
64,192,33942,1,0,0:0:0:0:
192,192,34113,1,0,0:0:0:70:kick.wav
320,192,34113,1,0,0:0:0:0:
192,192,34285,128,0,34627:0:0:0:70:kick.wav
320,192,34285,128,0,34627:0:0:0:0:
448,192,34627,1,0,0:0:0:50:clap.wav
64,192,34627,1,0,0:0:0:0:
320,192,34970,1,0,0:0:0:70:kick.wav
64,192,34970,1,0,0:0:0:0:
448,192,35313,1,0,0:0:0:50:clap.wav
192,192,35313,1,0,0:0:0:0:
320,192,35485,1,0,0:0:0:70:kick.wav
64,192,35485,1,0,0:0:0:0:
64,192,35656,128,0,35999:0:0:0:70:kick.wav
320,192,35656,128,0,35999:0:0:0:0:
192,192,35999,1,0,0:0:0:50:clap.wav
448,192,35999,1,0,0:0:0:0:
448,192,36342,1,0,0:0:0:70:kick.wav
64,192,36342,1,0,0:0:0:0:
192,192,36685,1,0,0:0:0:50:clap.wav
320,192,36685,1,0,0:0:0:0:
64,192,36856,1,0,0:0:0:70:kick.wav
448,192,36856,1,0,0:0:0:0:
64,192,37027,128,0,37370:0:0:0:70:kick.wav
448,192,37027,128,0,37370:0:0:0:0:
192,192,37370,1,0,0:0:0:50:clap.wav
320,192,37370,1,0,0:0:0:0:
448,192,37542,1,0,0:0:0:70:cymbal.wav
320,192,37542,1,0,0:0:0:70:kick.wav
64,192,37542,1,0,0:0:0:0:
192,192,37885,1,0,0:0:0:70:kick.wav
64,192,37885,1,0,0:0:0:0:
192,192,38227,1,0,0:0:0:70:kick.wav
320,192,38227,1,0,0:0:0:0:
448,192,38570,1,0,0:0:0:70:cymbal.wav
320,192,38570,1,0,0:0:0:70:kick.wav
64,192,38570,1,0,0:0:0:0:
192,192,38913,1,0,0:0:0:0:
320,192,38999,1,0,0:0:0:0:
64,192,39085,1,0,0:0:0:70:kick.wav
448,192,39085,1,0,0:0:0:70:cymbal.wav
192,192,39085,1,0,0:0:0:0:
320,192,39256,1,0,0:0:0:0:
448,192,39427,1,0,0:0:0:50:clap.wav
64,192,39427,1,0,0:0:0:0:
192,192,39599,1,0,0:0:0:0:
320,192,39770,1,0,0:0:0:70:kick.wav
64,192,39770,1,0,0:0:0:0:
448,192,39942,1,0,0:0:0:0:
320,192,40113,1,0,0:0:0:50:clap.wav
192,192,40113,1,0,0:0:0:0:
64,192,40285,1,0,0:0:0:0:
448,192,40456,1,0,0:0:0:70:kick.wav
192,192,40456,1,0,0:0:0:0:
320,192,40627,1,0,0:0:0:0:
64,192,40799,1,0,0:0:0:50:clap.wav
448,192,40799,1,0,0:0:0:0:
192,192,40970,1,0,0:0:0:0:
320,192,41142,1,0,0:0:0:70:kick.wav
448,192,41142,1,0,0:0:0:0:
64,192,41313,1,0,0:0:0:0:
320,192,41485,1,0,0:0:0:50:clap.wav
192,192,41485,1,0,0:0:0:0:
448,192,41656,1,0,0:0:0:0:
64,192,41827,1,0,0:0:0:70:kick.wav
320,192,41827,1,0,0:0:0:0:
192,192,41999,1,0,0:0:0:0:
448,192,42170,1,0,0:0:0:50:clap.wav
64,192,42170,1,0,0:0:0:0:
320,192,42342,1,0,0:0:0:0:
448,192,42513,1,0,0:0:0:70:kick.wav
64,192,42513,1,0,0:0:0:0:
320,192,42685,1,0,0:0:0:70:kick.wav
192,192,42685,1,0,0:0:0:0:
192,192,42856,1,0,0:0:0:70:kick.wav
64,192,42856,1,0,0:0:0:0:
448,192,42942,1,0,0:0:0:70:kick.wav
320,192,43027,1,0,0:0:0:70:kick.wav
192,192,43113,1,0,0:0:0:70:kick.wav
64,192,43199,1,0,0:0:0:70:cymbal.wav
448,192,43199,1,0,0:0:0:70:kick.wav
320,192,43199,1,0,0:0:0:0:
192,192,43713,1,0,0:0:0:0:
448,192,43799,1,0,0:0:0:0:
64,192,44056,1,0,0:0:0:0:
192,192,44056,1,0,0:0:0:0:
320,192,44227,128,0,44570:0:0:0:0:
448,192,44227,1,0,0:0:0:0:
448,192,44570,1,0,0:0:0:70:cymbal.wav
192,192,44570,1,0,0:0:0:70:kick.wav
64,192,44570,128,0,44913:0:0:0:0:
320,192,44742,1,0,0:0:0:0:
192,192,44913,1,0,0:0:0:50:clap.wav
448,192,44913,128,0,45256:0:0:0:0:
320,192,45085,1,0,0:0:0:0:
64,192,45256,1,0,0:0:0:70:kick.wav
192,192,45256,1,0,0:0:0:0:
448,192,45427,1,0,0:0:0:0:
64,192,45599,1,0,0:0:0:50:clap.wav
320,192,45599,1,0,0:0:0:0:
448,192,45770,128,0,46285:0:0:0:0:
192,192,45942,1,0,0:0:0:70:kick.wav
64,192,45942,1,0,0:0:0:0:
320,192,46113,1,0,0:0:0:0:
64,192,46285,1,0,0:0:0:50:clap.wav
192,192,46285,128,0,46627:0:0:0:0:
320,192,46456,1,0,0:0:0:0:
448,192,46627,1,0,0:0:0:70:kick.wav
64,192,46627,1,0,0:0:0:0:
320,192,46799,1,0,0:0:0:0:
448,192,46970,1,0,0:0:0:50:clap.wav
64,192,46970,1,0,0:0:0:0:
192,192,47142,1,0,0:0:0:0:
320,192,47313,128,0,47656:0:0:0:70:kick.wav
64,192,47313,1,0,0:0:0:0:
448,192,47485,1,0,0:0:0:0:
192,192,47656,1,0,0:0:0:50:clap.wav
64,192,47656,128,0,47999:0:0:0:0:
320,192,47827,1,0,0:0:0:0:
448,192,47999,128,0,48342:0:0:0:70:kick.wav
192,192,47999,1,0,0:0:0:0:
320,192,48170,1,0,0:0:0:0:
64,192,48342,1,0,0:0:0:50:clap.wav
192,192,48342,1,0,0:0:0:0:
320,192,48513,1,0,0:0:0:70:kick.wav
64,192,48513,1,0,0:0:0:70:cymbal.wav
448,192,48513,1,0,0:0:0:0:
192,192,48856,1,0,0:0:0:70:kick.wav
448,192,48856,1,0,0:0:0:0:
192,192,49199,1,0,0:0:0:70:kick.wav
320,192,49199,1,0,0:0:0:0:
448,192,49542,1,0,0:0:0:70:kick.wav
64,192,49542,1,0,0:0:0:70:cymbal.wav
320,192,49542,1,0,0:0:0:0:
192,192,49713,1,0,0:0:0:0:
320,192,49885,1,0,0:0:0:0:
64,192,50056,1,0,0:0:0:70:cymbal.wav
448,192,50056,1,0,0:0:0:70:kick.wav
192,192,50056,128,0,50227:0:0:0:0:
320,192,50227,128,0,50399:0:0:0:0:
192,192,50399,1,0,0:0:0:50:clap.wav
64,192,50399,128,0,50570:0:0:0:0:
448,192,50570,128,0,51085:0:0:0:0:
320,192,50742,1,0,0:0:0:70:kick.wav
64,192,50742,1,0,0:0:0:0:
320,192,50913,1,0,0:0:0:0:
192,192,51085,1,0,0:0:0:50:clap.wav
64,192,51085,1,0,0:0:0:0:
320,192,51256,1,0,0:0:0:0:
64,192,51427,128,0,51942:0:0:0:70:kick.wav
448,192,51427,1,0,0:0:0:0:
192,192,51599,1,0,0:0:0:0:
448,192,51770,1,0,0:0:0:50:clap.wav
320,192,51770,1,0,0:0:0:0:
320,192,51942,128,0,52456:0:0:0:0:
448,192,52113,1,0,0:0:0:70:kick.wav
64,192,52113,1,0,0:0:0:0:
192,192,52285,1,0,0:0:0:0:
448,192,52456,1,0,0:0:0:50:clap.wav
64,192,52456,1,0,0:0:0:0:
192,192,52627,1,0,0:0:0:0:
448,192,52799,128,0,53142:0:0:0:70:kick.wav
320,192,52799,1,0,0:0:0:0:
192,192,52970,1,0,0:0:0:0:
64,192,53142,128,0,53485:0:0:0:50:clap.wav
320,192,53142,1,0,0:0:0:0:
192,192,53313,1,0,0:0:0:0:
448,192,53485,128,0,53827:0:0:0:70:kick.wav
320,192,53485,1,0,0:0:0:0:
192,192,53656,1,0,0:0:0:0:
64,192,53827,128,0,53999:0:0:0:50:clap.wav
320,192,53827,1,0,0:0:0:0:
192,192,53999,1,0,0:0:0:70:kick.wav
448,192,53999,1,0,0:0:0:70:cymbal.wav
320,192,53999,1,0,0:0:0:0:
64,192,54342,1,0,0:0:0:70:kick.wav
192,192,54342,1,0,0:0:0:0:
192,192,54685,1,0,0:0:0:70:kick.wav
320,192,54685,1,0,0:0:0:70:cymbal.wav
448,192,54685,1,0,0:0:0:0:
448,192,55027,1,0,0:0:0:0:
64,192,55027,1,0,0:0:0:0:
320,192,55199,1,0,0:0:0:0:
192,192,55285,1,0,0:0:0:0:
64,192,55370,1,0,0:0:0:0:
192,192,55456,1,0,0:0:0:0:
448,192,55542,1,0,0:0:0:70:kick.wav
320,192,55542,1,0,0:0:0:70:cymbal.wav
64,192,55542,128,0,55885:0:0:0:0:
192,192,55713,1,0,0:0:0:0:
320,192,55885,1,0,0:0:0:50:clap.wav
448,192,55885,128,0,56227:0:0:0:0:
192,192,56056,1,0,0:0:0:0:
320,192,56227,1,0,0:0:0:70:kick.wav
64,192,56227,1,0,0:0:0:0:
192,192,56399,1,0,0:0:0:0:
448,192,56570,1,0,0:0:0:50:clap.wav
320,192,56570,1,0,0:0:0:0:
192,192,56742,128,0,57256:0:0:0:0:
64,192,56913,1,0,0:0:0:70:kick.wav
448,192,56913,1,0,0:0:0:0:
320,192,57085,1,0,0:0:0:0:
64,192,57256,1,0,0:0:0:50:clap.wav
448,192,57256,128,0,57599:0:0:0:0:
320,192,57427,1,0,0:0:0:0:
64,192,57599,1,0,0:0:0:70:kick.wav
192,192,57599,1,0,0:0:0:0:
320,192,57770,1,0,0:0:0:0:
448,192,57942,1,0,0:0:0:50:clap.wav
192,192,57942,1,0,0:0:0:0:
320,192,58113,1,0,0:0:0:0:
448,192,58285,128,0,58627:0:0:0:70:kick.wav
64,192,58285,1,0,0:0:0:0:
192,192,58456,1,0,0:0:0:0:
320,192,58627,1,0,0:0:0:50:clap.wav
64,192,58627,128,0,58970:0:0:0:0:
192,192,58799,1,0,0:0:0:0:
320,192,58970,128,0,59313:0:0:0:70:kick.wav
448,192,58970,1,0,0:0:0:0:
192,192,59142,1,0,0:0:0:0:
64,192,59313,1,0,0:0:0:50:clap.wav
448,192,59313,1,0,0:0:0:0:
320,192,59485,1,0,0:0:0:70:kick.wav
192,192,59485,1,0,0:0:0:70:cymbal.wav
64,192,59485,1,0,0:0:0:0:
320,192,59827,1,0,0:0:0:70:kick.wav
448,192,59827,1,0,0:0:0:0:
192,192,60170,1,0,0:0:0:70:kick.wav
320,192,60170,1,0,0:0:0:0:
192,192,60513,1,0,0:0:0:70:kick.wav
64,192,60513,1,0,0:0:0:70:cymbal.wav
448,192,60513,1,0,0:0:0:0:
320,192,60685,1,0,0:0:0:0:
64,192,60856,1,0,0:0:0:0:
448,192,61027,1,0,0:0:0:70:kick.wav
192,192,61027,1,0,0:0:0:70:cymbal.wav
320,192,61027,128,0,61199:0:0:0:0:
64,192,61199,128,0,61370:0:0:0:0:
320,192,61370,1,0,0:0:0:50:clap.wav
448,192,61370,128,0,61542:0:0:0:0:
192,192,61542,128,0,62056:0:0:0:0:
448,192,61713,1,0,0:0:0:70:kick.wav
64,192,61713,1,0,0:0:0:0:
320,192,61885,1,0,0:0:0:0:
64,192,62056,1,0,0:0:0:50:clap.wav
448,192,62056,1,0,0:0:0:0:
320,192,62227,1,0,0:0:0:0:
64,192,62399,128,0,62913:0:0:0:70:kick.wav
448,192,62399,1,0,0:0:0:0:
192,192,62570,1,0,0:0:0:0:
448,192,62742,1,0,0:0:0:50:clap.wav
320,192,62742,1,0,0:0:0:0:
448,192,62913,128,0,63427:0:0:0:0:
192,192,63085,1,0,0:0:0:70:kick.wav
64,192,63085,1,0,0:0:0:0:
320,192,63256,1,0,0:0:0:0:
192,192,63427,1,0,0:0:0:50:clap.wav
64,192,63427,1,0,0:0:0:0:
448,192,63599,1,0,0:0:0:0:
320,192,63770,1,0,0:0:0:70:kick.wav
64,192,63770,1,0,0:0:0:0:
192,192,63942,1,0,0:0:0:70:kick.wav
448,192,63942,1,0,0:0:0:0:
64,192,64113,1,0,0:0:0:50:clap.wav
320,192,64113,1,0,0:0:0:70:kick.wav
64,192,64285,1,0,0:0:0:70:kick.wav
448,192,64285,1,0,0:0:0:0:
192,192,64456,1,0,0:0:0:70:kick.wav
320,192,64456,1,0,0:0:0:0:
448,192,64627,1,0,0:0:0:70:kick.wav
320,192,64627,1,0,0:0:0:0:
192,192,64799,1,0,0:0:0:50:clap.wav
64,192,64799,1,0,0:0:0:70:kick.wav
64,192,64970,1,0,0:0:0:70:cymbal.wav
320,192,64970,1,0,0:0:0:70:kick.wav
448,192,64970,1,0,0:0:0:0:
192,192,65656,1,0,0:0:0:0:
320,192,65742,1,0,0:0:0:0:
64,192,65999,1,0,0:0:0:0:
448,192,65999,1,0,0:0:0:0:
192,192,66170,128,0,66513:0:0:0:0:
320,192,66170,1,0,0:0:0:0:
448,192,66513,1,0,0:0:0:70:kick.wav
64,192,66513,1,0,0:0:0:0:
320,192,66685,1,0,0:0:0:0:
64,192,66856,1,0,0:0:0:0:
448,192,67027,1,0,0:0:0:0:
192,192,67370,1,0,0:0:0:0:
64,192,67713,1,0,0:0:0:0:
448,192,67885,1,0,0:0:0:0:
192,192,68056,1,0,0:0:0:0:
320,192,68227,1,0,0:0:0:0:
448,192,68399,1,0,0:0:0:0:
192,192,68742,1,0,0:0:0:0:
448,192,69085,1,0,0:0:0:0:
320,192,69256,1,0,0:0:0:0:
64,192,69427,1,0,0:0:0:0:
192,192,69599,1,0,0:0:0:0:
448,192,69770,1,0,0:0:0:0:
320,192,70113,1,0,0:0:0:0:
64,192,70285,1,0,0:0:0:0:
192,192,70456,1,0,0:0:0:0:
448,192,70627,1,0,0:0:0:0:
64,192,70799,1,0,0:0:0:0:
192,192,70970,1,0,0:0:0:0:
320,192,71142,1,0,0:0:0:0:
64,192,71485,1,0,0:0:0:0:
448,192,71827,1,0,0:0:0:0:
448,192,71999,1,0,0:0:0:0:
320,192,72170,1,0,0:0:0:0:
192,192,72342,1,0,0:0:0:0:
64,192,72513,1,0,0:0:0:0:
320,192,72856,1,0,0:0:0:0:
64,192,73199,1,0,0:0:0:0:
448,192,73370,1,0,0:0:0:0:
192,192,73542,1,0,0:0:0:0:
320,192,73713,1,0,0:0:0:0:
448,192,73885,1,0,0:0:0:0:
192,192,74227,1,0,0:0:0:0:
320,192,74570,1,0,0:0:0:0:
64,192,74742,1,0,0:0:0:0:
192,192,74913,1,0,0:0:0:0:
320,192,75085,1,0,0:0:0:0:
448,192,75256,1,0,0:0:0:0:
320,192,75599,1,0,0:0:0:0:
192,192,75770,1,0,0:0:0:0:
320,192,75942,1,0,0:0:0:0:
192,192,76113,1,0,0:0:0:0:
64,192,76285,1,0,0:0:0:0:
320,192,76456,1,0,0:0:0:0:
448,192,76627,1,0,0:0:0:0:
64,192,76970,1,0,0:0:0:0:
448,192,77313,1,0,0:0:0:0:
192,192,79027,1,0,0:0:0:0:
320,192,79199,1,0,0:0:0:0:
64,192,79370,1,0,0:0:0:0:
448,192,79456,1,0,0:0:0:0:
192,192,79713,1,0,0:0:0:0:
320,192,79713,1,0,0:0:0:0:
448,192,79885,128,0,80227:0:0:0:0:
64,192,79885,1,0,0:0:0:0:
320,192,80227,1,0,0:0:0:70:kick.wav
192,192,80227,1,0,0:0:0:30:clap.wav
64,192,80227,1,0,0:0:0:0:
192,192,80570,1,0,0:0:0:40:clap.wav
192,192,80913,1,0,0:0:0:40:clap.wav
192,192,81256,1,0,0:0:0:40:clap.wav
448,192,81599,1,0,0:0:0:40:clap.wav
448,192,81942,1,0,0:0:0:40:clap.wav
448,192,82285,1,0,0:0:0:40:clap.wav
448,192,82627,1,0,0:0:0:40:clap.wav
64,192,82970,1,0,0:0:0:40:clap.wav
64,192,83313,1,0,0:0:0:40:clap.wav
64,192,83656,1,0,0:0:0:40:clap.wav
64,192,83999,1,0,0:0:0:40:clap.wav
320,192,84342,1,0,0:0:0:40:clap.wav
320,192,84685,1,0,0:0:0:40:clap.wav
448,192,85027,1,0,0:0:0:40:clap.wav
448,192,85370,1,0,0:0:0:40:clap.wav
448,192,85713,1,0,0:0:0:70:kick.wav
192,192,85713,1,0,0:0:0:70:cymbal.wav
64,192,85713,1,0,0:0:0:40:clap.wav
192,192,86056,1,0,0:0:0:40:clap.wav
320,192,86056,1,0,0:0:0:70:kick.wav
64,192,86399,1,0,0:0:0:40:clap.wav
192,192,86399,1,0,0:0:0:70:kick.wav
320,192,86742,1,0,0:0:0:40:clap.wav
448,192,86742,1,0,0:0:0:70:kick.wav
192,192,87085,1,0,0:0:0:40:clap.wav
320,192,87085,1,0,0:0:0:70:kick.wav
64,192,87427,1,0,0:0:0:40:clap.wav
192,192,87427,1,0,0:0:0:70:kick.wav
192,192,87770,1,0,0:0:0:40:clap.wav
320,192,87770,1,0,0:0:0:70:kick.wav
320,192,88113,1,0,0:0:0:40:clap.wav
448,192,88113,1,0,0:0:0:70:kick.wav
192,192,88456,1,0,0:0:0:40:clap.wav
64,192,88456,1,0,0:0:0:70:kick.wav
64,192,88627,1,0,0:0:0:70:kick.wav
192,192,88627,1,0,0:0:0:0:
448,192,88799,1,0,0:0:0:40:clap.wav
320,192,88799,1,0,0:0:0:70:kick.wav
320,192,88970,1,0,0:0:0:70:kick.wav
448,192,88970,1,0,0:0:0:0:
192,192,89142,1,0,0:0:0:40:clap.wav
64,192,89142,1,0,0:0:0:70:kick.wav
64,192,89313,1,0,0:0:0:70:kick.wav
192,192,89313,1,0,0:0:0:0:
448,192,89485,1,0,0:0:0:40:clap.wav
320,192,89485,1,0,0:0:0:70:kick.wav
448,192,89656,1,0,0:0:0:70:cymbal.wav
320,192,89656,1,0,0:0:0:70:kick.wav
64,192,89656,1,0,0:0:0:0:
320,192,89999,1,0,0:0:0:70:kick.wav
192,192,89999,1,0,0:0:0:0:
192,192,90342,1,0,0:0:0:70:kick.wav
64,192,90342,1,0,0:0:0:70:cymbal.wav
448,192,90342,1,0,0:0:0:0:
320,192,90685,1,0,0:0:0:0:
64,192,90856,1,0,0:0:0:0:
192,192,90942,1,0,0:0:0:0:
320,192,91027,1,0,0:0:0:0:
448,192,91113,1,0,0:0:0:0:
192,192,91199,128,0,91542:0:0:0:0:
320,192,91542,1,0,0:0:0:30:clap.wav
64,192,91542,1,0,0:0:0:70:cymbal.wav
448,192,91542,1,0,0:0:0:0:
192,192,91713,1,0,0:0:0:0:
448,192,91885,1,0,0:0:0:70:kick.wav
64,192,91885,1,0,0:0:0:0:
320,192,92056,1,0,0:0:0:0:
448,192,92227,1,0,0:0:0:50:clap.wav
64,192,92227,1,0,0:0:0:0:
192,192,92399,128,0,92913:0:0:0:0:
448,192,92570,1,0,0:0:0:70:kick.wav
320,192,92570,1,0,0:0:0:0:
64,192,92742,1,0,0:0:0:0:
448,192,92913,128,0,93256:0:0:0:50:clap.wav
320,192,92913,1,0,0:0:0:0:
192,192,93085,1,0,0:0:0:0:
320,192,93256,1,0,0:0:0:70:kick.wav
64,192,93256,1,0,0:0:0:0:
192,192,93427,1,0,0:0:0:0:
320,192,93599,1,0,0:0:0:50:clap.wav
448,192,93599,1,0,0:0:0:0:
64,192,93770,1,0,0:0:0:0:
192,192,93942,128,0,94285:0:0:0:70:kick.wav
448,192,93942,1,0,0:0:0:0:
320,192,94113,1,0,0:0:0:0:
64,192,94285,128,0,94627:0:0:0:50:clap.wav
448,192,94285,1,0,0:0:0:0:
192,192,94456,1,0,0:0:0:0:
448,192,94627,128,0,94970:0:0:0:70:kick.wav
320,192,94627,1,0,0:0:0:0:
192,192,94799,1,0,0:0:0:0:
64,192,94970,1,0,0:0:0:50:clap.wav
320,192,94970,1,0,0:0:0:0:
448,192,95142,1,0,0:0:0:70:kick.wav
192,192,95142,1,0,0:0:0:70:cymbal.wav
64,192,95142,1,0,0:0:0:0:
448,192,95485,1,0,0:0:0:70:kick.wav
320,192,95485,1,0,0:0:0:0:
320,192,95827,1,0,0:0:0:70:kick.wav
192,192,95827,1,0,0:0:0:0:
64,192,96170,1,0,0:0:0:70:cymbal.wav
192,192,96170,1,0,0:0:0:70:kick.wav
448,192,96170,1,0,0:0:0:0:
320,192,96342,1,0,0:0:0:0:
192,192,96513,1,0,0:0:0:0:
448,192,96685,1,0,0:0:0:70:kick.wav
320,192,96685,128,0,96856:0:0:0:70:cymbal.wav
64,192,96685,1,0,0:0:0:0:
192,192,96856,128,0,97027:0:0:0:0:
320,192,97027,1,0,0:0:0:50:clap.wav
448,192,97027,128,0,97199:0:0:0:0:
64,192,97199,128,0,97713:0:0:0:0:
448,192,97370,1,0,0:0:0:70:kick.wav
192,192,97370,1,0,0:0:0:0:
192,192,97542,1,0,0:0:0:0:
320,192,97713,1,0,0:0:0:50:clap.wav
448,192,97713,1,0,0:0:0:0:
64,192,97885,1,0,0:0:0:0:
448,192,98056,128,0,98570:0:0:0:70:kick.wav
192,192,98056,1,0,0:0:0:0:
320,192,98227,1,0,0:0:0:0:
64,192,98399,1,0,0:0:0:50:clap.wav
192,192,98399,1,0,0:0:0:0:
64,192,98570,128,0,99085:0:0:0:0:
320,192,98742,1,0,0:0:0:70:kick.wav
448,192,98742,1,0,0:0:0:0:
192,192,98913,1,0,0:0:0:0:
320,192,99085,1,0,0:0:0:50:clap.wav
448,192,99085,1,0,0:0:0:0:
64,192,99256,1,0,0:0:0:0:
192,192,99427,1,0,0:0:0:70:kick.wav
448,192,99427,1,0,0:0:0:0:
320,192,99599,1,0,0:0:0:70:kick.wav
64,192,99599,1,0,0:0:0:0:
192,192,99770,1,0,0:0:0:70:kick.wav
320,192,99770,1,0,0:0:0:50:clap.wav
448,192,99942,1,0,0:0:0:70:kick.wav
64,192,99942,1,0,0:0:0:0:
192,192,100113,1,0,0:0:0:70:kick.wav
320,192,100113,1,0,0:0:0:0:
192,192,100285,1,0,0:0:0:70:kick.wav
64,192,100285,1,0,0:0:0:0:
448,192,100456,1,0,0:0:0:50:clap.wav
320,192,100456,1,0,0:0:0:70:kick.wav
448,192,100627,1,0,0:0:0:70:kick.wav
64,192,100627,1,0,0:0:0:70:cymbal.wav
192,192,100627,1,0,0:0:0:0:
64,192,101313,1,0,0:0:0:0:
320,192,101399,1,0,0:0:0:0:
448,192,101656,1,0,0:0:0:0:
192,192,101656,1,0,0:0:0:0:
320,192,101827,128,0,102170:0:0:0:0:
64,192,101827,1,0,0:0:0:0:
192,192,102170,1,0,0:0:0:70:cymbal.wav
64,192,102170,1,0,0:0:0:70:kick.wav
448,192,102170,1,0,0:0:0:0:
320,192,102256,1,0,0:0:0:0:
192,192,102342,1,0,0:0:0:0:
64,192,102427,1,0,0:0:0:0:
320,192,102513,1,0,0:0:0:50:clap.wav
448,192,102513,1,0,0:0:0:0:
192,192,102685,1,0,0:0:0:0:
320,192,102770,1,0,0:0:0:0:
448,192,102856,1,0,0:0:0:70:kick.wav
64,192,102856,1,0,0:0:0:0:
192,192,102942,1,0,0:0:0:0:
320,192,103027,1,0,0:0:0:0:
448,192,103199,1,0,0:0:0:50:clap.wav
64,192,103199,1,0,0:0:0:0:
192,192,103370,1,0,0:0:0:0:
64,192,103542,1,0,0:0:0:70:kick.wav
448,192,103542,1,0,0:0:0:0:
320,192,103627,1,0,0:0:0:0:
192,192,103713,1,0,0:0:0:0:
64,192,103799,1,0,0:0:0:0:
192,192,103885,1,0,0:0:0:50:clap.wav
448,192,103885,1,0,0:0:0:0:
320,192,104056,1,0,0:0:0:0:
192,192,104142,1,0,0:0:0:0:
448,192,104227,1,0,0:0:0:70:kick.wav
64,192,104227,1,0,0:0:0:0:
320,192,104313,1,0,0:0:0:0:
192,192,104399,1,0,0:0:0:0:
320,192,104570,1,0,0:0:0:50:clap.wav
448,192,104570,1,0,0:0:0:0:
192,192,104742,1,0,0:0:0:0:
448,192,104913,1,0,0:0:0:70:kick.wav
64,192,104913,1,0,0:0:0:0:
320,192,104999,1,0,0:0:0:0:
192,192,105085,1,0,0:0:0:0:
64,192,105170,1,0,0:0:0:0:
192,192,105256,1,0,0:0:0:50:clap.wav
448,192,105256,1,0,0:0:0:0:
320,192,105427,1,0,0:0:0:0:
448,192,105513,1,0,0:0:0:0:
64,192,105599,1,0,0:0:0:70:kick.wav
192,192,105599,1,0,0:0:0:0:
320,192,105685,1,0,0:0:0:0:
448,192,105770,1,0,0:0:0:0:
320,192,105942,1,0,0:0:0:50:clap.wav
64,192,105942,1,0,0:0:0:0:
192,192,106113,1,0,0:0:0:70:kick.wav
64,192,106113,1,0,0:0:0:70:cymbal.wav
448,192,106113,1,0,0:0:0:0:
320,192,106456,1,0,0:0:0:70:kick.wav
448,192,106456,1,0,0:0:0:0:
64,192,106799,1,0,0:0:0:70:kick.wav
192,192,106799,1,0,0:0:0:0:
320,192,107142,1,0,0:0:0:70:kick.wav
448,192,107142,1,0,0:0:0:70:cymbal.wav
64,192,107142,1,0,0:0:0:0:
320,192,107485,1,0,0:0:0:70:kick.wav
192,192,107570,1,0,0:0:0:70:kick.wav
64,192,107656,1,0,0:0:0:70:kick.wav
448,192,107656,1,0,0:0:0:70:cymbal.wav
320,192,107656,1,0,0:0:0:0:
192,192,107742,1,0,0:0:0:0:
320,192,107827,1,0,0:0:0:0:
448,192,107913,1,0,0:0:0:0:
192,192,107999,1,0,0:0:0:50:clap.wav
64,192,107999,1,0,0:0:0:0:
320,192,108170,1,0,0:0:0:0:
448,192,108256,1,0,0:0:0:0:
192,192,108342,1,0,0:0:0:70:kick.wav
64,192,108342,1,0,0:0:0:0:
320,192,108427,1,0,0:0:0:0:
192,192,108513,1,0,0:0:0:0:
64,192,108685,1,0,0:0:0:50:clap.wav
448,192,108685,1,0,0:0:0:0:
320,192,108856,1,0,0:0:0:0:
64,192,109027,1,0,0:0:0:70:kick.wav
448,192,109027,1,0,0:0:0:0:
192,192,109113,1,0,0:0:0:0:
320,192,109199,1,0,0:0:0:0:
448,192,109285,1,0,0:0:0:0:
192,192,109370,1,0,0:0:0:50:clap.wav
64,192,109370,1,0,0:0:0:0:
320,192,109542,1,0,0:0:0:0:
192,192,109627,1,0,0:0:0:0:
64,192,109713,1,0,0:0:0:70:kick.wav
448,192,109713,1,0,0:0:0:0:
320,192,109799,1,0,0:0:0:0:
192,192,109885,1,0,0:0:0:0:
64,192,110056,1,0,0:0:0:50:clap.wav
448,192,110056,1,0,0:0:0:0:
320,192,110227,1,0,0:0:0:70:kick.wav
192,192,110313,1,0,0:0:0:70:kick.wav
448,192,110399,1,0,0:0:0:70:kick.wav
320,192,110399,1,0,0:0:0:70:cymbal.wav
64,192,110399,1,0,0:0:0:0:
192,192,110570,1,0,0:0:0:70:kick.wav
64,192,110570,1,0,0:0:0:0:
320,192,110742,1,0,0:0:0:70:kick.wav
448,192,110742,1,0,0:0:0:50:clap.wav
192,192,110913,1,0,0:0:0:70:kick.wav
64,192,110913,1,0,0:0:0:0:
192,192,111085,1,0,0:0:0:70:kick.wav
320,192,111085,1,0,0:0:0:0:
448,192,111256,1,0,0:0:0:70:kick.wav
64,192,111256,1,0,0:0:0:0:
192,192,111427,1,0,0:0:0:50:clap.wav
320,192,111427,1,0,0:0:0:70:kick.wav
192,192,111599,1,0,0:0:0:70:cymbal.wav
64,192,111599,1,0,0:0:0:70:kick.wav
448,192,111599,1,0,0:0:0:0:
448,192,111770,1,0,0:0:0:0:
320,192,111856,1,0,0:0:0:0:
192,192,111942,1,0,0:0:0:0:
64,192,112027,1,0,0:0:0:0:
448,192,112113,1,0,0:0:0:0:
192,192,112199,1,0,0:0:0:0:
64,192,112285,1,0,0:0:0:0:
320,192,112370,1,0,0:0:0:0:
192,192,112542,1,0,0:0:0:0:
448,192,112627,1,0,0:0:0:0:
320,192,112799,128,0,113142:0:0:0:0:
192,192,112970,128,0,113142:0:0:0:0:
448,192,113142,1,0,0:0:0:70:kick.wav
64,192,113142,128,0,115885:0:0:0:70:cymbal.wav
