osu file format v14

[General]
AudioFilename: audio.mp3
AudioLeadIn: 0
PreviewTime: 60172
Countdown: 1
SampleSet: Normal
StackLeniency: 0.5
Mode: 0
LetterboxInBreaks: 0
WidescreenStoryboard: 1

[Editor]
Bookmarks: 2572,12172,21772,33172,40972,60172,79372,88972,108172,127372,146572,151372,180172,199372,218572
DistanceSpacing: 1.5
BeatDivisor: 4
GridSize: 8
TimelineZoom: 0.9

[Metadata]
Title:The Dark Side
TitleUnicode:The Dark Side
Artist:Muse
ArtistUnicode:Muse
Creator:Nenonious
Version:ar10
Source:
Tags:rock
BeatmapID:1839911
BeatmapSetID:879834

[Difficulty]
HPDrainRate:5
CircleSize:3.8
OverallDifficulty:8
ApproachRate:10
SliderMultiplier:3
SliderTickRate:1

[Events]
//Background and Video events
0,0,"background.png",0,0
//Break Periods
//Storyboard Layer 0 (Background)
//Storyboard Layer 1 (Fail)
//Storyboard Layer 2 (Pass)
//Storyboard Layer 3 (Foreground)
//Storyboard Sound Samples

[TimingPoints]
172,600,4,1,0,50,1,0
60172,-100,4,1,0,50,0,1
79372,-100,4,1,0,50,0,0
127372,-100,4,1,0,50,0,1
146572,-100,4,1,0,50,0,0
180172,-100,4,1,0,50,0,1
199372,-100,4,1,0,50,0,1
199372,-100,4,1,0,50,0,0
218572,-100,4,1,0,50,0,0

[Colours]
Combo1 : 0,128,255
Combo2 : 255,193,132
Combo3 : 0,128,0
Combo4 : 255,128,192

[HitObjects]
146,147,172,5,0,0:0:0:0:
366,147,772,1,0,0:0:0:0:
146,147,1372,1,0,0:0:0:0:
366,147,1972,1,0,0:0:0:0:
99,69,2272,1,0,0:0:0:0:
43,148,2422,1,0,0:0:0:0:
83,235,2572,6,0,L|157:228,1,75
254,217,2872,1,0,0:0:0:0:
293,127,3022,1,0,0:0:0:0:
235,49,3172,1,0,0:0:0:0:
293,127,3322,1,0,0:0:0:0:
391,116,3472,1,0,0:0:0:0:
293,127,3622,1,0,0:0:0:0:
128,144,3772,6,0,L|202:150,1,75
300,157,4072,1,0,0:0:0:0:
342,245,4222,1,0,0:0:0:0:
384,121,4372,1,0,0:0:0:0:
271,227,4522,1,0,0:0:0:0:
235,76,4672,1,0,0:0:0:0:
271,227,4822,1,0,0:0:0:0:
190,172,4972,6,0,L|94:180,1,75
18,185,5272,1,0,0:0:0:0:
72,266,5422,1,0,0:0:0:0:
62,98,5572,1,0,0:0:0:0:
116,179,5722,1,0,0:0:0:0:
170,260,5872,1,0,0:0:0:0:
213,172,6022,1,0,0:0:0:0:
268,254,6172,6,0,L|371:244,1,75
439,237,6472,1,0,0:0:0:0:
364,174,6622,1,0,0:0:0:0:
376,312,6772,1,0,0:0:0:0:
278,320,6922,1,0,0:0:0:0:
180,329,7072,1,0,0:0:0:0:
376,312,7222,1,0,0:0:0:0:
221,239,7372,6,0,L|214:151,1,75
210,66,7672,1,0,0:0:0:0:
112,74,7822,1,0,0:0:0:0:
254,138,7972,1,0,0:0:0:0:
352,146,8122,1,0,0:0:0:0:
377,240,8272,1,0,0:0:0:0:
279,232,8422,1,0,0:0:0:0:
181,224,8572,6,0,L|85:215,1,75
74,126,8872,1,0,0:0:0:0:
116,38,9022,1,0,0:0:0:0:
106,217,9172,1,0,0:0:0:0:
148,129,9322,1,0,0:0:0:0:
242,103,9472,1,0,0:0:0:0:
200,191,9622,1,0,0:0:0:0:
208,288,9772,6,0,L|287:281,1,75
379,277,10072,1,0,0:0:0:0:
476,272,10222,1,0,0:0:0:0:
368,189,10372,1,0,0:0:0:0:
476,272,10522,1,0,0:0:0:0:
464,156,10672,1,0,0:0:0:0:
379,277,10822,1,0,0:0:0:0:
297,223,10972,6,0,L|217:229,1,75
73,136,11272,2,0,L|240:150,1,150
341,162,11722,1,0,0:0:0:0:
341,162,11872,1,0,0:0:0:0:
18,199,12022,1,0,0:0:0:0:
57,288,12172,6,0,L|152:279,1,75
229,272,12472,1,0,0:0:0:0:
326,263,12622,1,0,0:0:0:0:
173,175,12772,1,0,0:0:0:0:
270,184,12922,1,0,0:0:0:0:
367,193,13072,1,0,0:0:0:0:
464,202,13222,1,0,0:0:0:0:
424,114,13372,6,0,L|349:120,1,75
154,139,13672,1,0,0:0:0:0:
251,130,13822,1,0,0:0:0:0:
329,33,13972,2,0,L|254:39,1,75
59,58,14272,1,0,0:0:0:0:
156,49,14422,1,0,0:0:0:0:
106,133,14572,6,0,L|180:139,1,75
300,149,14872,1,0,0:0:0:0:
203,212,15022,1,0,0:0:0:0:
322,226,15172,1,0,0:0:0:0:
201,232,15322,1,0,0:0:0:0:
300,298,15472,1,0,0:0:0:0:
200,251,15622,1,0,0:0:0:0:
210,362,15772,6,0,L|135:355,1,75
0,337,16072,1,0,0:0:0:0:
108,284,16222,1,0,0:0:0:0:
5,216,16372,1,0,0:0:0:0:
74,355,16522,1,0,0:0:0:0:
5,216,16672,1,0,0:0:0:0:
124,202,16822,1,0,0:0:0:0:
25,104,16972,6,0,L|128:113,1,75
204,119,17272,1,0,0:0:0:0:
213,222,17422,1,0,0:0:0:0:
42,300,17572,1,0,0:0:0:0:
51,197,17722,1,0,0:0:0:0:
126,270,17872,1,0,0:0:0:0:
135,373,18022,1,0,0:0:0:0:
220,314,18172,6,0,L|323:305,1,75
398,294,18472,1,0,0:0:0:0:
437,196,18622,1,0,0:0:0:0:
231,224,18772,1,0,0:0:0:0:
294,307,18922,1,0,0:0:0:0:
398,292,19072,1,0,0:0:0:0:
334,210,19222,1,0,0:0:0:0:
270,128,19372,6,0,L|357:135,1,75
449,142,19672,1,0,0:0:0:0:
495,237,19822,1,0,0:0:0:0:
436,324,19972,1,0,0:0:0:0:
331,316,20122,1,0,0:0:0:0:
286,222,20272,1,0,0:0:0:0:
344,134,20422,1,0,0:0:0:0:
402,46,20572,5,0,0:0:0:0:
438,247,20722,1,0,0:0:0:0:
478,106,21022,1,0,0:0:0:0:
331,316,21172,1,0,0:0:0:0:
438,247,21472,1,0,0:0:0:0:
136,287,21622,1,0,0:0:0:0:
84,195,21772,6,0,L|158:200,1,75
264,210,22072,1,0,0:0:0:0:
195,130,22222,1,0,0:0:0:0:
299,111,22372,1,0,0:0:0:0:
219,283,22522,1,0,0:0:0:0:
299,111,22672,1,0,0:0:0:0:
351,242,22822,1,0,0:0:0:0:
437,138,22972,6,0,L|430:212,1,75
422,318,23272,1,0,0:0:0:0:
327,363,23422,1,0,0:0:0:0:
345,155,23572,1,0,0:0:0:0:
336,259,23722,1,0,0:0:0:0:
241,304,23872,1,0,0:0:0:0:
250,200,24022,1,0,0:0:0:0:
258,96,24172,6,0,P|286:70|322:55,1,75
420,88,24472,1,0,0:0:0:0:
439,194,24622,1,0,0:0:0:0:
233,378,24772,2,0,L|240:304,1,75
248,198,25072,1,0,0:0:0:0:
255,92,25222,1,0,0:0:0:0:
119,319,25372,6,0,L|126:245,1,75
134,139,25672,1,0,0:0:0:0:
141,33,25822,1,0,0:0:0:0:
54,107,25972,1,0,0:0:0:0:
191,88,26122,1,0,0:0:0:0:
55,26,26272,1,0,0:0:0:0:
55,26,26422,1,0,0:0:0:0:
134,139,26572,5,0,0:0:0:0:
222,68,26722,2,0,P|288:39|349:76,1,150
421,172,27172,1,0,0:0:0:0:
453,49,27322,1,0,0:0:0:0:
421,172,27472,1,0,0:0:0:0:
293,172,27622,1,0,0:0:0:0:
325,49,27772,6,0,L|229:57,1,75
145,64,28072,1,0,0:0:0:0:
39,72,28222,1,0,0:0:0:0:
204,151,28372,1,0,0:0:0:0:
145,64,28522,1,0,0:0:0:0:
98,159,28672,1,0,0:0:0:0:
157,246,28822,1,0,0:0:0:0:
278,144,28972,6,0,L|140:154,1,75
98,159,29272,1,0,0:0:0:0:
234,70,29422,1,0,0:0:0:0:
165,233,29572,1,0,0:0:0:0:
305,200,29722,1,0,0:0:0:0:
132,93,29872,1,0,0:0:0:0:
165,233,30022,1,0,0:0:0:0:
67,163,30172,6,0,L|59:259,1,75
52,343,30472,1,0,0:0:0:0:
122,259,30622,1,0,0:0:0:0:
0,151,30772,1,0,0:0:0:0:
155,168,30922,1,0,0:0:0:0:
68,75,31072,6,0,L|155:67,1,75
354,139,31372,2,0,L|266:131,1,75
152,113,31672,1,0,0:0:0:0:
302,63,31822,1,0,0:0:0:0:
119,38,31972,1,0,0:0:0:0:
279,132,32122,1,0,0:0:0:0:
121,217,32272,2,0,L|195:210,1,75
208,299,32572,6,0,L|282:292,1,75
456,251,32872,2,0,L|382:244,1,75
270,224,33172,1,0,0:0:0:0:
382,164,33322,1,0,0:0:0:0:
434,326,33472,1,0,0:0:0:0:
382,164,33622,1,0,0:0:0:0:
483,50,33772,6,0,L|476:129,1,75
465,236,34072,1,0,0:0:0:0:
382,164,34222,1,0,0:0:0:0:
445,337,34372,1,0,0:0:0:0:
362,265,34522,1,0,0:0:0:0:
254,244,34672,1,0,0:0:0:0:
150,279,34822,1,0,0:0:0:0:
283,156,34972,6,0,L|179:192,1,75
99,172,35272,1,0,0:0:0:0:
16,100,35422,1,0,0:0:0:0:
357,150,35572,2,0,L|247:157,1,75
175,117,35872,1,0,0:0:0:0:
113,26,36022,1,0,0:0:0:0:
72,199,36172,6,0,L|62:95,1,75
128,265,36472,2,0,L|223:308,1,75
147,58,36772,1,0,0:0:0:0:
157,183,36922,1,0,0:0:0:0:
271,237,37072,1,0,0:0:0:0:
157,183,37222,1,0,0:0:0:0:
261,112,37372,6,0,L|356:120,1,75
441,127,37672,1,0,0:0:0:0:
355,187,37822,1,0,0:0:0:0:
295,34,37972,1,0,0:0:0:0:
181,93,38122,1,0,0:0:0:0:
255,166,38272,1,0,0:0:0:0:
141,225,38422,1,0,0:0:0:0:
27,284,38572,6,0,L|130:293,1,75
206,298,38872,1,0,0:0:0:0:
264,211,39022,1,0,0:0:0:0:
168,54,39172,1,0,0:0:0:0:
170,160,39322,1,0,0:0:0:0:
264,211,39472,1,0,0:0:0:0:
355,155,39622,1,0,0:0:0:0:
352,48,39772,6,0,L|260:58,1,75
447,261,40072,2,0,L|440:186,1,75
431,81,40372,1,0,0:0:0:0:
358,204,40522,1,0,0:0:0:0:
431,81,40672,1,0,0:0:0:0:
272,139,40822,1,0,0:0:0:0:
304,39,40972,6,0,L|154:51,1,150
228,125,41422,1,0,0:0:0:0:
91,215,41572,1,0,0:0:0:0:
120,56,41722,1,0,0:0:0:0:
271,200,41872,2,0,L|176:208,1,75
139,295,42172,6,0,L|288:309,1,150
395,315,42622,1,0,0:0:0:0:
313,237,42772,1,0,0:0:0:0:
390,88,42922,1,0,0:0:0:0:
395,240,43072,1,0,0:0:0:0:
475,104,43222,1,0,0:0:0:0:
313,237,43372,6,0,L|193:226,1,75
133,218,43672,1,0,0:0:0:0:
240,148,43822,1,0,0:0:0:0:
155,301,43972,1,0,0:0:0:0:
48,215,44122,1,0,0:0:0:0:
155,301,44272,1,0,0:0:0:0:
163,135,44422,1,0,0:0:0:0:
75,42,44572,6,0,L|224:55,1,150
421,74,45022,2,0,L|317:83,1,75
165,151,45322,2,0,L|268:160,1,75
374,168,45622,1,0,0:0:0:0:
101,265,45772,6,0,L|276:249,1,150
361,235,46222,1,0,0:0:0:0:
284,325,46372,1,0,0:0:0:0:
447,278,46522,1,0,0:0:0:0:
270,155,46672,2,0,L|433:167,1,150
512,69,47122,6,0,L|392:78,1,75
317,81,47422,1,0,0:0:0:0:
424,145,47572,1,0,0:0:0:0:
286,183,47722,1,0,0:0:0:0:
424,145,47872,1,0,0:0:0:0:
362,253,48022,1,0,0:0:0:0:
229,304,48172,6,0,L|324:312,1,75
404,317,48472,1,0,0:0:0:0:
309,238,48622,1,0,0:0:0:0:
336,54,48772,1,0,0:0:0:0:
431,133,48922,1,0,0:0:0:0:
417,224,49072,1,0,0:0:0:0:
322,145,49222,1,0,0:0:0:0:
197,119,49372,6,0,L|48:132,1,150
181,38,49822,2,0,L|285:47,1,75
213,198,50122,2,0,L|110:207,1,75
33,214,50422,1,0,0:0:0:0:
128,100,50572,6,0,L|223:108,1,75
314,115,50872,1,0,0:0:0:0:
224,34,51022,1,0,0:0:0:0:
275,195,51172,1,0,0:0:0:0:
402,156,51322,1,0,0:0:0:0:
304,28,51472,2,0,L|415:37,1,75
483,42,51772,6,0,P|477:113|442:198,1,150
394,276,52222,1,0,0:0:0:0:
365,54,52372,1,0,0:0:0:0:
314,196,52522,1,0,0:0:0:0:
280,85,52672,1,0,0:0:0:0:
226,186,52822,1,0,0:0:0:0:
283,284,52972,6,0,L|180:275,1,75
103,268,53272,1,0,0:0:0:0:
52,176,53422,1,0,0:0:0:0:
109,95,53572,2,0,P|165:47|238:48,1,150
136,200,54022,1,0,0:0:0:0:
225,158,54172,2,0,P|297:144|360:181,1,150
196,262,54622,1,0,0:0:0:0:
294,270,54772,2,0,P|363:294|399:358,1,150
217,346,55222,1,0,0:0:0:0:
196,262,55372,6,0,L|299:252,1,75
374,241,55672,1,0,0:0:0:0:
477,225,55822,1,0,0:0:0:0:
262,161,55972,1,0,0:0:0:0:
374,241,56122,1,0,0:0:0:0:
422,127,56272,1,0,0:0:0:0:
294,299,56422,1,0,0:0:0:0:
176,98,56572,6,0,L|183:185,1,75
191,278,56872,1,0,0:0:0:0:
262,161,57022,1,0,0:0:0:0:
104,88,57172,1,0,0:0:0:0:
39,178,57322,1,0,0:0:0:0:
70,278,57472,1,0,0:0:0:0:
134,187,57622,1,0,0:0:0:0:
25,28,57772,6,0,L|34:131,1,75
41,207,58072,1,0,0:0:0:0:
110,106,58222,1,0,0:0:0:0:
179,24,58372,1,0,0:0:0:0:
189,127,58522,1,0,0:0:0:0:
274,258,58672,1,0,0:0:0:0:
284,155,58822,1,0,0:0:0:0:
294,52,58972,5,0,0:0:0:0:
294,52,59122,1,0,0:0:0:0:
317,286,59272,1,0,0:0:0:0:
402,223,59422,1,0,0:0:0:0:
179,129,59572,1,0,0:0:0:0:
412,102,59722,1,0,0:0:0:0:
471,193,59872,1,0,0:0:0:0:
237,220,60022,1,0,0:0:0:0:
338,96,60172,6,0,L|433:104,1,75
353,223,60472,1,0,0:0:0:0:
450,6,60622,2,0,L|266:22,1,150
165,29,61072,1,0,0:0:0:0:
338,96,61222,1,0,0:0:0:0:
189,200,61372,6,0,L|268:193,1,75
382,178,61672,1,0,0:0:0:0:
231,79,61822,1,0,0:0:0:0:
338,96,61972,2,0,L|505:110,1,150
376,23,62422,1,0,0:0:0:0:
231,79,62572,6,0,L|237:158,1,75
147,262,62872,2,0,L|140:182,1,75
28,19,63172,2,0,L|43:201,1,150
50,294,63622,1,0,0:0:0:0:
217,232,63772,6,0,L|137:238,1,75
266,158,64072,1,0,0:0:0:0:
206,312,64222,1,0,0:0:0:0:
116,144,64372,2,0,L|299:160,1,150
385,167,64822,1,0,0:0:0:0:
279,264,64972,6,0,L|183:272,1,75
379,343,65272,2,0,L|474:351,1,75
286,189,65572,2,0,L|272:338,1,150
365,211,66022,1,0,0:0:0:0:
270,15,66172,6,0,L|278:110,1,75
286,189,66472,1,0,0:0:0:0:
357,40,66622,1,0,0:0:0:0:
204,182,66772,1,0,0:0:0:0:
137,39,66922,1,0,0:0:0:0:
204,182,67072,1,0,0:0:0:0:
357,40,67222,1,0,0:0:0:0:
286,189,67372,6,0,L|373:181,1,75
494,164,67672,1,0,0:0:0:0:
390,255,67822,1,0,0:0:0:0:
418,103,67972,1,0,0:0:0:0:
390,255,68122,1,0,0:0:0:0:
238,226,68272,1,0,0:0:0:0:
266,74,68422,1,0,0:0:0:0:
147,137,68572,6,0,L|242:145,1,75
356,150,68872,1,0,0:0:0:0:
238,226,69022,1,0,0:0:0:0:
118,9,69172,1,0,0:0:0:0:
237,83,69322,1,0,0:0:0:0:
46,193,69472,1,0,0:0:0:0:
207,2,69622,1,0,0:0:0:0:
173,160,69772,6,0,L|269:152,1,75
374,137,70072,1,0,0:0:0:0:
448,271,70222,2,0,L|272:255,1,150
179,235,70672,1,0,0:0:0:0:
336,342,70822,1,0,0:0:0:0:
206,342,70972,6,0,L|126:342,1,75
0,342,71272,1,0,0:0:0:0:
101,209,71422,1,0,0:0:0:0:
0,107,71572,2,0,L|14:274,1,150
90,113,72022,1,0,0:0:0:0:
0,24,72172,6,0,L|79:30,1,75
290,81,72472,2,0,L|211:87,1,75
8,93,72772,2,0,L|23:275,1,150
33,370,73222,1,0,0:0:0:0:
207,263,73372,6,0,L|127:257,1,75
20,242,73672,1,0,0:0:0:0:
149,341,73822,1,0,0:0:0:0:
80,168,73972,2,0,L|263:184,1,150
342,189,74422,1,0,0:0:0:0:
277,87,74572,6,0,L|181:95,1,75
80,168,74872,2,0,L|175:176,1,75
411,220,75172,2,0,L|262:234,1,150
149,241,75622,1,0,0:0:0:0:
193,98,75772,6,0,L|201:193,1,75
212,300,76072,1,0,0:0:0:0:
280,154,76222,1,0,0:0:0:0:
119,168,76372,1,0,0:0:0:0:
314,230,76522,1,0,0:0:0:0:
103,250,76672,1,0,0:0:0:0:
195,100,76822,1,0,0:0:0:0:
55,23,76972,6,0,L|142:31,1,75
241,42,77272,1,0,0:0:0:0:
352,55,77422,1,0,0:0:0:0:
220,181,77572,1,0,0:0:0:0:
428,78,77722,1,0,0:0:0:0:
469,182,77872,1,0,0:0:0:0:
296,85,78022,1,0,0:0:0:0:
469,182,78172,5,0,0:0:0:0:
220,181,78322,1,0,0:0:0:0:
428,78,78622,1,0,0:0:0:0:
234,292,78772,1,0,0:0:0:0:
336,27,79072,1,0,0:0:0:0:
320,358,79222,1,0,0:0:0:0:
210,106,79372,6,0,L|223:264,1,150
232,352,79822,1,0,0:0:0:0:
142,325,79972,2,0,L|146:269,1,37.5
123,213,80122,2,0,L|118:268,1,37.5
76,311,80272,2,0,L|80:255,1,37.5
57,199,80422,6,0,L|49:283,1,75
0,118,80722,2,0,L|7:205,1,75
54,60,81022,1,0,0:0:0:0:
227,158,81172,2,0,L|179:162,1,37.5
133,66,81322,2,0,L|180:70,1,37.5
285,84,81472,2,0,L|237:88,1,37.5
84,141,81622,2,0,L|131:145,1,37.5
227,158,81772,6,0,L|214:316,1,150
147,216,82222,1,0,0:0:0:0:
300,244,82372,2,0,L|295:188,1,37.5
341,141,82522,2,0,L|336:196,1,37.5
381,243,82672,2,0,L|376:187,1,37.5
421,106,82822,6,0,L|411:209,1,75
356,343,83122,2,0,L|347:247,1,75
341,141,83422,1,0,0:0:0:0:
265,249,83572,2,0,L|269:296,1,37.5
236,165,83722,2,0,L|240:117,1,37.5
194,278,83872,2,0,L|189:325,1,37.5
158,172,84022,2,0,L|153:124,1,37.5
357,213,84172,6,0,P|425:189|457:110,1,150
259,227,84622,1,0,0:0:0:0:
456,91,84772,2,0,L|296:104,1,150
141,112,85222,1,0,0:0:0:0:
331,203,85372,6,0,P|385:253|408:323,1,150
394,140,85822,1,0,0:0:0:0:
145,320,85972,2,0,L|313:306,1,150
443,292,86422,1,0,0:0:0:0:
272,149,86572,6,0,P|209:109|136:105,1,150
4,134,87022,1,0,0:0:0:0:
285,0,87172,2,0,L|271:159,1,150
256,328,87622,1,0,0:0:0:0:
408,135,87772,6,0,P|416:84|338:112,1,150
256,328,88222,1,0,0:0:0:0:
82,87,88372,2,0,P|74:36|152:64,1,150
256,328,88822,1,0,0:0:0:0:
425,23,88972,6,0,L|321:32,1,75
246,43,89272,1,0,0:0:0:0:
141,56,89422,1,0,0:0:0:0:
262,129,89572,1,0,0:0:0:0:
367,142,89722,1,0,0:0:0:0:
418,233,89872,1,0,0:0:0:0:
313,220,90022,1,0,0:0:0:0:
215,261,90172,6,0,L|119:252,1,75
36,241,90472,1,0,0:0:0:0:
120,178,90622,1,0,0:0:0:0:
41,29,90772,1,0,0:0:0:0:
37,126,90922,1,0,0:0:0:0:
120,178,91072,1,0,0:0:0:0:
206,132,91222,1,0,0:0:0:0:
289,184,91372,6,0,L|376:176,1,75
468,164,91672,1,0,0:0:0:0:
398,243,91822,1,0,0:0:0:0:
391,86,91972,1,0,0:0:0:0:
468,164,92122,1,0,0:0:0:0:
398,243,92272,1,0,0:0:0:0:
475,321,92422,1,0,0:0:0:0:
369,349,92572,6,0,L|265:339,1,75
189,331,92872,1,0,0:0:0:0:
272,267,93022,1,0,0:0:0:0:
258,163,93172,1,0,0:0:0:0:
161,123,93322,2,0,L|168:210,1,75
175,303,93622,1,0,0:0:0:0:
282,321,93772,6,0,L|361:314,1,75
462,305,94072,1,0,0:0:0:0:
392,379,94222,1,0,0:0:0:0:
350,241,94372,1,0,0:0:0:0:
282,321,94522,1,0,0:0:0:0:
243,223,94672,1,0,0:0:0:0:
175,303,94822,1,0,0:0:0:0:
176,204,94972,6,0,L|97:197,1,75
0,188,95272,1,0,0:0:0:0:
66,262,95422,1,0,0:0:0:0:
108,124,95572,1,0,0:0:0:0:
176,204,95722,1,0,0:0:0:0:
215,106,95872,2,0,L|307:115,1,75
356,192,96172,6,0,L|260:200,1,75
176,204,96472,1,0,0:0:0:0:
117,115,96622,1,0,0:0:0:0:
164,19,96772,1,0,0:0:0:0:
224,108,96922,1,0,0:0:0:0:
331,100,97072,1,0,0:0:0:0:
438,92,97222,1,0,0:0:0:0:
392,188,97372,6,0,L|296:196,1,75
149,101,97672,2,0,L|244:109,1,75
100,189,97972,2,0,L|4:197,1,75
149,101,98272,1,0,0:0:0:0:
149,101,98422,1,0,0:0:0:0:
157,205,98572,6,0,L|164:279,1,75
176,383,98872,1,0,0:0:0:0:
245,304,99022,1,0,0:0:0:0:
314,225,99172,1,0,0:0:0:0:
383,304,99322,1,0,0:0:0:0:
452,225,99472,2,0,L|445:145,1,75
380,27,99772,6,0,L|374:143,1,75
314,225,100072,2,0,L|307:145,1,75
296,45,100372,1,0,0:0:0:0:
226,123,100522,1,0,0:0:0:0:
156,201,100672,1,0,0:0:0:0:
78,131,100822,1,0,0:0:0:0:
148,53,100972,6,0,L|259:62,1,75
325,67,101272,1,0,0:0:0:0:
373,159,101422,1,0,0:0:0:0:
315,245,101572,1,0,0:0:0:0:
360,338,101722,1,0,0:0:0:0:
463,345,101872,1,0,0:0:0:0:
418,252,102022,1,0,0:0:0:0:
373,159,102172,6,0,L|261:149,1,75
171,132,102472,1,0,0:0:0:0:
242,237,102622,1,0,0:0:0:0:
414,53,102772,2,0,L|301:62,1,75
210,61,103072,1,0,0:0:0:0:
298,152,103222,1,0,0:0:0:0:
57,129,103372,6,0,L|145:121,1,75
131,227,103672,2,0,L|218:234,1,75
310,240,103972,1,0,0:0:0:0:
414,249,104122,1,0,0:0:0:0:
402,143,104272,1,0,0:0:0:0:
298,152,104422,1,0,0:0:0:0:
310,47,104572,6,0,L|413:56,1,75
489,62,104872,1,0,0:0:0:0:
402,143,105022,1,0,0:0:0:0:
465,227,105172,1,0,0:0:0:0:
402,311,105322,1,0,0:0:0:0:
465,227,105472,1,0,0:0:0:0:
331,247,105622,1,0,0:0:0:0:
259,132,105772,6,0,L|346:139,1,75
438,145,106072,1,0,0:0:0:0:
354,208,106222,1,0,0:0:0:0:
430,279,106372,1,0,0:0:0:0:
325,288,106522,1,0,0:0:0:0:
220,297,106672,1,0,0:0:0:0:
115,306,106822,1,0,0:0:0:0:
15,186,106972,6,0,L|103:193,1,75
250,126,107272,2,0,L|128:114,1,75
70,104,107572,1,0,0:0:0:0:
212,53,107722,1,0,0:0:0:0:
128,41,107872,1,0,0:0:0:0:
250,126,108022,1,0,0:0:0:0:
116,190,108172,6,0,L|266:202,1,150
371,205,108622,1,0,0:0:0:0:
276,273,108772,1,0,0:0:0:0:
323,146,108922,1,0,0:0:0:0:
429,283,109072,2,0,L|334:291,1,75
478,194,109372,6,0,P|460:119|387:88,1,150
294,75,109822,1,0,0:0:0:0:
395,173,109972,1,0,0:0:0:0:
367,19,110122,1,0,0:0:0:0:
395,173,110272,1,0,0:0:0:0:
272,158,110422,1,0,0:0:0:0:
158,199,110572,6,0,L|164:273,1,75
173,379,110872,1,0,0:0:0:0:
238,267,111022,1,0,0:0:0:0:
336,347,111172,1,0,0:0:0:0:
293,226,111322,1,0,0:0:0:0:
416,195,111472,1,0,0:0:0:0:
294,156,111622,1,0,0:0:0:0:
382,64,111772,6,0,L|233:77,1,150
112,84,112222,2,0,L|121:188,1,75
185,266,112522,2,0,L|194:162,1,75
198,94,112822,1,0,0:0:0:0:
105,9,112972,6,0,L|118:168,1,150
125,263,113422,1,0,0:0:0:0:
39,335,113572,1,0,0:0:0:0:
143,344,113722,1,0,0:0:0:0:
239,301,113872,2,0,L|402:313,1,150
484,317,114322,5,0,0:0:0:0:
456,217,114472,2,0,L|381:222,1,75
276,228,114772,1,0,0:0:0:0:
342,125,114922,1,0,0:0:0:0:
240,150,115072,1,0,0:0:0:0:
174,47,115222,1,0,0:0:0:0:
275,21,115372,6,0,L|370:29,1,75
454,36,115672,1,0,0:0:0:0:
375,105,115822,1,0,0:0:0:0:
470,178,115972,1,0,0:0:0:0:
318,172,116122,1,0,0:0:0:0:
450,100,116272,1,0,0:0:0:0:
298,94,116422,1,0,0:0:0:0:
389,171,116572,6,0,L|240:184,1,150
368,251,117022,2,0,L|472:260,1,75
347,331,117322,2,0,L|244:340,1,75
167,348,117622,1,0,0:0:0:0:
75,259,117772,6,0,L|170:267,1,75
255,270,118072,1,0,0:0:0:0:
185,191,118222,1,0,0:0:0:0:
293,130,118372,1,0,0:0:0:0:
255,270,118522,1,0,0:0:0:0:
124,117,118672,2,0,L|235:126,1,75
323,28,118972,6,0,L|173:41,1,150
69,54,119422,1,0,0:0:0:0:
133,136,119572,1,0,0:0:0:0:
197,218,119722,1,0,0:0:0:0:
218,114,119872,1,0,0:0:0:0:
114,217,120022,1,0,0:0:0:0:
0,123,120172,6,0,L|103:132,1,75
179,135,120472,1,0,0:0:0:0:
114,217,120622,1,0,0:0:0:0:
153,315,120772,2,0,P|225:348|317:316,1,150
192,193,121222,1,0,0:0:0:0:
274,259,121372,2,0,P|352:251|416:177,1,150
247,133,121822,1,0,0:0:0:0:
351,149,121972,2,0,P|415:103|433:7,1,150
258,54,122422,1,0,0:0:0:0:
351,149,122572,6,0,L|341:260,1,75
334,328,122872,1,0,0:0:0:0:
255,258,123022,1,0,0:0:0:0:
426,159,123172,1,0,0:0:0:0:
416,262,123322,1,0,0:0:0:0:
326,107,123472,1,0,0:0:0:0:
336,210,123622,1,0,0:0:0:0:
226,55,123772,6,0,L|218:142,1,75
209,234,124072,1,0,0:0:0:0:
139,145,124222,1,0,0:0:0:0:
280,187,124372,1,0,0:0:0:0:
127,220,124522,1,0,0:0:0:0:
280,187,124672,1,0,0:0:0:0:
157,290,124822,1,0,0:0:0:0:
288,343,124972,6,0,L|391:334,1,75
466,323,125272,1,0,0:0:0:0:
382,258,125422,1,0,0:0:0:0:
462,190,125572,1,0,0:0:0:0:
378,125,125722,1,0,0:0:0:0:
298,193,125872,1,0,0:0:0:0:
382,258,126022,1,0,0:0:0:0:
298,323,126172,5,0,0:0:0:0:
298,323,126322,1,0,0:0:0:0:
165,205,126472,1,0,0:0:0:0:
264,171,126622,1,0,0:0:0:0:
118,303,126772,1,0,0:0:0:0:
214,39,126922,1,0,0:0:0:0:
109,52,127072,1,0,0:0:0:0:
228,335,127222,1,0,0:0:0:0:
338,164,127372,6,0,L|250:171,1,75
143,177,127672,1,0,0:0:0:0:
269,257,127822,2,0,P|343:266|396:209,1,150
442,46,128272,1,0,0:0:0:0:
508,212,128422,1,0,0:0:0:0:
324,121,128572,6,0,L|245:114,1,75
115,95,128872,1,0,0:0:0:0:
275,194,129022,1,0,0:0:0:0:
66,279,129172,2,0,L|233:265,1,150
135,349,129622,1,0,0:0:0:0:
176,195,129772,6,0,L|255:189,1,75
354,115,130072,2,0,L|275:109,1,75
176,33,130372,2,0,L|325:21,1,150
146,105,130822,1,0,0:0:0:0:
67,5,130972,6,0,L|73:85,1,75
84,213,131272,1,0,0:0:0:0:
0,89,131422,1,0,0:0:0:0:
146,105,131572,2,0,L|329:121,1,150
416,124,132022,1,0,0:0:0:0:
291,207,132172,6,0,P|262:230|252:265,1,75
374,343,132472,2,0,P|402:319|412:284,1,75
416,124,132772,2,0,L|267:138,1,150
147,148,133222,1,0,0:0:0:0:
216,246,133372,6,0,L|311:254,1,75
425,267,133672,1,0,0:0:0:0:
297,328,133822,1,0,0:0:0:0:
384,194,133972,1,0,0:0:0:0:
246,137,134122,1,0,0:0:0:0:
366,97,134272,1,0,0:0:0:0:
216,246,134422,1,0,0:0:0:0:
384,194,134572,6,0,L|297:186,1,75
176,165,134872,1,0,0:0:0:0:
272,267,135022,1,0,0:0:0:0:
56,220,135172,1,0,0:0:0:0:
176,165,135322,1,0,0:0:0:0:
272,267,135472,1,0,0:0:0:0:
152,322,135622,1,0,0:0:0:0:
49,145,135772,6,0,L|57:240,1,75
62,347,136072,1,0,0:0:0:0:
121,111,136222,1,0,0:0:0:0:
55,219,136372,1,0,0:0:0:0:
216,246,136522,1,0,0:0:0:0:
39,115,136672,1,0,0:0:0:0:
134,245,136822,1,0,0:0:0:0:
212,60,136972,6,0,L|308:68,1,75
406,77,137272,1,0,0:0:0:0:
500,150,137422,2,0,L|324:166,1,150
229,168,137872,1,0,0:0:0:0:
317,64,138022,1,0,0:0:0:0:
307,183,138172,6,0,L|300:262,1,75
290,377,138472,1,0,0:0:0:0:
379,251,138622,1,0,0:0:0:0:
220,78,138772,2,0,L|234:245,1,150
244,346,139222,1,0,0:0:0:0:
389,170,139372,6,0,L|314:175,1,75
182,306,139672,2,0,L|261:312,1,75
402,319,139972,2,0,L|387:151,1,150
379,49,140422,1,0,0:0:0:0:
237,136,140572,6,0,L|317:142,1,75
431,149,140872,1,0,0:0:0:0:
330,205,141022,1,0,0:0:0:0:
445,0,141172,2,0,L|429:183,1,150
421,268,141622,1,0,0:0:0:0:
323,130,141772,6,0,L|331:226,1,75
244,350,142072,2,0,L|252:254,1,75
144,67,142372,2,0,L|158:216,1,150
171,343,142822,1,0,0:0:0:0:
23,245,142972,6,0,L|110:237,1,75
224,221,143272,1,0,0:0:0:0:
84,159,143422,1,0,0:0:0:0:
173,279,143572,1,0,0:0:0:0:
195,100,143722,1,0,0:0:0:0:
97,238,143872,1,0,0:0:0:0:
257,151,144022,1,0,0:0:0:0:
49,72,144172,6,0,L|136:64,1,75
235,53,144472,1,0,0:0:0:0:
346,40,144622,1,0,0:0:0:0:
195,136,144772,5,0,0:0:0:0:
423,116,144922,1,0,0:0:0:0:
195,136,145072,1,0,0:0:0:0:
423,116,145222,1,0,0:0:0:0:
254,226,145372,5,0,0:0:0:0:
458,240,145522,1,0,0:0:0:0:
254,226,145672,1,0,0:0:0:0:
458,240,145822,1,0,0:0:0:0:
170,299,145972,5,0,0:0:0:0:
382,338,146122,1,0,0:0:0:0:
170,299,146272,1,0,0:0:0:0:
382,338,146422,1,0,0:0:0:0:
141,194,146572,6,0,P|53:208|12:265,1,150
128,108,147022,1,0,0:0:0:0:
328,152,147172,1,0,0:0:0:0:
296,264,147322,1,0,0:0:0:0:
184,232,147472,1,0,0:0:0:0:
216,120,147622,1,0,0:0:0:0:
225,306,147772,6,0,P|292:346|362:311,1,150
442,160,148222,1,0,0:0:0:0:
212,112,148372,1,0,0:0:0:0:
176,236,148522,1,0,0:0:0:0:
300,271,148672,1,0,0:0:0:0:
335,148,148822,1,0,0:0:0:0:
107,112,148972,6,0,P|31:81|-3:7,1,150
65,304,149422,1,0,0:0:0:0:
304,279,149572,1,0,0:0:0:0:
343,143,149722,1,0,0:0:0:0:
207,104,149872,1,0,0:0:0:0:
168,240,150022,1,0,0:0:0:0:
134,32,150172,6,0,P|205:20|330:56,1,150
503,169,150622,1,0,0:0:0:0:
202,96,150772,1,0,0:0:0:0:
160,245,150922,1,0,0:0:0:0:
309,287,151072,1,0,0:0:0:0:
351,138,151222,1,0,0:0:0:0:
53,179,151372,6,0,P|122:153|190:182,1,150
309,287,151822,2,0,P|240:312|172:283,1,150
150,258,152197,1,0,0:0:0:0:
136,227,152272,1,0,0:0:0:0:
112,116,152422,1,0,0:0:0:0:
29,192,152572,5,0,0:0:0:0:
26,216,152672,2,0,L|34:315,1,100
171,98,153022,2,0,P|125:154|135:226,1,150
207,342,153472,1,0,0:0:0:0:
416,251,153622,6,0,P|347:276|279:247,1,150
200,157,154072,1,0,0:0:0:0:
351,165,154222,1,0,0:0:0:0:
203,335,154372,1,0,0:0:0:0:
330,247,154522,1,0,0:0:0:0:
203,335,154672,1,0,0:0:0:0:
200,157,154822,1,0,0:0:0:0:
128,341,154972,6,0,L|231:331,1,75
329,324,155272,1,0,0:0:0:0:
247,242,155422,1,0,0:0:0:0:
361,125,155572,1,0,0:0:0:0:
169,197,155722,1,0,0:0:0:0:
277,88,155872,1,0,0:0:0:0:
405,174,156022,1,0,0:0:0:0:
119,270,156172,6,0,P|243:348|365:276,1,300
405,174,156922,1,0,0:0:0:0:
405,174,156997,1,0,0:0:0:0:
405,174,157072,1,0,0:0:0:0:
455,303,157222,1,0,0:0:0:0:
305,349,157372,6,0,L|299:285,1,50
241,200,157572,2,0,L|236:249,1,50
176,352,157772,2,0,L|170:288,1,50
41,216,157972,2,0,L|160:205,1,100
220,127,158272,2,0,L|164:122,1,50
77,31,158422,6,0,L|244:46,1,150
388,59,158872,1,0,0:0:0:0:
220,127,159022,1,0,0:0:0:0:
304,205,159172,1,0,0:0:0:0:
388,59,159322,1,0,0:0:0:0:
430,280,159472,1,0,0:0:0:0:
346,134,159622,1,0,0:0:0:0:
512,214,159772,6,0,L|405:210,1,75
304,205,160072,1,0,0:0:0:0:
203,333,160222,1,0,0:0:0:0:
184,161,160372,1,0,0:0:0:0:
295,296,160522,1,0,0:0:0:0:
184,161,160672,1,0,0:0:0:0:
114,309,160822,1,0,0:0:0:0:
117,88,160972,6,0,P|186:62|254:91,1,150
334,246,161422,2,0,P|265:271|197:242,1,150
173,218,161797,1,0,0:0:0:0:
154,189,161872,1,0,0:0:0:0:
97,68,162022,1,0,0:0:0:0:
37,180,162172,5,0,0:0:0:0:
195,81,162322,1,0,0:0:0:0:
94,254,162472,1,0,0:0:0:0:
222,355,162622,2,0,L|208:196,1,150
133,341,163072,1,0,0:0:0:0:
22,264,163222,6,0,P|94:254|133:192,1,150
157,66,163672,1,0,0:0:0:0:
41,161,163822,1,0,0:0:0:0:
195,134,163972,1,0,0:0:0:0:
75,84,164122,1,0,0:0:0:0:
25,204,164272,1,0,0:0:0:0:
145,254,164422,1,0,0:0:0:0:
41,336,164572,6,0,L|148:332,1,75
236,326,164872,1,0,0:0:0:0:
145,254,165022,1,0,0:0:0:0:
257,147,165172,1,0,0:0:0:0:
380,188,165322,1,0,0:0:0:0:
291,256,165472,1,0,0:0:0:0:
414,297,165622,1,0,0:0:0:0:
310,31,165772,6,0,L|289:270,1,225
290,349,166372,1,0,0:0:0:0:
290,349,166447,1,0,0:0:0:0:
290,349,166522,2,0,L|154:337,1,112.5
99,241,166972,6,0,L|163:235,1,50
229,170,167172,2,0,L|165:164,1,50
102,86,167372,2,0,L|166:80,1,50
320,68,167572,2,0,P|275:87|245:126,1,100
222,225,167872,2,0,L|231:335,1,75
74,334,168172,6,0,L|169:325,1,75
297,305,168472,1,0,0:0:0:0:
127,228,168622,1,0,0:0:0:0:
303,207,168772,1,0,0:0:0:0:
148,327,168922,1,0,0:0:0:0:
303,207,169072,1,0,0:0:0:0:
225,353,169222,1,0,0:0:0:0:
353,283,169372,6,0,L|448:291,1,75
450,160,169672,2,0,L|344:171,1,75
210,180,169972,1,0,0:0:0:0:
369,70,170122,1,0,0:0:0:0:
303,207,170272,1,0,0:0:0:0:
217,62,170422,1,0,0:0:0:0:
63,82,170572,6,0,P|37:151|66:219,1,150
171,130,171022,2,0,P|199:197|173:266,1,150
152,292,171397,1,0,0:0:0:0:
127,314,171472,1,0,0:0:0:0:
87,203,171622,1,0,0:0:0:0:
184,51,171772,6,0,L|255:44,1,50
343,80,171972,2,0,L|272:92,1,50
255,152,172172,2,0,L|320:182,1,50
358,253,172372,2,0,L|290:228,1,50
265,274,172572,2,0,L|306:332,1,50
226,370,172772,2,0,L|213:299,1,50
148,233,172972,6,0,L|140:323,1,75
47,197,173272,1,0,0:0:0:0:
69,330,173422,1,0,0:0:0:0:
166,113,173572,1,0,0:0:0:0:
47,197,173722,1,0,0:0:0:0:
59,64,173872,1,0,0:0:0:0:
135,208,174022,1,0,0:0:0:0:
211,352,174172,6,0,L|318:348,1,75
406,342,174472,1,0,0:0:0:0:
301,265,174622,1,0,0:0:0:0:
398,114,174772,1,0,0:0:0:0:
383,262,174922,1,0,0:0:0:0:
275,152,175072,1,0,0:0:0:0:
457,207,175222,1,0,0:0:0:0:
259,29,175372,6,0,P|196:162|226:321,1,300
112,209,176122,1,0,0:0:0:0:
112,209,176197,1,0,0:0:0:0:
112,209,176272,1,0,0:0:0:0:
323,236,176422,1,0,0:0:0:0:
153,113,176572,6,0,L|117:62,1,50
169,275,176772,2,0,L|141:332,1,50,0|0,0:0|0:0,0:0:0:0:
299,181,176972,2,0,L|362:174,1,50
462,192,177172,6,0,L|490:128,1,50
474,324,177373,2,0,L|512:379,1,50
354,269,177622,1,0,0:0:0:0:
354,269,177772,5,0,0:0:0:0:
95,166,177922,1,0,0:0:0:0:
420,222,178072,1,0,0:0:0:0:
436,144,178222,1,0,0:0:0:0:
128,240,178372,1,0,0:0:0:0:
203,268,178522,1,0,0:0:0:0:
265,20,178672,1,0,0:0:0:0:
19,90,178822,1,0,0:0:0:0:
162,125,178972,5,0,0:0:0:0:
39,341,179122,1,0,0:0:0:0:
259,159,179272,1,0,0:0:0:0:
162,125,179422,1,0,0:0:0:0:
70,172,179572,1,0,0:0:0:0:
296,62,179722,1,0,0:0:0:0:
179,305,179872,1,0,0:0:0:0:
363,215,180022,1,0,0:0:0:0:
154,39,180172,6,0,L|249:47,1,75
379,58,180472,1,0,0:0:0:0:
108,124,180622,2,0,L|292:140,1,150
407,148,181072,1,0,0:0:0:0:
264,61,181222,1,0,0:0:0:0:
108,124,181372,6,0,L|115:203,1,75
224,225,181672,1,0,0:0:0:0:
0,161,181822,1,0,0:0:0:0:
214,127,181972,2,0,L|381:141,1,150
224,225,182422,1,0,0:0:0:0:
342,323,182572,6,0,L|355:243,1,75
469,134,182872,2,0,L|462:214,1,75
192,336,183172,2,0,L|374:321,1,150
508,308,183622,1,0,0:0:0:0:
360,146,183772,6,0,L|366:226,1,75
375,355,184072,1,0,0:0:0:0:
444,194,184222,1,0,0:0:0:0:
152,267,184372,2,0,L|335:283,1,150
156,185,184822,1,0,0:0:0:0:
76,360,184972,6,0,L|69:285,1,75
230,178,185272,2,0,L|135:186,1,75
0,55,185572,2,0,L|149:69,1,150
283,79,186022,1,0,0:0:0:0:
131,263,186172,6,0,L|139:168,1,75
151,45,186472,1,0,0:0:0:0:
221,212,186622,1,0,0:0:0:0:
263,18,186772,1,0,0:0:0:0:
74,127,186922,1,0,0:0:0:0:
263,18,187072,1,0,0:0:0:0:
326,194,187222,1,0,0:0:0:0:
438,66,187372,6,0,L|363:72,1,75
212,85,187672,1,0,0:0:0:0:
390,142,187822,1,0,0:0:0:0:
287,304,187972,1,0,0:0:0:0:
441,223,188122,1,0,0:0:0:0:
287,304,188272,1,0,0:0:0:0:
290,129,188422,1,0,0:0:0:0:
347,204,188572,5,0,0:0:0:0:
0,231,188722,1,0,0:0:0:0:
315,113,189022,1,0,0:0:0:0:
168,260,189172,1,0,0:0:0:0:
0,231,189322,1,0,0:0:0:0:
241,184,189472,1,0,0:0:0:0:
73,155,189622,1,0,0:0:0:0:
146,79,189772,6,0,L|242:71,1,75
377,55,190072,1,0,0:0:0:0:
395,189,190222,2,0,L|219:173,1,150
73,155,190672,1,0,0:0:0:0:
238,103,190822,1,0,0:0:0:0:
159,324,190972,6,0,L|152:244,1,75
138,62,191272,1,0,0:0:0:0:
225,195,191422,1,0,0:0:0:0:
60,5,191572,2,0,L|74:172,1,150
77,326,192022,1,0,0:0:0:0:
299,188,192172,6,0,L|219:194,1,75
77,326,192472,2,0,L|156:332,1,75
54,70,192772,2,0,L|69:252,1,150
129,2,193222,1,0,0:0:0:0:
279,89,193372,6,0,L|199:83,1,75
54,70,193672,1,0,0:0:0:0:
231,12,193822,1,0,0:0:0:0:
128,189,193972,2,0,L|277:175,1,150
450,162,194422,1,0,0:0:0:0:
337,15,194572,6,0,L|343:89,1,75
370,300,194872,2,0,L|376:225,1,75
464,12,195172,2,0,L|450:161,1,150
424,324,195622,1,0,0:0:0:0:
313,144,195772,6,0,L|321:239,1,75
332,346,196072,1,0,0:0:0:0:
397,181,196222,1,0,0:0:0:0:
144,223,196372,1,0,0:0:0:0:
241,369,196522,1,0,0:0:0:0:
387,272,196672,1,0,0:0:0:0:
290,125,196822,1,0,0:0:0:0:
472,70,196972,6,0,L|385:62,1,75
268,48,197272,1,0,0:0:0:0:
140,32,197422,1,0,0:0:0:0:
300,130,197572,5,0,0:0:0:0:
72,110,197722,1,0,0:0:0:0:
244,71,197872,1,0,0:0:0:0:
128,168,198022,1,0,0:0:0:0:
241,220,198172,5,0,0:0:0:0:
37,234,198322,1,0,0:0:0:0:
185,177,198472,1,0,0:0:0:0:
95,278,198622,1,0,0:0:0:0:
325,293,198772,5,0,0:0:0:0:
113,332,198922,1,0,0:0:0:0:
261,253,199072,1,0,0:0:0:0:
178,371,199222,1,0,0:0:0:0:
140,193,199372,6,0,P|189:136|267:117,1,150
418,100,199822,1,0,0:0:0:0:
307,189,199972,1,0,0:0:0:0:
321,47,200122,1,0,0:0:0:0:
399,189,200272,1,0,0:0:0:0:
409,18,200422,1,0,0:0:0:0:
232,195,200572,6,0,L|335:185,1,75
462,168,200872,1,0,0:0:0:0:
314,112,201022,1,0,0:0:0:0:
428,261,201172,2,0,P|390:323|319:339,1,150
153,283,201622,1,0,0:0:0:0:
254,128,201772,6,0,P|270:199|332:236,1,150
465,269,202222,1,0,0:0:0:0:
366,138,202372,1,0,0:0:0:0:
405,306,202522,1,0,0:0:0:0:
254,128,202672,1,0,0:0:0:0:
215,296,202822,1,0,0:0:0:0:
112,104,202972,6,0,P|137:179|208:207,1,150
349,208,203422,1,0,0:0:0:0:
139,271,203572,1,0,0:0:0:0:
301,137,203722,1,0,0:0:0:0:
215,296,203872,1,0,0:0:0:0:
404,296,204022,1,0,0:0:0:0:
282,353,204172,6,0,P|165:357|128:328,1,150
34,239,204622,1,0,0:0:0:0:
229,218,204772,1,0,0:0:0:0:
89,117,204922,1,0,0:0:0:0:
245,69,205072,1,0,0:0:0:0:
144,209,205222,1,0,0:0:0:0:
36,32,205372,6,0,P|-11:99|16:185,1,150
72,285,205822,1,0,0:0:0:0:
89,117,205972,1,0,0:0:0:0:
245,245,206122,1,0,0:0:0:0:
11,198,206272,1,0,0:0:0:0:
167,326,206422,1,0,0:0:0:0:
119,116,206572,6,0,L|109:219,1,75
93,347,206872,1,0,0:0:0:0:
189,220,207022,1,0,0:0:0:0:
59,167,207172,1,0,0:0:0:0:
155,294,207322,1,0,0:0:0:0:
194,109,207472,1,0,0:0:0:0:
98,236,207622,1,0,0:0:0:0:
90,48,207772,5,0,0:0:0:0:
134,325,207922,1,0,0:0:0:0:
245,50,208222,1,0,0:0:0:0:
243,302,208372,1,0,0:0:0:0:
390,66,208672,1,0,0:0:0:0:
353,287,208822,1,0,0:0:0:0:
499,120,208972,6,0,L|404:128,1,75
273,133,209272,1,0,0:0:0:0:
484,305,209422,2,0,P|437:233|313:227,1,150
205,200,209872,1,0,0:0:0:0:
374,323,210022,1,0,0:0:0:0:
273,133,210172,6,0,L|280:212,1,75
296,347,210472,1,0,0:0:0:0:
354,192,210622,1,0,0:0:0:0:
193,233,210772,2,0,P|120:227|87:155,1,150
81,0,211222,1,0,0:0:0:0:
212,59,211372,6,0,L|116:67,1,75
259,172,211672,2,0,L|354:180,1,75
510,33,211972,2,0,L|328:48,1,150
482,191,212422,1,0,0:0:0:0:
246,113,212572,6,0,L|326:107,1,75
454,97,212872,1,0,0:0:0:0:
296,201,213022,1,0,0:0:0:0:
359,341,213172,2,0,P|417:294|448:226,1,150
259,363,213622,1,0,0:0:0:0:
127,252,213772,6,0,P|173:256|202:283,1,75
67,165,214072,2,0,P|20:169|-8:196,1,75
132,70,214372,2,0,P|211:78|260:123,1,150
333,255,214822,1,0,0:0:0:0:
396,92,214972,6,0,P|349:96|321:123,1,75
219,227,215272,1,0,0:0:0:0:
391,192,215422,1,0,0:0:0:0:
212,103,215572,1,0,0:0:0:0:
303,246,215722,1,0,0:0:0:0:
160,337,215872,1,0,0:0:0:0:
69,194,216022,1,0,0:0:0:0:
277,360,216172,5,0,0:0:0:0:
212,103,216322,1,0,0:0:0:0:
212,103,216397,1,0,0:0:0:0:
212,103,216472,1,0,0:0:0:0:
303,246,216622,1,0,0:0:0:0:
91,91,216772,1,0,0:0:0:0:
358,80,216922,1,0,0:0:0:0:
140,172,217072,1,0,0:0:0:0:
407,161,217222,1,0,0:0:0:0:
256,48,217372,5,0,0:0:0:0:
368,214,217522,1,0,0:0:0:0:
368,214,217597,1,0,0:0:0:0:
368,214,217672,1,0,0:0:0:0:
312,117,217822,1,0,0:0:0:0:
199,117,217972,1,0,0:0:0:0:
143,214,218122,1,0,0:0:0:0:
199,312,218272,1,0,0:0:0:0:
312,312,218422,1,0,0:0:0:0:
256,176,218572,6,0,L|256:256,1,75
256,352,218872,1,0,0:0:0:0:
256,176,219022,1,0,0:0:0:0:
144,254,219172,1,0,0:0:0:0:
193,80,219322,1,0,0:0:0:0:
367,129,219472,1,0,0:0:0:0:
318,303,219622,1,0,0:0:0:0:
256,144,219772,6,0,L|256:224,1,75
256,352,220072,1,0,0:0:0:0:
256,144,220222,1,0,0:0:0:0:
133,260,220372,1,0,0:0:0:0:
187,69,220522,1,0,0:0:0:0:
378,123,220672,1,0,0:0:0:0:
324,314,220822,1,0,0:0:0:0:
256,112,220972,6,0,L|256:192,1,75
256,352,221272,1,0,0:0:0:0:
256,112,221422,1,0,0:0:0:0:
120,267,221572,1,0,0:0:0:0:
180,56,221722,1,0,0:0:0:0:
391,116,221872,1,0,0:0:0:0:
331,327,222022,1,0,0:0:0:0:
256,80,222172,6,0,L|256:160,1,75
256,352,222472,1,0,0:0:0:0:
256,80,222622,1,0,0:0:0:0:
107,274,222772,1,0,0:0:0:0:
173,43,222922,1,0,0:0:0:0:
404,109,223072,1,0,0:0:0:0:
338,340,223222,1,0,0:0:0:0:
256,48,223372,6,0,L|256:198,1,150
