osu file format v14

[General]
AudioFilename: audio.mp3
AudioLeadIn: 0
PreviewTime: 219418
Countdown: 1
SampleSet: Soft
StackLeniency: 0.7
Mode: 0
LetterboxInBreaks: 0
WidescreenStoryboard: 0

[Editor]
Bookmarks: 7858,21730,67511,106355,141037,163233,174158,188204,197915,219418,270054
DistanceSpacing: 0.4
BeatDivisor: 4
GridSize: 16
TimelineZoom: 2.4

[Metadata]
Title:SUNNY DAY SONG (Movie Edit)
TitleUnicode:SUNNY DAY SONG (Movie Edit)
Artist:Muse
ArtistUnicode:μ's
Creator:Arospity
Version:Insane
Source:Love Live! School Idol Project!!
Tags:
BeatmapID:1627692
BeatmapSetID:774438

[Difficulty]
HPDrainRate:6
CircleSize:3.5
OverallDifficulty:8
ApproachRate:9
SliderMultiplier:1.8
SliderTickRate:1

[Events]
//Background and Video events
0,0,"bg.jpg",0,0
//Break Periods
//Storyboard Layer 0 (Background)
//Storyboard Layer 1 (Fail)
//Storyboard Layer 2 (Pass)
//Storyboard Layer 3 (Foreground)
//Storyboard Sound Samples

[TimingPoints]
883,697.674418604651,4,2,0,15,1,0
7165,346.820809248555,4,2,0,40,1,0
7858,346.820809248555,4,2,0,50,1,1
12973,-100,4,2,0,5,0,1
13060,-100,4,2,0,50,0,1
13147,-100,4,2,0,5,0,1
13407,-100,4,2,0,50,0,1
15748,-100,4,2,0,5,0,1
15834,-100,4,2,0,50,0,1
15921,-100,4,2,0,5,0,1
16181,-100,4,2,0,50,0,1
21557,-100,4,2,0,5,0,1
21730,-125,4,2,0,35,0,0
31268,-125,4,2,0,40,0,0
32829,-125,4,2,0,35,0,0
43927,-153.846153846154,4,2,0,30,0,0
53638,-125,4,2,0,35,0,0
55025,-125,4,2,0,40,0,0
65256,-100,4,2,0,40,0,0
67511,-83.3333333333333,4,2,0,50,0,1
75401,-83.3333333333333,4,2,0,5,0,1
75488,-83.3333333333333,4,2,0,50,0,1
75574,-83.3333333333333,4,2,0,5,0,1
75661,-83.3333333333333,4,2,0,50,0,1
78609,-76.9230769230769,4,2,0,55,0,1
84158,-83.3333333333333,4,2,0,50,0,0
91615,-83.3333333333333,4,2,0,5,0,0
91788,-83.3333333333333,4,2,0,50,0,0
92482,-76.9230769230769,4,2,0,60,0,1
97771,-76.9230769230769,4,2,0,5,0,1
98031,-76.9230769230769,4,2,0,60,0,1
103580,-100,4,2,0,55,0,0
106355,-125,4,2,0,35,0,0
128551,-153.846153846154,4,2,0,30,0,0
132713,-125,4,2,0,35,0,0
134100,-100,4,2,0,40,0,0
141037,-83.3333333333333,4,2,0,50,0,1
148927,-83.3333333333333,4,2,0,5,0,1
149014,-83.3333333333333,4,2,0,50,0,1
149100,-83.3333333333333,4,2,0,5,0,1
149187,-83.3333333333333,4,2,0,50,0,1
157337,-100,4,2,0,50,0,1
163233,-166.666666666667,4,2,0,30,0,0
173811,-166.666666666667,4,2,0,45,0,0
174158,-83.3333333333333,4,2,0,45,0,0
188204,-83.3333333333333,4,2,0,55,0,1
193753,-83.3333333333333,4,2,0,40,0,0
197828,-83.3333333333333,4,2,0,5,0,0
197915,-125,4,2,0,40,0,0
209014,-100,4,2,0,45,0,0
217337,-83.3333333333333,4,2,0,50,0,0
219592,-83.3333333333333,4,2,0,55,0,0
220459,-71.4285714285714,4,2,0,60,0,1
228002,-71.4285714285714,4,2,0,5,0,1
228089,-71.4285714285714,4,2,0,60,0,1
228175,-71.4285714285714,4,2,0,5,0,1
228262,-71.4285714285714,4,2,0,60,0,1
236759,-76.9230769230769,4,2,0,55,0,0
242308,-100,4,2,0,55,0,0
245083,-66.6666666666667,4,2,0,60,0,1
247251,-66.6666666666667,4,2,0,5,0,1
247337,-66.6666666666667,4,2,0,60,0,1
247424,-66.6666666666667,4,2,0,5,0,1
247511,-66.6666666666667,4,2,0,60,0,1
250199,-66.6666666666667,4,2,0,5,0,1
250285,-66.6666666666667,4,2,0,60,0,1
250372,-66.6666666666667,4,2,0,5,0,1
250459,-66.6666666666667,4,2,0,60,0,1
267279,-66.6666666666667,4,2,0,65,0,0
269881,-66.6666666666667,4,2,0,5,0,0
270054,-125,4,2,0,30,0,0

[HitObjects]
89,166,883,6,0,P|184:125|260:143,1,180,0|4,0:0|0:3,0:0:0:0:
241,238,2278,2,0,P|244:130|289:68,1,180,0|4,0:0|0:3,0:0:0:0:
421,212,3673,6,0,P|376:204|335:176,1,90,0|0,0:0|0:0,0:0:0:0:
468,66,4371,2,0,P|416:107|408:149,1,90,4|0,0:3|0:0,0:0:0:0:
256,192,4894,12,0,6987,0:0:0:0:
128,271,7165,5,8,0:3:0:0:
119,227,7251,1,0,0:3:0:0:
130,183,7338,1,0,0:3:0:0:
158,149,7425,1,0,0:3:0:0:
198,129,7511,1,8,0:3:0:0:
240,153,7598,1,0,0:3:0:0:
284,161,7684,1,0,0:3:0:0:
328,150,7771,1,0,0:3:0:0:
362,122,7858,5,8,0:3:0:0:
267,292,8031,1,0,0:0:0:0:
379,243,8204,2,0,P|395:310|444:347,1,90,2|0,0:2|0:0,0:0:0:0:
450,138,8551,2,0,P|384:164|340:148,1,90,8|0,0:3|0:0,0:0:0:0:
225,92,8898,1,2,0:2:0:0:
450,138,9071,1,2,0:2:0:0:
299,217,9245,6,8,P|285:283|258:315,1,90,8|0,0:3|0:0,0:0:0:0:
106,137,9592,2,0,P|142:100|185:95,1,90,2|0,0:2|0:0,0:0:0:0:
45,341,9938,2,0,L|82:252,1,90,8|0,0:3|0:0,0:0:0:0:
181,172,10285,1,4,0:3:0:0:
157,313,10459,1,4,0:3:0:0:
63,64,10632,6,0,P|50:130|77:170,1,90,8|0,0:3|0:0,0:0:0:0:
302,164,10979,2,0,L|202:126,1,90,2|0,0:2|0:0,0:0:0:0:
63,64,11326,1,8,0:3:0:0:
218,229,11499,1,0,0:0:0:0:
300,83,11673,1,2,0:2:0:0:
102,202,11846,1,2,0:2:0:0:
205,58,12019,6,0,P|272:-4|379:28,2,180,8|2|8,0:3|0:2|0:3,0:0:0:0:
319,214,12886,2,0,L|308:159,1,45,4|0,0:3|0:0,0:0:0:0:
231,184,13060,2,0,L|239:110,1,45,4|0,0:3|0:0,0:0:0:0:
413,82,13407,6,0,P|437:132|415:197,1,90,8|0,0:3|0:0,0:0:0:0:
270,204,13753,2,0,L|350:139,1,90,2|0,0:2|0:0,0:0:0:0:
435,56,14100,1,8,0:3:0:0:
233,107,14274,1,0,0:0:0:0:
440,213,14447,1,2,0:2:0:0:
320,43,14621,1,0,0:0:0:0:
360,150,14794,6,8,L|266:321,2,180,8|2|8,0:3|0:2|0:3,0:0:0:0:
124,205,15661,2,0,L|137:148,1,45,4|0,0:3|0:0,0:0:0:0:
222,191,15834,2,0,L|215:139,1,45,4|0,0:3|0:0,0:0:0:0:
383,59,16181,6,0,P|361:124|362:164,1,90,8|0,0:3|0:0,0:0:0:0:
450,234,16528,2,0,P|405:229|361:239,1,90,8|0,0:3|0:0,0:0:0:0:
174,168,16875,2,0,P|142:211|126:255,1,90,8|0,0:3|0:0,0:0:0:0:
256,185,17222,2,0,P|231:109|206:91,1,90,8|0,0:3|0:0,0:0:0:0:
88,104,17568,5,8,0:3:0:0:
250,266,17742,1,2,0:2:0:0:
225,104,17915,1,8,0:3:0:0:
128,244,18089,1,0,0:0:0:0:
285,188,18262,2,0,P|341:187|392:216,1,90,8|2,0:3|0:2,0:0:0:0:
460,331,18609,2,0,P|435:268|442:213,1,90,8|0,0:3|0:0,0:0:0:0:
393,80,18956,5,2,0:2:0:0:
304,266,19129,1,2,0:2:0:0:
120,183,19476,5,2,0:2:0:0:
288,86,19649,1,2,0:2:0:0:
324,334,19996,5,2,0:2:0:0:
227,165,20169,1,2,0:2:0:0:
256,192,20343,12,0,21557,0:0:0:0:
106,111,21730,6,0,L|252:73,1,144,4|0,0:0|0:1,0:0:0:0:
264,218,22251,1,0,0:0:0:0:
105,305,22424,2,0,L|173:170,1,144,8|0,0:3|0:1,0:0:0:0:
319,219,22944,1,0,0:0:0:0:
199,306,23118,1,4,0:3:0:0:
90,94,23464,6,0,P|112:171|75:240,2,144,0|8|0,0:1|0:3|0:1,0:0:0:0:
279,201,24505,6,0,P|359:182|411:133,1,144,4|0,0:0|0:1,0:0:0:0:
312,46,25025,1,0,0:0:0:0:
228,129,25199,2,0,P|192:193|224:268,1,144,8|0,0:3|0:1,0:0:0:0:
346,331,25719,1,0,0:0:0:0:
307,157,25892,1,4,0:3:0:0:
272,230,26239,6,0,P|347:232|382:151,2,144,0|8|0,0:1|0:3|0:1,0:0:0:0:
448,97,27279,6,0,L|418:266,1,144,4|8,0:2|0:3,0:0:0:0:
160,140,27800,2,0,L|181:38,1,72,0|8,0:0|0:3,0:0:0:0:
343,222,28147,2,0,L|364:324,1,72,0|8,0:0|0:3,0:0:0:0:
230,169,28493,2,0,L|324:145,2,72,0|4|0,0:0|0:2|0:2,0:0:0:0:
124,222,29014,5,8,0:3:0:0:
358,272,29187,1,0,0:2:0:0:
238,81,29360,1,8,0:3:0:0:
199,260,29534,1,0,0:2:0:0:
424,110,29707,6,0,L|355:151,1,72,8|8,0:3|0:3,0:0:0:0:
111,71,30054,6,0,L|122:160,1,72,2|0,0:0|0:0,0:0:0:0:
307,124,30401,2,0,L|296:211,1,72,8|0,0:3|0:0,0:0:0:0:
91,174,30748,2,0,L|111:261,1,72,2|0,0:3|0:0,0:0:0:0:
354,275,31094,1,8,0:3:0:0:
223,332,31268,5,4,0:2:0:0:
317,198,31441,1,0,0:0:0:0:
322,367,31615,1,0,0:0:0:0:
241,146,31788,1,8,0:3:0:0:
417,191,31962,1,0,0:3:0:0:
153,194,32135,2,0,P|141:160|144:125,2,72,8|0|8,0:3|0:0|0:3,0:0:0:0:
299,278,32655,1,0,0:0:0:0:
331,80,32829,6,0,P|311:126|211:130,1,144,4|0,0:0|0:1,0:0:0:0:
239,47,33349,1,0,0:0:0:0:
269,246,33522,2,0,L|133:202,1,144,8|0,0:3|0:1,0:0:0:0:
196,102,34042,1,0,0:0:0:0:
237,288,34216,1,4,0:3:0:0:
330,153,34563,6,0,P|308:232|368:251,2,144,0|8|0,0:1|0:3|0:1,0:0:0:0:
274,311,35603,6,0,P|222:253|225:169,1,144,4|0,0:0|0:1,0:0:0:0:
343,134,36123,1,0,0:0:0:0:
129,210,36297,2,0,P|135:149|214:100,1,144,8|0,0:3|0:0,0:0:0:0:
302,224,36817,1,0,0:0:0:0:
213,180,36990,1,8,0:3:0:0:
159,115,37337,6,0,P|106:155|93:181,1,72,0|0,0:1|0:0,0:0:0:0:
61,297,37684,2,0,P|50:233|23:212,1,72,8|0,0:3|0:0,0:0:0:0:
122,365,38031,1,0,0:1:0:0:
23,147,38204,1,0,0:0:0:0:
226,176,38378,6,0,P|158:235|169:314,1,144,4|8,0:2|0:3,0:0:0:0:
328,327,38898,6,0,P|281:295|276:276,1,72,0|0,0:3|0:0,0:0:0:0:
385,152,39245,2,0,L|374:256,1,72,0|8,0:3|0:3,0:0:0:0:
187,244,39592,1,0,0:3:0:0:
272,45,39765,6,0,P|303:86|338:101,1,72,4|0,0:2|0:3,0:0:0:0:
192,120,40112,1,8,0:3:0:0:
366,227,40285,2,0,P|311:224|279:198,1,72,0|0,0:3|0:0,0:0:0:0:
341,146,40632,1,0,0:3:0:0:
253,363,40805,1,8,0:3:0:0:
366,227,40979,1,0,0:3:0:0:
169,291,41152,6,0,P|171:220|108:178,1,144,4|8,0:2|0:3,0:0:0:0:
245,68,41846,2,0,P|220:123|268:189,1,144,4|8,0:2|0:3,0:0:0:0:
310,119,42540,5,2,0:2:0:0:
214,257,42713,1,0,0:0:0:0:
346,275,42886,1,2,0:2:0:0:
220,93,43060,1,0,0:0:0:0:
128,240,43233,1,2,0:2:0:0:
160,272,43407,1,2,0:2:0:0:
192,304,43580,1,2,0:2:0:0:
350,124,43927,6,0,P|241:171|303:245,1,233.999989288331,4|0,0:3|0:0,0:0:0:0:
156,157,45314,2,0,P|183:272|308:315,1,233.999989288331,4|0,0:3|0:0,0:0:0:0:
335,65,46701,6,0,B|321:193|321:193|205:218,1,233.999989288331,4|0,0:3|0:0,0:0:0:0:
241,309,48089,2,0,P|169:302|150:149,1,233.999989288331,4|0,0:3|0:0,0:0:0:0:
375,286,49476,6,0,L|431:36,1,233.999989288331,4|8,0:2|0:3,0:0:0:0:
204,217,50863,2,0,P|268:112|352:162,1,233.999989288331,4|8,0:3|0:3,0:0:0:0:
336,236,52251,6,0,B|252:291|153:255|153:255|183:193,2,233.999989288331,4|8|8,0:2|0:3|0:3,0:0:0:0:
382,121,53811,1,0,0:2:0:0:
260,133,53985,1,8,0:3:0:0:
336,236,54158,1,0,0:2:0:0:
312,45,54331,1,8,0:3:0:0:
173,98,54505,6,0,P|169:171|241:220,1,144,0|0,0:0|0:0,0:0:0:0:
396,165,55025,6,0,L|240:135,1,144,8|0,0:3|0:0,0:0:0:0:
342,235,55545,2,0,P|332:280|290:315,2,72,2|0|2,0:2|0:0|0:2,0:0:0:0:
171,200,56066,2,0,P|226:203|257:230,1,72,0|0,0:0|0:0,0:0:0:0:
172,326,56412,5,8,0:3:0:0:
269,132,56586,1,0,0:0:0:0:
270,292,56759,1,0,0:0:0:0:
69,205,56933,2,0,P|57:159|88:116,1,72,2|0,0:2|0:0,0:0:0:0:
255,274,57279,2,0,L|183:224,1,72,2|0,0:2|0:0,0:0:0:0:
221,126,57626,1,0,0:0:0:0:
257,273,57800,6,0,P|324:244|336:176,1,144,8|0,0:3|0:0,0:0:0:0:
194,221,58320,2,0,P|174:268|195:313,2,72,2|0|2,0:2|0:0|0:2,0:0:0:0:
337,120,58840,1,0,0:0:0:0:
256,335,59014,1,0,0:0:0:0:
94,221,59187,6,0,P|120:171|117:146,1,72,2|0,0:2|0:0,0:0:0:0:
146,294,59534,2,0,P|175:260|210:257,1,72,8|0,0:3|0:0,0:0:0:0:
33,315,59881,1,2,0:2:0:0:
134,174,60054,1,0,0:0:0:0:
236,345,60227,1,8,0:3:0:0:
22,180,60401,1,0,0:0:0:0:
188,106,60574,5,2,0:2:0:0:
278,51,60748,1,0,0:0:0:0:
257,165,60921,1,8,0:3:0:0:
128,48,61094,2,0,P|99:89|101:132,1,72,0|2,0:0|0:2,0:0:0:0:
181,226,61441,1,0,0:0:0:0:
266,51,61615,1,8,0:3:0:0:
85,215,61788,2,0,P|103:259|86:312,2,72,0|2|0,0:0|0:2|0:0,0:0:0:0:
166,338,62308,5,8,0:3:0:0:
277,222,62482,1,0,0:0:0:0:
100,282,62655,1,2,0:2:0:0:
338,318,62829,1,0,0:0:0:0:
253,143,63002,1,8,0:3:0:0:
166,329,63175,1,0,0:0:0:0:
399,214,63349,5,2,0:2:0:0:
132,62,63522,2,0,P|104:115|102:155,1,72,0|8,0:0|0:3,0:0:0:0:
284,284,63869,1,0,0:0:0:0:
127,274,64042,2,0,P|151:321|149:354,1,72,2|8,0:2|0:3,0:0:0:0:
56,236,64389,2,0,P|85:203|131:201,1,72,2|8,0:2|0:3,0:0:0:0:
254,257,64736,5,2,0:2:0:0:
155,116,64910,1,0,0:0:0:0:
306,166,65083,1,8,0:3:0:0:
134,342,65256,2,0,L|149:237,1,90,0|8,0:0|0:3,0:0:0:0:
199,79,65603,1,0,0:0:0:0:
272,297,65777,1,8,0:3:0:0:
47,144,65950,2,0,P|105:86|151:86,1,90,0|8,0:0|0:3,0:0:0:0:
177,337,66297,1,0,0:3:0:0:
127,163,66470,1,8,0:3:0:0:
352,96,66817,5,0,0:0:0:0:
336,128,66990,1,0,0:0:0:0:
320,160,67164,1,0,0:0:0:0:
170,107,67337,1,8,0:3:0:0:
170,107,67424,1,0,0:3:0:0:
170,107,67511,6,0,P|153:153|90:187,1,107.999996704102,4|0,0:2|0:0,0:0:0:0:
197,26,67858,2,0,P|243:67|250:141,1,107.999996704102,4|8,0:3|0:3,0:0:0:0:
192,242,68204,1,4,0:3:0:0:
132,149,68378,1,0,0:0:0:0:
305,195,68551,1,4,0:3:0:0:
159,331,68725,1,0,0:0:0:0:
55,262,68898,6,0,P|32:204|48:138,1,107.999996704102,2|0,0:2|0:0,0:0:0:0:
253,205,69245,2,0,L|129:197,1,107.999996704102,8|8,0:3|0:3,0:0:0:0:
221,39,69592,2,0,P|194:100|246:175,2,161.999995056153,2|8|2,0:2|0:3|0:2,0:0:0:0:
322,193,70285,6,0,P|287:245|238:248,1,107.999996704102,4|0,0:2|0:0,0:0:0:0:
286,95,70632,2,0,L|403:127,1,107.999996704102,8|0,0:3|0:0,0:0:0:0:
431,303,70979,2,0,P|404:257|406:203,1,107.999996704102,2|0,0:2|0:0,0:0:0:0:
344,323,71326,1,8,0:3:0:0:
219,246,71499,1,0,0:0:0:0:
354,167,71673,5,2,0:2:0:0:
250,326,71846,1,0,0:0:0:0:
123,266,72019,1,8,0:3:0:0:
278,222,72193,1,0,0:0:0:0:
194,355,72366,1,2,0:2:0:0:
121,176,72540,1,2,0:2:0:0:
312,325,72713,5,8,0:3:0:0:
241,264,72886,1,8,0:3:0:0:
423,222,73060,2,0,P|333:222|312:190,1,107.999996704102,4|0,0:2|0:0,0:0:0:0:
449,143,73407,1,2,0:2:0:0:
325,214,73580,1,2,0:2:0:0:
449,143,73753,2,0,P|508:199|508:258,1,107.999996704102,4|0,0:2|0:0,0:0:0:0:
341,235,74100,1,2,0:2:0:0:
465,68,74274,1,2,0:2:0:0:
248,222,74447,6,0,P|284:162|348:149,1,107.999996704102,4|0,0:2|0:0,0:0:0:0:
243,304,74794,2,0,P|171:263|175:213,1,107.999996704102,2|2,0:2|0:2,0:0:0:0:
234,129,75141,1,4,0:2:0:0:
407,177,75314,2,0,L|395:233,1,53.9999983520508,4|0,0:3|0:0,0:0:0:0:
315,241,75488,2,0,L|336:312,1,53.9999983520508,4|0,0:3|0:0,0:0:0:0:
212,223,75661,6,0,P|248:172|290:150,1,107.999996704102,2|4,0:2|0:3,0:0:0:0:
154,158,76008,2,0,L|188:56,1,107.999996704102,0|4,0:0|0:3,0:0:0:0:
212,223,76355,1,0,0:0:0:0:
51,118,76528,1,2,0:2:0:0:
188,56,76701,1,0,0:0:0:0:
74,246,76875,1,4,0:3:0:0:
269,126,77048,6,0,P|212:169|199:206,1,107.999996704102,0|2,0:0|0:2,0:0:0:0:
346,169,77395,2,0,P|352:112|322:63,1,107.999996704102,4|8,0:3|0:3,0:0:0:0:
144,129,77742,1,0,0:0:0:0:
144,129,77829,1,0,0:0:0:0:
144,129,77915,1,4,0:3:0:0:
409,95,78089,5,0,0:3:0:0:
362,118,78175,1,0,0:3:0:0:
348,169,78262,1,4,0:3:0:0:
376,213,78349,1,0,0:3:0:0:
416,235,78436,1,0,0:3:0:0:
463,258,78522,1,0,0:3:0:0:
477,309,78609,5,4,0:2:0:0:
268,329,78782,2,0,P|235:256|256:229,1,116.999994644165,0|4,0:0|0:3,0:0:0:0:
159,320,79129,1,8,0:3:0:0:
181,183,79303,2,0,L|214:70,1,116.999994644165,4|0,0:3|0:0,0:0:0:0:
263,220,79649,2,0,P|206:271|145:260,1,116.999994644165,4|0,0:3|0:0,0:0:0:0:
109,178,79996,5,2,0:2:0:0:
337,277,80170,1,0,0:0:0:0:
157,355,80343,1,8,0:3:0:0:
274,140,80516,1,8,0:3:0:0:
54,198,80690,2,0,P|97:122|148:164,2,175.499991966248,2|8|2,0:2|0:3|0:2,0:0:0:0:
238,229,81384,6,0,P|265:166|242:122,1,116.999994644165,4|0,0:2|0:0,0:0:0:0:
187,298,81730,2,0,P|252:311|305:282,1,116.999994644165,8|0,0:3|0:0,0:0:0:0:
201,178,82077,1,2,0:2:0:0:
301,366,82251,1,0,0:0:0:0:
352,187,82424,1,8,0:3:0:0:
187,298,82597,1,0,0:0:0:0:
385,270,82771,6,0,P|434:215|429:162,1,116.999994644165,2|0,0:2|0:0,0:0:0:0:
328,333,83118,2,0,P|391:354|445:329,1,116.999994644165,8|0,0:3|0:0,0:0:0:0:
364,94,83464,2,0,P|333:155|368:206,1,116.999994644165,2|2,0:2|0:2,0:0:0:0:
451,130,83811,2,0,P|448:71|408:25,1,116.999994644165,2|2,0:2|0:2,0:0:0:0:
127,65,84158,6,0,B|197:106|245:33|337:100,1,215.999993408203,4|8,0:2|0:3,0:0:0:0:
55,16,84678,2,0,P|35:75|69:122,2,107.999996704102,0|0|0,0:0|0:0|0:0,0:0:0:0:
149,109,85199,2,0,B|127:192|51:198|51:198|116:264,1,215.999993408203,8|0,0:3|0:0,0:0:0:0:
216,215,85719,1,0,0:0:0:0:
57,104,85892,1,8,0:3:0:0:
102,250,86066,1,0,0:0:0:0:
228,117,86239,1,8,0:3:0:0:
34,186,86412,1,0,0:0:0:0:
132,330,86586,2,0,P|186:298|189:249,1,107.999996704102,8|0,0:3|0:0,0:0:0:0:
114,125,86933,6,0,B|209:204|289:119|289:119|412:206,1,323.999990112305,4|2,0:2|0:2,0:0:0:0:
309,31,87800,2,0,P|254:36|207:84,1,107.999996704102,0|2,0:0|0:2,0:0:0:0:
307,229,88320,6,0,P|364:282|435:111,1,323.999990112305,4|2,0:2|0:2,0:0:0:0:
253,165,89187,2,0,P|219:211|239:268,1,107.999996704102,2|2,0:2|0:2,0:0:0:0:
256,192,89707,12,0,91615,0:0:0:0:
234,110,91788,5,8,0:3:0:0:
275,77,91874,1,0,0:3:0:0:
327,85,91961,1,0,0:3:0:0:
357,128,92048,1,0,0:3:0:0:
345,179,92134,1,8,0:3:0:0:
366,224,92222,1,0,0:3:0:0:
409,252,92308,1,0,0:3:0:0:
457,233,92395,1,0,0:3:0:0:
470,183,92482,5,4,0:2:0:0:
341,305,92655,1,0,0:3:0:0:
389,98,92829,2,0,L|268:119,1,116.999994644165,2|0,0:2|0:0,0:0:0:0:
124,193,93175,2,0,L|257:200,1,116.999994644165,8|0,0:3|0:0,0:0:0:0:
241,43,93522,1,2,0:2:0:0:
181,282,93696,1,0,0:0:0:0:
292,157,93869,5,8,0:3:0:0:
96,269,94042,1,0,0:0:0:0:
309,263,94216,1,2,0:2:0:0:
90,151,94389,1,0,0:0:0:0:
301,349,94563,2,0,P|372:332|395:284,1,116.999994644165,8|0,0:3|0:0,0:0:0:0:
307,120,94910,1,2,0:2:0:0:
314,267,95083,1,0,0:0:0:0:
408,99,95256,6,0,L|286:151,1,116.999994644165,4|0,0:2|0:0,0:0:0:0:
432,177,95603,2,0,P|485:132|478:74,1,116.999994644165,2|2,0:2|0:2,0:0:0:0:
258,66,95950,1,8,0:3:0:0:
444,258,96123,1,2,0:2:0:0:
350,39,96297,1,2,0:2:0:0:
304,288,96470,1,2,0:2:0:0:
225,38,96644,6,0,P|145:97|150:138,1,116.999994644165,8|2,0:3|0:2,0:0:0:0:
140,210,96990,2,0,P|128:136|59:106,1,116.999994644165,2|2,0:2|0:2,0:0:0:0:
57,283,97337,2,0,L|212:251,1,116.999994644165,8|4,0:3|0:3,0:0:0:0:
291,228,97684,2,0,L|261:168,1,58.4999973220826,4|0,0:3|0:0,0:0:0:0:
75,197,98031,6,0,P|7:209|-16:271,1,116.999994644165,4|0,0:2|0:3,0:0:0:0:
115,275,98378,2,0,P|164:228|157:169,1,116.999994644165,2|0,0:2|0:0,0:0:0:0:
84,70,98725,1,8,0:3:0:0:
33,291,98898,1,0,0:0:0:0:
260,263,99071,1,2,0:2:0:0:
212,68,99244,1,0,0:0:0:0:
177,218,99418,6,0,P|237:208|275:155,1,116.999994644165,8|0,0:3|0:0,0:0:0:0:
92,251,99765,2,0,P|128:304|192:306,1,116.999994644165,2|0,0:2|0:0,0:0:0:0:
266,230,100112,1,8,0:3:0:0:
188,80,100285,1,0,0:0:0:0:
172,231,100459,1,2,0:2:0:0:
368,146,100632,1,0,0:0:0:0:
123,213,100805,6,0,L|152:335,1,116.999994644165,4|0,0:2|0:0,0:0:0:0:
392,233,101152,2,0,P|331:266|340:332,1,116.999994644165,2|2,0:2|0:2,0:0:0:0:
473,215,101499,1,8,0:3:0:0:
233,304,101673,1,2,0:2:0:0:
409,314,101846,1,2,0:2:0:0:
365,118,102019,1,2,0:2:0:0:
172,231,102193,6,0,P|128:300|152:351,1,116.999994644165,8|2,0:3|0:2,0:0:0:0:
329,330,102540,2,0,L|201:296,1,116.999994644165,2|2,0:2|0:2,0:0:0:0:
434,330,102886,2,0,P|401:273|415:223,1,116.999994644165,8|4,0:3|0:3,0:0:0:0:
312,244,103233,2,0,P|276:190|193:176,1,116.999994644165,4|0,0:3|0:0,0:0:0:0:
223,256,103753,6,0,L|192:381,2,90,2|2|2,0:2|0:2|0:2,0:0:0:0:
412,72,105314,1,8,0:3:0:0:
368,72,105400,1,0,0:0:0:0:
340,105,105487,1,0,0:0:0:0:
346,149,105574,1,0,0:0:0:0:
383,172,105661,2,0,P|455:159|481:115,1,90,8|0,0:3|0:0,0:0:0:0:
334,109,106008,2,0,P|301:162|319:226,1,90,8|0,0:3|0:0,0:0:0:0:
423,348,106355,6,0,L|439:255,1,72,4|0,0:0|0:0,0:0:0:0:
272,331,106701,2,0,P|329:295|334:269,1,72,0|0,0:1|0:0,0:0:0:0:
195,203,107048,2,0,P|238:242|268:250,2,72,8|0|0,0:3|0:0|0:1,0:0:0:0:
323,182,107742,6,0,P|338:243|331:284,1,72,4|0,0:3|0:0,0:0:0:0:
154,328,108089,2,0,L|222:267,1,72,0|0,0:1|0:0,0:0:0:0:
66,351,108436,2,0,P|66:310|94:268,1,72,8|0,0:3|0:0,0:0:0:0:
225,209,108782,1,0,0:1:0:0:
151,327,108956,1,0,0:0:0:0:
46,191,109129,6,0,P|37:118|44:102,1,72,4|0,0:0|0:0,0:0:0:0:
172,97,109476,2,0,P|139:135|98:151,1,72,0|0,0:1|0:0,0:0:0:0:
256,74,109823,2,0,P|278:136|304:159,2,72,8|0|0,0:3|0:0|0:1,0:0:0:0:
365,138,110343,1,0,0:0:0:0:
214,191,110516,1,0,0:0:0:0:
373,195,110863,6,0,P|316:235|336:313,2,144,0|8|0,0:1|0:3|0:1,0:0:0:0:
235,310,111730,1,0,0:0:0:0:
166,157,111904,2,0,P|193:229|139:267,1,144,4|8,0:2|0:3,0:0:0:0:
116,97,112424,2,0,P|155:75|205:90,1,72,0|8,0:0|0:3,0:0:0:0:
32,194,112771,2,0,P|3:150|12:115,1,72,0|8,0:0|0:3,0:0:0:0:
154,198,113118,2,0,P|154:242|120:281,1,72,0|4,0:0|0:2,0:0:0:0:
57,138,113464,5,0,0:2:0:0:
264,86,113638,1,8,0:3:0:0:
140,265,113811,1,0,0:2:0:0:
171,43,113985,1,8,0:3:0:0:
246,252,114158,1,0,0:2:0:0:
71,149,114331,1,8,0:3:0:0:
235,133,114505,1,8,0:3:0:0:
117,336,114678,6,0,P|132:278|212:258,1,144,2|8,0:0|0:3,0:0:0:0:
307,287,115372,2,0,L|163:211,1,144,2|8,0:3|0:3,0:0:0:0:
235,136,115892,1,4,0:2:0:0:
193,322,116066,1,0,0:0:0:0:
94,202,116239,1,0,0:0:0:0:
238,120,116412,5,8,0:3:0:0:
204,295,116586,1,0,0:3:0:0:
151,79,116759,1,8,0:3:0:0:
328,224,116933,1,0,0:0:0:0:
99,231,117106,2,0,L|67:149,1,72,8|0,0:3|0:0,0:0:0:0:
174,197,117453,6,0,P|181:258|110:311,1,144,4|0,0:0|0:1,0:0:0:0:
112,149,117973,1,0,0:0:0:0:
255,322,118147,2,0,L|96:333,1,144,8|0,0:3|0:1,0:0:0:0:
361,275,118667,2,0,P|303:255|292:240,1,72,0|4,0:0|0:3,0:0:0:0:
447,186,119187,6,0,P|408:232|418:324,2,144,0|8|0,0:1|0:3|0:1,0:0:0:0:
318,224,120054,1,0,0:0:0:0:
400,111,120227,2,0,P|441:95|479:102,1,72,8|0,0:3|0:0,0:0:0:0:
357,149,120574,2,0,L|360:52,1,72,0|0,0:0|0:0,0:0:0:0:
408,226,120921,1,8,0:3:0:0:
202,104,121094,1,0,0:0:0:0:
362,70,121268,1,0,0:1:0:0:
232,230,121441,1,0,0:0:0:0:
440,98,121615,2,0,P|416:137|370:147,1,72,8|0,0:3|0:0,0:0:0:0:
454,211,121962,6,0,L|446:302,1,72,0|0,0:1|0:0,0:0:0:0:
372,204,122308,2,0,P|392:160|426:139,2,72,8|0|0,0:3|0:0|0:0,0:0:0:0:
269,132,122829,1,0,0:0:0:0:
220,262,123002,2,0,L|365:291,1,144,4|8,0:2|0:3,0:0:0:0:
209,171,123522,6,0,P|162:188|148:211,1,72,0|0,0:3|0:0,0:0:0:0:
286,197,123869,2,0,P|290:151|271:118,1,72,0|8,0:3|0:3,0:0:0:0:
121,115,124216,1,0,0:3:0:0:
366,195,124389,6,0,L|286:167,1,72,4|0,0:2|0:3,0:0:0:0:
333,293,124736,1,8,0:3:0:0:
302,86,124910,2,0,P|252:94|228:119,1,72,0|0,0:3|0:0,0:0:0:0:
359,169,125256,2,0,L|388:78,1,72,0|8,0:3|0:3,0:0:0:0:
259,192,125603,1,0,0:3:0:0:
194,108,125777,6,0,L|101:228,1,144,12|8,0:2|0:3,0:0:0:0:
289,240,126470,2,0,P|268:201|175:243,1,144,12|8,0:2|0:3,0:0:0:0:
317,325,127164,5,2,0:2:0:0:
182,216,127337,1,0,0:0:0:0:
225,313,127511,1,2,0:2:0:0:
368,215,127684,1,0,0:0:0:0:
208,128,127858,1,2,0:2:0:0:
240,160,128031,1,2,0:2:0:0:
272,192,128204,1,2,0:2:0:0:
87,133,128551,6,0,P|39:91|145:42,1,233.999989288331,4|0,0:3|0:0,0:0:0:0:
82,219,129938,2,0,B|116:133|233:123|233:123|213:68,1,233.999989288331,4|0,0:3|0:0,0:0:0:0:
32,287,131326,2,0,P|67:305|140:279,2,116.999994644165,4|0|4,0:3|0:0|0:3,0:0:0:0:
190,236,132366,2,0,L|199:310,1,58.4999973220826,0|4,0:0|0:3,0:0:0:0:
223,148,132713,6,0,P|261:127|315:130,1,72,4|0,0:2|0:0,0:0:0:0:
99,203,133407,1,2,0:2:0:0:
183,77,133580,1,8,0:3:0:0:
215,258,133753,1,0,0:0:0:0:
60,108,133927,1,4,0:3:0:0:
60,108,134014,1,0,0:0:0:0:
60,108,134100,5,2,0:2:0:0:
185,209,134274,2,0,L|249:115,1,90,0|8,0:0|0:3,0:0:0:0:
139,290,134621,2,0,P|186:300|236:283,1,90,0|2,0:0|0:2,0:0:0:0:
206,173,134967,1,0,0:0:0:0:
379,323,135141,1,8,0:3:0:0:
341,166,135314,5,0,0:0:0:0:
251,256,135488,1,2,0:2:0:0:
241,105,135661,1,0,0:0:0:0:
356,243,135834,1,8,0:3:0:0:
165,192,136008,1,0,0:0:0:0:
332,86,136181,1,2,0:2:0:0:
284,262,136355,1,0,0:0:0:0:
332,86,136528,1,8,0:3:0:0:
284,262,136701,1,0,0:0:0:0:
248,66,136875,6,0,P|246:114|284:159,1,90,2|0,0:2|0:0,0:0:0:0:
423,88,137222,2,0,P|378:73|334:90,1,90,8|0,0:3|0:0,0:0:0:0:
461,173,137568,2,0,L|437:266,1,90,2|8,0:2|0:3,0:0:0:0:
289,268,137915,2,0,L|374:200,1,90,2|8,0:2|0:3,0:0:0:0:
191,296,138262,5,2,0:2:0:0:
191,296,138436,1,0,0:0:0:0:
55,190,138609,1,8,0:3:0:0:
125,109,138782,5,0,0:0:0:0:
125,109,138956,1,8,0:3:0:0:
49,332,139129,1,0,0:0:0:0:
173,246,139303,6,0,P|225:211|289:295,1,180,8|8,0:3|0:3,0:0:0:0:
135,306,139823,2,0,L|117:205,1,90,0|8,0:3|0:3,0:0:0:0:
240,144,140343,5,2,0:2:0:0:
272,176,140516,1,0,0:0:0:0:
304,208,140690,1,2,0:2:0:0:
144,295,140863,5,8,0:3:0:0:
144,295,140950,1,0,0:3:0:0:
144,295,141037,2,0,P|175:242|233:227,1,90,4|0,0:2|0:0,0:0:0:0:
103,366,141384,2,0,P|63:321|68:270,1,107.999996704102,4|8,0:3|0:3,0:0:0:0:
230,170,141730,5,4,0:3:0:0:
143,292,141904,1,0,0:0:0:0:
141,196,142077,1,4,0:3:0:0:
230,274,142251,1,0,0:0:0:0:
164,122,142424,2,0,P|103:120|67:162,1,107.999996704102,2|0,0:2|0:0,0:0:0:0:
245,151,142771,2,0,P|244:91|202:56,1,107.999996704102,8|8,0:3|0:3,0:0:0:0:
301,222,143118,6,0,L|461:178,2,161.999995056153,2|8|2,0:2|0:3|0:2,0:0:0:0:
220,260,143811,6,0,P|266:301|317:305,1,107.999996704102,4|0,0:2|0:0,0:0:0:0:
227,174,144158,2,0,P|166:187|135:235,1,107.999996704102,8|0,0:3|0:0,0:0:0:0:
296,216,144505,2,0,L|266:93,1,107.999996704102,2|0,0:2|0:0,0:0:0:0:
219,257,144852,1,8,0:3:0:0:
351,66,145025,1,0,0:0:0:0:
198,170,145199,5,2,0:2:0:0:
126,58,145372,1,0,0:0:0:0:
130,261,145545,5,8,0:3:0:0:
58,149,145718,1,0,0:0:0:0:
52,313,145892,6,0,P|97:351|158:349,1,107.999996704102,2|2,0:2|0:2,0:0:0:0:
159,160,146239,1,8,0:3:0:0:
172,340,146412,1,8,0:3:0:0:
331,243,146586,6,0,P|291:305|314:357,1,107.999996704102,4|0,0:2|0:0,0:0:0:0:
408,227,146933,1,2,0:2:0:0:
325,354,147106,1,2,0:2:0:0:
487,240,147279,6,0,P|474:173|421:153,1,107.999996704102,4|0,0:2|0:0,0:0:0:0:
477,280,147626,1,2,0:2:0:0:
353,140,147800,1,2,0:2:0:0:
328,271,147973,5,4,0:2:0:0:
412,88,148147,1,0,0:0:0:0:
249,169,148320,1,2,0:2:0:0:
428,246,148493,1,2,0:2:0:0:
305,99,148667,1,4,0:2:0:0:
195,206,148840,6,0,L|205:286,1,53.9999983520508,4|0,0:3|0:0,0:0:0:0:
283,191,149014,2,0,L|292:272,1,53.9999983520508,4|0,0:3|0:0,0:0:0:0:
363,170,149187,1,2,0:2:0:0:
401,342,149360,6,0,L|452:124,1,215.999993408203,4|4,0:3|0:3,0:0:0:0:
237,331,149881,2,0,P|276:269|340:268,1,107.999996704102,0|2,0:0|0:2,0:0:0:0:
172,380,150227,2,0,P|147:328|165:272,1,107.999996704102,0|4,0:0|0:3,0:0:0:0:
68,304,150574,1,0,0:0:0:0:
68,304,150661,1,0,0:0:0:0:
68,304,150748,5,2,0:2:0:0:
215,191,150921,1,4,0:3:0:0:
232,324,151094,1,8,0:3:0:0:
101,208,151268,1,0,0:3:0:0:
101,208,151355,1,0,0:3:0:0:
101,208,151441,1,4,0:3:0:0:
368,58,151615,5,0,0:3:0:0:
328,92,151701,1,0,0:3:0:0:
318,144,151788,1,4,0:3:0:0:
344,191,151875,1,0,0:3:0:0:
379,215,151962,1,0,0:3:0:0:
419,249,152048,1,0,0:3:0:0:
429,301,152135,5,4,0:2:0:0:
267,257,152308,1,0,0:0:0:0:
353,356,152482,1,4,0:3:0:0:
371,178,152655,1,8,0:3:0:0:
244,273,152829,6,0,P|253:351|272:371,1,107.999996704102,4|0,0:3|0:0,0:0:0:0:
293,208,153175,2,0,P|227:194|175:228,1,107.999996704102,4|0,0:3|0:0,0:0:0:0:
317,294,153522,2,0,B|383:138|383:138|295:129,1,215.999993408203,2|8,0:2|0:3,0:0:0:0:
239,317,154216,6,0,P|299:372|387:335,2,161.999995056153,2|8|2,0:2|0:3|0:2,0:0:0:0:
463,320,154910,6,0,L|375:242,1,107.999996704102,4|0,0:2|0:0,0:0:0:0:
314,289,155256,2,0,P|305:217|347:174,1,107.999996704102,8|0,0:3|0:0,0:0:0:0:
295,368,155603,2,0,P|245:333|224:280,1,107.999996704102,2|0,0:2|0:0,0:0:0:0:
367,246,155950,1,8,0:3:0:0:
140,314,156123,1,0,0:0:0:0:
239,127,156297,6,0,P|221:187|243:238,1,107.999996704102,2|0,0:2|0:0,0:0:0:0:
364,102,156644,2,0,L|248:45,1,107.999996704102,8|0,0:3|0:0,0:0:0:0:
462,155,156990,2,0,P|389:203|391:252,1,107.999996704102,2|2,0:2|0:2,0:0:0:0:
446,311,157337,6,0,L|326:284,1,90,2|2,0:2|0:2,0:0:0:0:
132,292,157684,6,0,P|212:301|271:213,1,180,4|8,0:2|0:3,0:0:0:0:
91,237,158204,2,0,L|57:361,1,90,0|0,0:0|0:0,0:0:0:0:
187,191,158551,1,0,0:0:0:0:
206,294,158725,2,0,L|383:200,1,180,8|0,0:3|0:0,0:0:0:0:
334,95,159245,5,0,0:0:0:0:
446,217,159418,1,8,0:3:0:0:
433,99,159592,1,0,0:0:0:0:
364,209,159765,1,8,0:3:0:0:
410,126,159938,1,0,0:0:0:0:
291,240,160112,2,0,P|334:282|386:289,1,90,8|0,0:3|0:0,0:0:0:0:
296,155,160459,6,0,P|242:175|231:300,1,180,4|0,0:2|0:0,0:0:0:0:
375,224,160979,2,0,L|481:288,1,90,2|2,0:2|0:2,0:0:0:0:
327,310,161326,1,0,0:0:0:0:
457,181,161499,1,2,0:2:0:0:
434,353,161673,1,0,0:0:0:0:
385,251,161846,6,0,P|299:252|258:166,1,180,4|2,0:2|0:2,0:0:0:0:
338,74,162366,2,0,P|251:84|234:74,1,90,2|0,0:2|0:0,0:0:0:0:
156,50,162713,2,0,L|185:149,1,90,2|2,0:2|0:2,0:0:0:0:
73,71,163060,1,2,0:2:0:0:
77,240,163233,6,0,P|124:205|246:284,1,215.999993408203,8|8,0:3|0:3,0:0:0:0:
211,303,164621,2,0,B|333:172|333:172|348:231,1,215.999993408203,0|8,0:0|0:3,0:0:0:0:
256,372,166008,6,0,P|197:383|150:253,1,215.999993408203,0|8,0:0|0:3,0:0:0:0:
65,292,167395,2,0,B|119:127|119:127|162:162,1,215.999993408203,0|2,0:0|0:2,0:0:0:0:
388,140,168782,6,0,B|301:204|301:204|368:302,1,215.999993408203,0|8,0:0|0:3,0:0:0:0:
450,87,169649,2,0,P|410:59|387:58,1,53.9999983520508,0|0,0:0|0:0,0:0:0:0:
320,60,169996,2,0,P|252:84|276:255,1,269.999991760254,0|8,0:0|0:3,0:0:0:0:
411,189,171557,6,0,B|254:228|254:228|300:274,1,215.999993408203,0|8,0:0|0:3,0:0:0:0:
464,259,172424,2,0,P|487:224|492:202,1,53.9999983520508,0|0,0:0|0:0,0:0:0:0:
269,131,172771,2,0,B|166:164|166:164|173:269|173:269|219:314,1,269.999991760254,0|8,0:0|0:3,0:0:0:0:
275,231,173811,5,8,0:3:0:0:
275,231,173898,1,0,0:0:0:0:
275,231,173985,1,0,0:0:0:0:
375,117,174158,6,0,P|351:189|462:273,1,215.999993408203,4|0,0:2|0:0,0:0:0:0:
454,97,174678,6,0,P|421:51|367:37,1,107.999996704102,2|0,0:2|0:0,0:0:0:0:
431,179,175025,2,0,P|499:172|538:117,1,107.999996704102,2|0,0:2|0:0,0:0:0:0:
263,162,175372,6,0,L|249:282,2,107.999996704102,8|0|8,0:3|0:0|0:3,0:0:0:0:
330,297,175892,6,0,P|288:342|233:348,1,107.999996704102,0|8,0:0|0:3,0:0:0:0:
139,259,176239,1,0,0:0:0:0:
349,216,176412,1,8,0:3:0:0:
244,349,176586,1,0,0:0:0:0:
294,141,176759,1,8,0:3:0:0:
190,237,176933,6,0,B|199:55|199:55|241:77,1,215.999993408203,4|0,0:2|0:0,0:0:0:0:
168,317,177453,2,0,P|115:274|112:215,1,107.999996704102,2|0,0:2|0:0,0:0:0:0:
261,298,177800,1,2,0:2:0:0:
261,298,177886,1,0,0:0:0:0:
261,298,177973,1,8,0:3:0:0:
357,249,178147,2,0,L|243:306,1,107.999996704102,8|8,0:3|0:3,0:0:0:0:
416,108,178493,6,0,P|410:176|439:223,1,107.999996704102,8|0,0:3|0:0,0:0:0:0:
443,33,178840,2,0,P|378:35|344:94,1,107.999996704102,2|0,0:2|0:0,0:0:0:0:
493,150,179187,1,8,0:3:0:0:
292,147,179360,1,8,0:3:0:0:
421,269,179534,1,8,0:3:0:0:
377,111,179707,6,0,P|354:200|233:227,1,215.999993408203,4|0,0:2|0:0,0:0:0:0:
469,133,180227,2,0,L|482:272,1,107.999996704102,2|8,0:2|0:3,0:0:0:0:
306,323,180574,2,0,L|182:301,2,107.999996704102,2|8|8,0:2|0:3|0:3,0:0:0:0:
196,207,181094,1,8,0:3:0:0:
196,207,181181,1,0,0:0:0:0:
196,207,181268,1,2,0:2:0:0:
306,220,181441,6,0,B|364:112,1,107.999996704102,8|2,0:3|0:2,0:0:0:0:
112,101,181788,2,0,P|123:173|163:208,2,107.999996704102,8|8|8,0:3|0:3|0:3,0:0:0:0:
206,112,182308,1,2,0:2:0:0:
39,182,182482,1,8,0:3:0:0:
170,29,182655,6,0,P|114:7|56:29,1,107.999996704102,2|0,0:2|0:0,0:0:0:0:
284,58,183002,2,0,P|225:80|199:145,1,107.999996704102,8|0,0:3|0:0,0:0:0:0:
361,172,183349,1,2,0:2:0:0:
157,224,183522,1,0,0:0:0:0:
220,286,183696,1,8,0:3:0:0:
282,138,183869,1,0,0:0:0:0:
157,224,184042,6,0,P|130:280|142:335,1,107.999996704102,2|8,0:2|0:3,0:0:0:0:
245,219,184389,2,0,L|127:182,1,107.999996704102,2|8,0:2|0:3,0:0:0:0:
250,306,184736,2,0,P|303:280|326:234,1,107.999996704102,2|8,0:2|0:3,0:0:0:0:
385,122,185083,2,0,P|389:179|441:218,1,107.999996704102,2|8,0:2|0:3,0:0:0:0:
316,49,185430,6,0,B|237:204|237:204|204:163,1,215.999993408203,4|0,0:2|0:0,0:0:0:0:
412,40,185950,2,0,P|467:75|464:123,1,107.999996704102,8|0,0:3|0:0,0:0:0:0:
383,145,186297,1,0,0:0:0:0:
485,220,186470,6,0,P|429:278|430:325,1,107.999996704102,8|0,0:3|0:0,0:0:0:0:
243,250,186817,6,0,P|331:249|381:136,1,215.999993408203,4|0,0:2|0:0,0:0:0:0:
227,162,187337,2,0,P|179:188|221:336,1,215.999993408203,8|0,0:3|0:0,0:0:0:0:
247,241,187858,2,0,L|20:283,1,215.999993408203,8|4,0:3|0:2,0:0:0:0:
154,159,188378,5,0,0:3:0:0:
191,345,188551,1,2,0:2:0:0:
250,128,188725,1,0,0:0:0:0:
287,314,188898,1,8,0:3:0:0:
329,162,189071,2,0,P|331:99|301:60,2,107.999996704102,0|2|0,0:0|0:2|0:0,0:0:0:0:
221,283,189592,6,0,P|280:246|406:304,2,215.999993408203,8|2|8,0:3|0:2|0:3,0:0:0:0:
414,199,190459,2,0,P|450:158|465:103,1,107.999996704102,0|2,0:0|0:2,0:0:0:0:
329,159,190805,1,0,0:0:0:0:
370,268,190979,6,0,P|422:281|467:254,1,107.999996704102,4|0,0:2|0:0,0:0:0:0:
289,247,191326,2,0,P|294:306|339:345,1,107.999996704102,2|2,0:2|0:2,0:0:0:0:
345,194,191673,1,8,0:3:0:0:
215,320,191846,1,2,0:2:0:0:
370,268,192019,1,2,0:2:0:0:
199,160,192193,1,2,0:2:0:0:
306,23,192366,6,0,B|342:184|342:184|408:131,1,215.999993408203,8|2,0:3|0:2,0:0:0:0:
400,61,192886,1,2,0:2:0:0:
273,200,193060,1,8,0:3:0:0:
452,231,193233,1,4,0:3:0:0:
381,152,193407,1,4,0:3:0:0:
358,252,193580,1,0,0:0:0:0:
250,315,193753,5,4,0:2:0:0:
215,279,193839,1,0,0:3:0:0:
169,265,193926,1,0,0:3:0:0:
121,277,194013,1,0,0:3:0:0:
85,261,194100,5,8,0:3:0:0:
43,232,194186,1,0,0:3:0:0:
21,189,194273,1,0,0:3:0:0:
25,140,194360,1,0,0:3:0:0:
62,107,194447,5,8,0:3:0:0:
102,76,194533,1,0,0:3:0:0:
149,70,194620,1,0,0:3:0:0:
195,89,194707,1,0,0:3:0:0:
213,136,194794,5,8,0:3:0:0:
366,85,194967,1,0,0:3:0:0:
378,264,195141,5,2,0:2:0:0:
222,297,195314,1,2,0:2:0:0:
222,297,195488,1,0,0:0:0:0:
437,127,195661,2,0,P|432:187|463:231,1,107.999996704102,2|2,0:2|0:2,0:0:0:0:
364,234,196181,2,0,P|317:203|266:202,1,107.999996704102,2|2,0:2|0:2,0:0:0:0:
256,192,196441,12,0,197828,0:0:0:0:
224,96,197915,6,0,B|199:169|204:238|204:238|136:175|74:165,1,288,2|8,0:2|0:3,0:0:0:0:
294,129,199303,2,0,P|376:106|372:267,1,288,2|8,0:2|0:3,0:0:0:0:
205,118,200690,6,0,P|224:69|316:38,1,144,2|0,0:2|0:0,0:0:0:0:
129,216,201384,2,0,P|185:201|258:242,1,144,8|0,0:3|0:0,0:0:0:0:
340,202,202077,2,0,L|424:63,1,144,8|8,0:3|0:3,0:0:0:0:
417,262,202771,1,8,0:3:0:0:
202,259,203118,5,8,0:3:0:0:
132,331,203291,1,8,0:3:0:0:
290,244,203464,1,2,0:2:0:0:
137,157,203811,2,0,L|121:230,2,72,8|8|2,0:3|0:3|0:2,0:0:0:0:
256,113,204505,1,8,0:3:0:0:
121,227,204678,1,8,0:3:0:0:
158,104,204852,6,0,P|176:57|213:32,1,72,2|0,0:2|0:0,0:0:0:0:
204,172,205199,2,0,P|155:186|119:175,1,72,8|0,0:3|0:0,0:0:0:0:
281,104,205545,2,0,L|286:186,2,72,2|0|2,0:2|0:0|0:2,0:0:0:0:
372,178,206066,1,8,0:3:0:0:
261,272,206239,6,0,P|323:253|390:302,1,144,2|0,0:2|0:0,0:0:0:0:
171,315,206759,2,0,L|190:218,1,72,0|8,0:0|0:3,0:0:0:0:
282,157,207106,2,0,L|263:254,1,72,0|0,0:0|0:0,0:0:0:0:
203,142,207453,2,0,P|219:102|255:83,1,72,0|8,0:0|0:3,0:0:0:0:
398,195,208320,5,8,0:3:0:0:
307,295,208493,1,0,0:0:0:0:
287,152,208667,1,8,0:3:0:0:
398,297,208840,1,0,0:0:0:0:
404,157,209014,6,0,P|463:169|483:200,1,90,2|0,0:2|0:0,0:0:0:0:
349,222,209360,2,0,P|315:173|321:124,1,90,8|0,0:3|0:0,0:0:0:0:
389,80,209707,1,8,0:3:0:0:
404,158,209881,1,8,0:3:0:0:
230,129,210054,2,0,P|251:79|285:65,1,90,8|0,0:3|0:0,0:0:0:0:
248,222,210401,6,0,L|145:202,1,90,2|0,0:2|0:0,0:0:0:0:
331,215,210748,2,0,P|322:268|279:296,1,90,8|8,0:3|0:3,0:0:0:0:
348,139,211094,2,0,L|479:197,2,135,8|8|8,0:3|0:3|0:3,0:0:0:0:
452,275,211788,6,0,P|391:278|375:303,1,90,2|8,0:2|0:3,0:0:0:0:
375,195,212135,2,0,L|361:103,1,90,8|0,0:3|0:0,0:0:0:0:
298,254,212482,2,0,P|281:204|227:180,1,90,8|8,0:3|0:3,0:0:0:0:
155,198,212829,1,8,0:3:0:0:
298,254,213002,1,8,0:3:0:0:
254,87,213175,5,2,0:2:0:0:
212,274,213349,1,8,0:3:0:0:
359,131,213522,1,8,0:3:0:0:
141,138,213696,1,8,0:3:0:0:
312,290,213869,2,0,P|321:235|357:208,1,90,2|8,0:2|0:3,0:0:0:0:
399,330,214216,1,8,0:3:0:0:
214,302,214389,1,8,0:3:0:0:
365,135,214563,5,6,0:2:0:0:
319,268,214736,1,8,0:3:0:0:
215,170,214910,2,0,P|235:120|270:100,2,90,8|8|2,0:3|0:3|0:2,0:0:0:0:
305,251,215430,5,8,0:3:0:0:
166,67,215603,1,8,0:3:0:0:
148,268,215777,2,0,P|199:290|237:285,2,90,8|6|8,0:3|0:2|0:3,0:0:0:0:
221,75,216297,1,8,0:3:0:0:
232,286,216470,1,8,0:3:0:0:
81,151,216644,5,2,0:2:0:0:
320,242,216817,1,8,0:3:0:0:
219,144,216990,1,8,0:3:0:0:
247,110,217076,1,0,0:0:0:0:
290,98,217163,1,8,0:3:0:0:
332,113,217250,1,0,0:0:0:0:
373,97,217337,5,6,0:2:0:0:
303,288,217511,1,0,0:0:0:0:
403,18,217684,2,0,P|453:67|454:109,2,107.999996704102,6|0|6,0:2|0:0|0:2,0:0:0:0:
230,92,218204,5,0,0:0:0:0:
455,101,218378,1,6,0:2:0:0:
310,9,218551,1,0,0:0:0:0:
323,224,218725,1,6,0:2:0:0:
240,130,218898,5,2,0:2:0:0:
201,166,218984,1,0,0:0:0:0:
187,218,219071,1,6,0:2:0:0:
202,269,219158,1,0,0:0:0:0:
179,310,219245,1,0,0:0:0:0:
142,348,219331,1,0,0:0:0:0:
90,362,219418,5,2,0:2:0:0:
99,319,219592,1,2,0:2:0:0:
111,277,219765,1,2,0:2:0:0:
255,321,219938,1,8,0:3:0:0:
255,321,220025,1,0,0:3:0:0:
255,321,220112,1,0,0:3:0:0:
267,84,220459,6,0,P|236:184|279:224,1,125.999996154785,4|0,0:2|0:0,0:0:0:0:
346,114,220805,5,8,0:3:0:0:
145,174,220979,1,0,0:0:0:0:
365,219,221152,1,8,0:3:0:0:
260,33,221326,1,8,0:3:0:0:
273,180,221499,2,0,P|281:284|430:307,1,251.999992309571,8|4,0:3|0:2,0:0:0:0:
352,233,222019,1,8,0:3:0:0:
353,153,222193,6,0,P|280:94|189:150,2,188.999994232178,2|8|2,0:2|0:3|0:2,0:0:0:0:
196,209,222886,6,0,P|133:177|126:106,1,125.999996154785,4|0,0:2|0:0,0:0:0:0:
272,175,223233,2,0,P|270:253|225:288,1,125.999996154785,8|0,0:3|0:0,0:0:0:0:
175,176,223580,1,2,0:2:0:0:
354,305,223753,1,0,0:0:0:0:
287,89,223927,2,0,P|342:123|361:186,1,125.999996154785,8|0,0:3|0:0,0:0:0:0:
193,138,224274,5,2,0:2:0:0:
361,178,224447,1,0,0:0:0:0:
277,303,224621,1,8,0:3:0:0:
440,109,224794,1,0,0:0:0:0:
442,307,224967,1,2,0:2:0:0:
273,115,225141,1,2,0:2:0:0:
200,195,225314,2,0,P|164:141|167:76,1,125.999996154785,8|8,0:3|0:3,0:0:0:0:
272,261,225661,6,0,L|108:250,1,125.999996154785,4|0,0:2|0:0,0:0:0:0:
294,184,226008,1,2,0:2:0:0:
148,255,226181,1,2,0:2:0:0:
214,176,226355,2,0,P|235:114|313:106,1,125.999996154785,4|0,0:2|0:0,0:0:0:0:
138,226,226701,2,0,L|114:87,1,125.999996154785,2|2,0:2|0:2,0:0:0:0:
231,259,227048,5,4,0:2:0:0:
397,326,227222,1,0,0:0:0:0:
323,202,227395,1,2,0:2:0:0:
286,326,227568,1,2,0:2:0:0:
403,231,227742,1,4,0:2:0:0:
194,250,227915,2,0,L|205:329,1,62.9999980773926,4|0,0:3|0:0,0:0:0:0:
110,245,228089,2,0,L|116:328,1,62.9999980773926,4|0,0:3|0:0,0:0:0:0:
34,242,228262,1,2,0:2:0:0:
217,98,228436,6,0,P|141:151|122:37,1,251.999992309571,4|4,0:3|0:3,0:0:0:0:
300,108,228956,2,0,P|283:178|228:222,1,125.999996154785,0|2,0:0|0:2,0:0:0:0:
266,28,229303,2,0,P|332:28|385:92,1,125.999996154785,0|4,0:0|0:3,0:0:0:0:
364,206,229649,2,0,P|426:143|496:154,1,125.999996154785,0|2,0:0|0:2,0:0:0:0:
434,256,229996,1,4,0:3:0:0:
440,51,230170,1,8,0:3:0:0:
370,206,230343,1,0,0:0:0:0:
370,206,230430,1,0,0:0:0:0:
370,206,230516,1,4,0:3:0:0:
241,308,230690,5,0,0:3:0:0:
204,282,230776,1,0,0:3:0:0:
188,241,230863,1,4,0:3:0:0:
199,198,230950,1,0,0:3:0:0:
226,173,231037,1,0,0:3:0:0:
263,147,231123,1,0,0:3:0:0:
279,106,231210,5,4,0:2:0:0:
137,86,231384,1,0,0:0:0:0:
370,160,231557,2,0,P|382:90|340:36,1,125.999996154785,4|8,0:3|0:3,0:0:0:0:
211,103,231904,5,4,0:3:0:0:
333,236,232077,1,0,0:0:0:0:
434,104,232251,1,4,0:3:0:0:
296,36,232424,1,0,0:0:0:0:
222,190,232597,6,0,P|285:234|337:234,1,125.999996154785,2|0,0:2|0:0,0:0:0:0:
228,108,232944,2,0,P|171:122|141:186,1,125.999996154785,8|8,0:3|0:3,0:0:0:0:
301,158,233291,2,0,L|406:-2,2,188.999994232178,2|8|2,0:2|0:3|0:2,0:0:0:0:
63,135,233985,6,0,P|126:104|194:129,1,125.999996154785,4|0,0:2|0:0,0:0:0:0:
214,237,234331,2,0,P|231:177|292:155,1,125.999996154785,8|0,0:3|0:0,0:0:0:0:
269,298,234678,2,0,P|208:318|154:288,1,125.999996154785,2|0,0:2|0:0,0:0:0:0:
287,190,235025,1,8,0:3:0:0:
156,290,235199,1,0,0:0:0:0:
216,102,235372,5,2,0:2:0:0:
287,190,235545,1,0,0:0:0:0:
306,51,235719,5,8,0:3:0:0:
377,139,235892,1,0,0:0:0:0:
418,28,236066,5,2,0:2:0:0:
489,116,236239,1,2,0:2:0:0:
312,257,236412,6,0,P|383:226|456:248,1,125.999996154785,2|2,0:2|0:2,0:0:0:0:
267,359,236759,6,0,B|172:214|172:214|151:284,1,233.999989288331,4|8,0:2|0:3,0:0:0:0:
243,175,237279,2,0,P|190:132|140:136,1,116.999994644165,0|0,0:0|0:0,0:0:0:0:
320,162,237626,1,0,0:0:0:0:
80,199,237800,2,0,P|98:57|209:60,1,233.999989288331,8|0,0:3|0:0,0:0:0:0:
305,81,238320,5,0,0:0:0:0:
417,131,238493,1,8,0:3:0:0:
317,216,238667,1,0,0:0:0:0:
344,146,238840,1,8,0:3:0:0:
395,215,239014,1,0,0:0:0:0:
330,347,239187,2,0,B|163:289|163:289|243:255,1,233.999989288331,8|4,0:3|0:2,0:0:0:0:
112,352,239707,6,0,P|77:297|97:234,1,116.999994644165,0|0,0:0|0:0,0:0:0:0:
175,190,240054,2,0,P|106:153|164:36,1,233.999989288331,2|0,0:2|0:0,0:0:0:0:
175,190,240574,1,2,0:2:0:0:
326,57,240921,6,0,L|320:185,1,116.999994644165,4|0,0:2|0:0,0:0:0:0:
225,62,241268,1,2,0:2:0:0:
412,189,241441,1,2,0:2:0:0:
212,197,241615,1,0,0:0:0:0:
323,122,241788,1,2,0:2:0:0:
294,238,241962,1,2,0:2:0:0:
221,147,242135,1,2,0:2:0:0:
223,281,242308,6,0,B|271:213|380:242|380:242|343:94|343:94|312:135,1,360,8|0,0:3|0:0,0:0:0:0:
166,218,243175,2,0,P|139:269|149:323,1,90,0|0,0:0|0:0,0:0:0:0:
228,164,243522,2,0,B|181:122|117:149|117:149|168:42|168:42|272:31|272:31|286:58,1,360,0|0,0:0|0:0,0:0:0:0:
431,122,244389,1,8,0:3:0:0:
404,86,244475,1,0,0:3:0:0:
366,78,244563,1,0,0:3:0:0:
330,104,244649,1,0,0:3:0:0:
321,147,244736,1,8,0:3:0:0:
342,185,244823,1,0,0:3:0:0:
371,215,244910,1,0,0:3:0:0:
407,241,244996,1,0,0:3:0:0:
416,284,245083,5,4,0:2:0:0:
310,253,245256,1,0,0:3:0:0:
455,124,245430,1,2,0:2:0:0:
483,345,245603,1,0,0:0:0:0:
234,275,245777,1,8,0:3:0:0:
358,177,245950,1,0,0:0:0:0:
262,67,246123,2,0,P|217:175|192:178,1,135.000005149842,2|0,0:2|0:0,0:0:0:0:
175,55,246470,6,0,P|229:-14|327:3,1,135.000005149842,8|0,0:3|0:0,0:0:0:0:
117,176,246817,2,0,L|248:240,1,135.000005149842,2|0,0:2|0:0,0:0:0:0:
341,157,247164,2,0,L|354:244,1,67.5000025749208,4|0,0:3|0:0,0:0:0:0:
430,146,247337,2,0,L|435:235,1,67.5000025749208,4|0,0:3|0:0,0:0:0:0:
512,135,247511,1,2,0:2:0:0:
478,276,247684,1,0,0:0:0:0:
254,221,247858,6,0,P|344:237|273:370,1,270.000010299683,4|2,0:2|0:2,0:0:0:0:
198,282,248378,2,0,P|170:215|204:159,1,135.000005149842,2|8,0:2|0:3,0:0:0:0:
287,133,248725,2,0,P|229:69|238:14,1,135.000005149842,2|2,0:2|0:2,0:0:0:0:
287,133,249071,1,2,0:2:0:0:
383,214,249245,6,0,P|403:120|457:105,1,135.000005149842,8|2,0:3|0:2,0:0:0:0:
462,256,249592,2,0,P|391:303|331:281,1,135.000005149842,2|2,0:2|0:2,0:0:0:0:
458,180,249938,1,8,0:3:0:0:
241,251,250112,6,0,L|232:175,1,67.5000025749208,4|0,0:3|0:0,0:0:0:0:
148,255,250285,2,0,L|151:180,1,67.5000025749208,4|0,0:3|0:0,0:0:0:0:
66,244,250459,1,0,0:0:0:0:
194,113,250632,6,0,P|283:114|306:155,1,135.000005149842,4|0,0:2|0:3,0:0:0:0:
125,155,250979,2,0,P|121:67|173:33,1,135.000005149842,2|0,0:2|0:0,0:0:0:0:
200,190,251326,1,8,0:3:0:0:
66,40,251499,1,0,0:0:0:0:
261,109,251673,1,2,0:2:0:0:
77,194,251846,1,0,0:0:0:0:
212,291,252019,6,0,P|261:237|340:234,1,135.000005149842,8|0,0:3|0:0,0:0:0:0:
201,370,252366,2,0,P|137:337|132:268,1,135.000005149842,2|0,0:2|0:0,0:0:0:0:
288,315,252713,1,8,0:3:0:0:
127,279,252886,1,0,0:0:0:0:
284,233,253060,2,0,P|352:259|368:335,1,135.000005149842,2|0,0:2|0:0,0:0:0:0:
227,297,253407,6,0,P|192:221|334:162,1,270.000010299683,4|2,0:2|0:2,0:0:0:0:
290,353,253927,2,0,P|186:368|141:326,1,135.000005149842,2|8,0:2|0:3,0:0:0:0:
312,277,254274,1,2,0:2:0:0:
148,363,254447,1,2,0:2:0:0:
180,206,254621,1,2,0:2:0:0:
300,368,254794,6,0,P|229:328|245:240,1,135.000005149842,8|2,0:3|0:2,0:0:0:0:
401,186,255141,2,0,L|299:289,1,135.000005149842,2|2,0:2|0:2,0:0:0:0:
334,129,255488,2,0,P|414:100|472:137,1,135.000005149842,8|2,0:3|0:2,0:0:0:0:
280,191,255834,1,2,0:2:0:0:
398,20,256008,1,2,0:2:0:0:
152,103,256181,6,0,P|195:170|163:254,1,135.000005149842,4|0,0:2|0:3,0:0:0:0:
74,139,256528,2,0,P|74:61|127:15,1,135.000005149842,2|0,0:2|0:0,0:0:0:0:
106,208,256875,1,8,0:3:0:0:
110,22,257048,1,0,0:0:0:0:
260,212,257222,1,2,0:2:0:0:
240,37,257395,1,0,0:0:0:0:
297,135,257568,6,0,P|347:186|342:249,1,135.000005149842,8|0,0:3|0:0,0:0:0:0:
216,161,257915,2,0,P|233:77|306:54,1,135.000005149842,2|0,0:2|0:0,0:0:0:0:
388,113,258262,1,8,0:3:0:0:
308,172,258436,1,0,0:0:0:0:
271,54,258609,1,2,0:2:0:0:
167,161,258782,1,0,0:0:0:0:
186,337,258956,6,0,P|216:265|296:261,1,135.000005149842,4|0,0:2|0:0,0:0:0:0:
62,313,259303,2,0,P|23:227|59:180,1,135.000005149842,2|2,0:2|0:2,0:0:0:0:
150,157,259649,1,8,0:3:0:0:
101,245,259823,1,2,0:2:0:0:
44,130,259996,1,2,0:2:0:0:
130,336,260170,1,2,0:2:0:0:
281,321,260343,6,0,P|205:275|208:224,1,135.000005149842,8|2,0:3|0:2,0:0:0:0:
446,318,260690,1,2,0:2:0:0:
203,237,260863,1,2,0:2:0:0:
392,193,261037,1,8,0:3:0:0:
281,321,261210,1,4,0:3:0:0:
318,122,261384,1,4,0:3:0:0:
346,271,261557,1,0,0:0:0:0:
232,141,261730,6,0,P|252:67|317:39,1,135.000005149842,4|0,0:2|0:3,0:0:0:0:
264,219,262077,2,0,P|182:214|148:171,1,135.000005149842,2|0,0:2|0:0,0:0:0:0:
201,63,262424,1,8,0:3:0:0:
150,177,262597,1,0,0:0:0:0:
103,37,262771,1,2,0:2:0:0:
229,142,262944,1,0,0:0:0:0:
211,299,263118,6,0,P|256:233|330:242,1,135.000005149842,8|0,0:3|0:0,0:0:0:0:
190,380,263464,2,0,P|131:334|129:275,1,135.000005149842,2|0,0:2|0:0,0:0:0:0:
270,213,263811,1,8,0:3:0:0:
212,297,263985,1,0,0:0:0:0:
169,202,264158,1,2,0:2:0:0:
298,308,264331,1,0,0:0:0:0:
425,268,264505,6,0,L|306:179,1,135.000005149842,4|0,0:2|0:0,0:0:0:0:
394,145,264852,2,0,P|433:91|497:91,1,135.000005149842,2|2,0:2|0:2,0:0:0:0:
394,145,265199,1,8,0:3:0:0:
461,29,265372,1,2,0:2:0:0:
478,220,265545,1,2,0:2:0:0:
294,150,265719,1,2,0:2:0:0:
133,82,265892,6,0,P|92:162|110:209,1,135.000005149842,8|2,0:3|0:2,0:0:0:0:
203,132,266239,2,0,P|219:53|174:10,1,135.000005149842,2|2,0:2|0:2,0:0:0:0:
198,221,266586,2,0,P|270:200|293:135,1,135.000005149842,8|4,0:3|0:3,0:0:0:0:
120,244,266933,2,0,P|162:298|228:298,1,135.000005149842,4|4,0:3|0:3,0:0:0:0:
346,211,267279,5,2,0:2:0:0:
127,164,267453,1,2,0:2:0:0:
224,307,267800,5,2,0:2:0:0:
278,89,267974,1,2,0:2:0:0:
169,82,268320,5,2,0:2:0:0:
340,226,268494,1,2,0:2:0:0:
256,192,268667,12,0,269881,0:0:0:0:
201,124,270054,6,0,P|179:208|338:230,1,288,8|0,0:3|0:0,0:0:0:0:
435,151,271441,2,0,B|329:54|329:54|247:209,1,288,8|0,0:3|0:0,0:0:0:0:
43,325,272829,2,0,B|49:175|49:175|49:287|129:335|193:255|189:167,1,432,8|0,0:3|0:3,0:3:0:0:
256,192,274216,12,0,281152,0:0:0:0:
