osu file format v14

[General]
AudioFilename: 05. Reapers.mp3
AudioLeadIn: 0
PreviewTime: 219268
Countdown: 0
SampleSet: Soft
StackLeniency: 0.7
Mode: 3
LetterboxInBreaks: 0
SpecialStyle: 0
WidescreenStoryboard: 0

[Editor]
DistanceSpacing: 0.8
BeatDivisor: 6
GridSize: 32
TimelineZoom: 2.300001

[Metadata]
Title:Reapers
TitleUnicode:Reapers
Artist:Muse
ArtistUnicode:Muse
Creator:Jingshenbing
Version:Hawks
Source:
Tags:Drones rock english
BeatmapID:764471
BeatmapSetID:346313

[Difficulty]
HPDrainRate:8.5
CircleSize:7
OverallDifficulty:8.1
ApproachRate:5
SliderMultiplier:1.4
SliderTickRate:1

[Events]
//Background and Video events
0,0,"kjh.jpg",0,0
//Break Periods
//Storyboard Layer 0 (Background)
//Storyboard Layer 1 (Fail)
//Storyboard Layer 2 (Pass)
//Storyboard Layer 3 (Foreground)
//Storyboard Layer 4 (Overlay)
//Storyboard Sound Samples

[TimingPoints]
185,618.656701030928,4,2,1,40,1,0
493,618.656701030928,4,2,1,40,1,0
49676,625.032553778843,4,2,1,40,1,0
79677,309.219010819165,4,2,1,40,1,0
79677,-200,4,2,1,40,0,0
99776,618.656701030928,4,2,1,40,1,0
119263,625.032207735359,4,2,1,40,1,0
239269,-100,4,2,1,40,0,1
259270,-100,4,2,1,40,0,0
267130,511.798630136986,4,2,1,40,1,0
267130,-121.951219512195,4,2,1,40,0,0
283507,507.133680438164,4,2,1,40,1,0
283507,-121.951219512195,4,2,1,40,0,0
314949,555.555555555556,4,2,1,40,1,0
314949,-112.359550561798,4,2,1,40,0,0
315504,707.918181818183,4,2,1,40,1,0
315857,859.042857142857,4,2,1,40,1,0
315857,-83.3333333333333,4,2,1,40,0,0
316286,-72.463768115942,4,2,1,40,0,0

[HitObjects]
182,192,185,5,0,0:0:0:0:
475,192,493,1,8,0:0:0:0:
329,192,493,1,0,0:0:0:0:
109,192,802,1,0,0:0:0:0:
475,192,1111,1,8,0:0:0:0:
329,192,1111,1,0,0:0:0:0:
109,192,1420,1,0,0:0:0:0:
475,192,1730,1,8,0:0:0:0:
329,192,1730,1,0,0:0:0:0:
109,192,2039,1,0,0:0:0:0:
475,192,2348,1,8,0:0:0:0:
329,192,2348,1,0,0:0:0:0:
36,192,2503,1,2,0:0:0:0:
256,192,2658,1,0,0:0:0:0:
36,192,2812,1,2,0:0:0:0:
475,192,2967,1,8,0:0:0:0:
329,192,2967,1,0,0:0:0:0:
109,192,3276,1,0,0:0:0:0:
475,192,3586,1,8,0:0:0:0:
329,192,3586,1,0,0:0:0:0:
109,192,3895,1,0,0:0:0:0:
475,192,4204,1,8,0:0:0:0:
329,192,4204,1,0,0:0:0:0:
109,192,4514,1,0,0:0:0:0:
475,192,4823,1,0,0:0:0:0:
329,192,4823,1,0,0:0:0:0:
36,192,4978,1,2,0:0:0:0:
402,192,5132,1,0,0:0:0:0:
36,192,5287,1,2,0:0:0:0:
475,192,5442,1,8,0:0:0:0:
329,192,5442,1,0,0:0:0:0:
109,192,5751,1,0,0:0:0:0:
475,192,6060,1,8,0:0:0:0:
329,192,6060,1,0,0:0:0:0:
109,192,6370,1,0,0:0:0:0:
475,192,6679,1,8,0:0:0:0:
329,192,6679,1,0,0:0:0:0:
109,192,6988,1,0,0:0:0:0:
475,192,7298,1,8,0:0:0:0:
329,192,7298,1,0,0:0:0:0:
36,192,7452,1,2,0:0:0:0:
256,192,7568,128,0,10082:0:0:0:0:
36,192,7762,1,2,0:0:0:0:
475,192,7916,1,8,0:0:0:0:
329,192,7916,1,0,0:0:0:0:
109,192,8226,1,0,0:0:0:0:
475,192,8535,1,8,0:0:0:0:
329,192,8535,1,0,0:0:0:0:
109,192,8844,1,0,0:0:0:0:
475,192,9154,1,8,0:0:0:0:
329,192,9154,1,0,0:0:0:0:
109,192,9463,1,0,0:0:0:0:
475,192,9772,1,8,0:0:0:0:
329,192,9772,1,0,0:0:0:0:
182,192,9927,1,2,0:0:0:0:
36,192,10082,1,0,0:0:0:0:
109,192,10159,1,0,0:0:0:0:
475,192,10236,1,0,0:0:0:0:
182,192,10236,1,2,0:0:0:0:
402,192,10314,1,0,0:0:0:0:
36,192,10391,1,0,0:0:0:0:
182,192,10468,1,0,0:0:0:0:
475,192,10546,1,0,0:0:0:0:
402,192,10623,1,0,0:0:0:0:
36,192,10700,1,0,0:0:0:0:
182,192,10778,1,0,0:0:0:0:
475,192,10855,1,0,0:0:0:0:
402,192,10932,1,0,0:0:0:0:
36,192,11010,1,0,0:0:0:0:
182,192,11087,1,0,0:0:0:0:
475,192,11164,1,0,0:0:0:0:
402,192,11242,1,0,0:0:0:0:
36,192,11319,1,0,0:0:0:0:
182,192,11396,1,0,0:0:0:0:
475,192,11474,1,0,0:0:0:0:
402,192,11551,1,0,0:0:0:0:
36,192,11628,1,0,0:0:0:0:
182,192,11706,1,0,0:0:0:0:
475,192,11783,1,0,0:0:0:0:
402,192,11860,1,0,0:0:0:0:
36,192,11938,1,0,0:0:0:0:
182,192,12015,1,0,0:0:0:0:
475,192,12092,1,0,0:0:0:0:
402,192,12170,1,0,0:0:0:0:
36,192,12247,1,0,0:0:0:0:
182,192,12324,1,0,0:0:0:0:
475,192,12402,1,0,0:0:0:0:
402,192,12479,1,0,0:0:0:0:
109,192,12556,1,0,0:0:0:0:
182,192,12634,1,0,0:0:0:0:
402,192,12711,1,0,0:0:0:0:
329,192,12788,1,0,0:0:0:0:
109,192,12866,1,0,0:0:0:0:
182,192,12943,1,0,0:0:0:0:
402,192,13020,1,0,0:0:0:0:
329,192,13098,1,0,0:0:0:0:
109,192,13175,1,0,0:0:0:0:
182,192,13252,1,0,0:0:0:0:
402,192,13330,1,0,0:0:0:0:
329,192,13407,1,0,0:0:0:0:
109,192,13484,1,0,0:0:0:0:
182,192,13562,1,0,0:0:0:0:
402,192,13639,1,0,0:0:0:0:
329,192,13716,1,0,0:0:0:0:
109,192,13794,1,0,0:0:0:0:
182,192,13871,1,0,0:0:0:0:
402,192,13948,1,0,0:0:0:0:
329,192,14026,1,0,0:0:0:0:
109,192,14103,1,0,0:0:0:0:
182,192,14180,1,0,0:0:0:0:
402,192,14258,1,0,0:0:0:0:
329,192,14335,1,0,0:0:0:0:
109,192,14412,1,0,0:0:0:0:
182,192,14490,1,0,0:0:0:0:
402,192,14567,1,0,0:0:0:0:
329,192,14644,1,0,0:0:0:0:
109,192,14722,1,0,0:0:0:0:
182,192,14799,1,0,0:0:0:0:
402,192,14876,1,0,0:0:0:0:
329,192,14954,1,0,0:0:0:0:
36,192,15031,1,0,0:0:0:0:
256,192,15108,1,0,0:0:0:0:
402,192,15186,1,0,0:0:0:0:
475,192,15263,1,0,0:0:0:0:
36,192,15340,1,0,0:0:0:0:
256,192,15418,1,0,0:0:0:0:
402,192,15495,1,0,0:0:0:0:
475,192,15572,1,0,0:0:0:0:
36,192,15650,1,0,0:0:0:0:
256,192,15727,1,0,0:0:0:0:
402,192,15804,1,0,0:0:0:0:
475,192,15882,1,0,0:0:0:0:
36,192,15959,1,0,0:0:0:0:
256,192,16036,1,0,0:0:0:0:
402,192,16114,1,0,0:0:0:0:
475,192,16191,1,0,0:0:0:0:
36,192,16268,1,0,0:0:0:0:
256,192,16346,1,0,0:0:0:0:
402,192,16423,1,0,0:0:0:0:
475,192,16500,1,0,0:0:0:0:
36,192,16578,1,0,0:0:0:0:
256,192,16655,1,0,0:0:0:0:
402,192,16732,1,0,0:0:0:0:
475,192,16810,1,0,0:0:0:0:
36,192,16887,1,0,0:0:0:0:
256,192,16964,1,0,0:0:0:0:
402,192,17042,1,0,0:0:0:0:
475,192,17119,1,0,0:0:0:0:
36,192,17196,1,0,0:0:0:0:
256,192,17274,1,0,0:0:0:0:
402,192,17351,1,0,0:0:0:0:
475,192,17428,1,0,0:0:0:0:
36,192,17506,1,0,0:0:0:0:
109,192,17583,1,0,0:0:0:0:
182,192,17660,1,0,0:0:0:0:
329,192,17738,1,0,0:0:0:0:
36,192,17815,1,0,0:0:0:0:
109,192,17892,1,0,0:0:0:0:
182,192,17970,1,0,0:0:0:0:
329,192,18047,1,0,0:0:0:0:
36,192,18124,1,0,0:0:0:0:
109,192,18202,1,0,0:0:0:0:
182,192,18279,1,0,0:0:0:0:
329,192,18356,1,0,0:0:0:0:
36,192,18434,1,0,0:0:0:0:
109,192,18511,1,0,0:0:0:0:
182,192,18588,1,0,0:0:0:0:
329,192,18666,1,0,0:0:0:0:
36,192,18743,1,0,0:0:0:0:
109,192,18820,1,0,0:0:0:0:
182,192,18898,1,0,0:0:0:0:
329,192,18975,1,0,0:0:0:0:
36,192,19052,1,0,0:0:0:0:
109,192,19130,1,0,0:0:0:0:
182,192,19207,1,0,0:0:0:0:
329,192,19284,1,0,0:0:0:0:
36,192,19362,1,0,0:0:0:0:
109,192,19439,1,0,0:0:0:0:
182,192,19516,1,0,0:0:0:0:
329,192,19594,1,0,0:0:0:0:
36,192,19671,1,0,0:0:0:0:
109,192,19748,1,0,0:0:0:0:
182,192,19826,1,0,0:0:0:0:
329,192,19903,1,0,0:0:0:0:
402,192,19980,1,0,0:0:0:0:
256,192,20058,1,0,0:0:0:0:
36,192,20135,1,0,0:0:0:0:
182,192,20212,1,0,0:0:0:0:
402,192,20290,1,0,0:0:0:0:
256,192,20367,1,0,0:0:0:0:
36,192,20444,1,0,0:0:0:0:
182,192,20522,1,0,0:0:0:0:
402,192,20599,1,0,0:0:0:0:
256,192,20676,1,0,0:0:0:0:
36,192,20754,1,0,0:0:0:0:
182,192,20831,1,0,0:0:0:0:
402,192,20908,1,0,0:0:0:0:
256,192,20986,1,0,0:0:0:0:
36,192,21063,1,0,0:0:0:0:
182,192,21140,1,0,0:0:0:0:
402,192,21217,1,0,0:0:0:0:
256,192,21295,1,0,0:0:0:0:
36,192,21372,1,0,0:0:0:0:
182,192,21449,1,0,0:0:0:0:
402,192,21527,1,0,0:0:0:0:
256,192,21604,1,0,0:0:0:0:
36,192,21681,1,0,0:0:0:0:
182,192,21759,1,0,0:0:0:0:
402,192,21836,1,0,0:0:0:0:
256,192,21913,1,0,0:0:0:0:
36,192,21991,1,0,0:0:0:0:
182,192,22068,1,0,0:0:0:0:
402,192,22145,1,0,0:0:0:0:
256,192,22223,1,0,0:0:0:0:
36,192,22300,1,0,0:0:0:0:
182,192,22377,1,0,0:0:0:0:
475,192,22455,1,0,0:0:0:0:
329,192,22532,1,0,0:0:0:0:
109,192,22609,1,0,0:0:0:0:
256,192,22687,1,0,0:0:0:0:
475,192,22764,1,0,0:0:0:0:
329,192,22841,1,0,0:0:0:0:
109,192,22919,1,0,0:0:0:0:
256,192,22996,1,0,0:0:0:0:
475,192,23073,1,0,0:0:0:0:
329,192,23151,1,0,0:0:0:0:
109,192,23228,1,0,0:0:0:0:
256,192,23305,1,0,0:0:0:0:
475,192,23383,1,0,0:0:0:0:
329,192,23460,1,0,0:0:0:0:
109,192,23537,1,0,0:0:0:0:
256,192,23615,1,0,0:0:0:0:
475,192,23692,1,0,0:0:0:0:
329,192,23769,1,0,0:0:0:0:
109,192,23847,1,0,0:0:0:0:
256,192,23924,1,0,0:0:0:0:
475,192,24001,1,0,0:0:0:0:
329,192,24079,1,0,0:0:0:0:
109,192,24156,1,0,0:0:0:0:
256,192,24233,1,0,0:0:0:0:
475,192,24311,1,0,0:0:0:0:
329,192,24388,1,0,0:0:0:0:
109,192,24465,1,0,0:0:0:0:
256,192,24543,1,0,0:0:0:0:
475,192,24620,1,0,0:0:0:0:
329,192,24697,1,0,0:0:0:0:
109,192,24775,1,0,0:0:0:0:
256,192,24852,1,0,0:0:0:0:
475,192,24929,1,0,0:0:0:0:
402,192,25007,1,0,0:0:0:0:
329,192,25084,1,0,0:0:0:0:
36,192,25161,1,0,0:0:0:0:
475,192,25239,1,0,0:0:0:0:
402,192,25316,1,0,0:0:0:0:
329,192,25393,1,0,0:0:0:0:
36,192,25471,1,0,0:0:0:0:
475,192,25548,1,0,0:0:0:0:
402,192,25625,1,0,0:0:0:0:
329,192,25703,1,0,0:0:0:0:
36,192,25780,1,0,0:0:0:0:
475,192,25857,1,0,0:0:0:0:
402,192,25935,1,0,0:0:0:0:
329,192,26012,1,0,0:0:0:0:
36,192,26089,1,0,0:0:0:0:
475,192,26167,1,0,0:0:0:0:
402,192,26244,1,0,0:0:0:0:
329,192,26321,1,0,0:0:0:0:
36,192,26399,1,0,0:0:0:0:
475,192,26476,1,0,0:0:0:0:
402,192,26553,1,0,0:0:0:0:
329,192,26631,1,0,0:0:0:0:
36,192,26708,1,0,0:0:0:0:
475,192,26785,1,0,0:0:0:0:
402,192,26863,1,0,0:0:0:0:
329,192,26940,1,0,0:0:0:0:
36,192,27017,1,0,0:0:0:0:
475,192,27095,1,0,0:0:0:0:
402,192,27172,1,0,0:0:0:0:
256,192,27249,1,0,0:0:0:0:
36,192,27327,1,0,0:0:0:0:
182,192,27404,128,2,27713:0:0:0:0:
329,192,27404,128,0,27713:0:0:0:0:
475,192,27404,128,0,27713:0:0:0:0:
256,192,27868,128,0,28177:0:0:0:0:
109,192,27868,128,2,28177:0:0:0:0:
402,192,27868,128,0,28177:0:0:0:0:
36,192,28332,128,2,28641:0:0:0:0:
182,192,28332,128,0,28641:0:0:0:0:
329,192,28332,128,0,28641:0:0:0:0:
109,192,28796,128,2,29105:0:0:0:0:
256,192,28796,128,0,29105:0:0:0:0:
402,192,28796,128,0,29105:0:0:0:0:
182,192,29260,128,2,29415:0:0:0:0:
329,192,29260,128,0,29415:0:0:0:0:
475,192,29260,128,0,29415:0:0:0:0:
109,192,29569,128,2,29724:0:0:0:0:
256,192,29569,128,0,29724:0:0:0:0:
402,192,29569,128,0,29724:0:0:0:0:
36,192,29879,1,2,0:0:0:0:
182,192,29879,1,0,0:0:0:0:
329,192,29879,1,0,0:0:0:0:
475,192,29879,1,4,0:0:0:0:
402,192,30033,1,0,0:0:0:0:
256,192,30033,1,0,0:0:0:0:
475,192,30188,1,8,0:0:0:0:
109,192,30188,128,0,30343:0:0:0:0:
329,192,30188,128,0,30343:0:0:0:0:
36,192,30497,1,0,0:0:0:0:
329,192,30497,1,0,0:0:0:0:
109,192,30652,1,0,0:0:0:0:
256,192,30652,1,0,0:0:0:0:
475,192,30807,1,8,0:0:0:0:
182,192,30807,128,0,30961:0:0:0:0:
36,192,30807,128,0,30961:0:0:0:0:
182,192,31116,1,0,0:0:0:0:
329,192,31116,1,0,0:0:0:0:
256,192,31271,1,0,0:0:0:0:
402,192,31271,1,0,0:0:0:0:
475,192,31425,1,8,0:0:0:0:
329,192,31425,128,0,31580:0:0:0:0:
109,192,31425,128,0,31580:0:0:0:0:
182,192,31735,1,0,0:0:0:0:
402,192,31735,1,0,0:0:0:0:
329,192,31889,1,0,0:0:0:0:
109,192,31889,1,0,0:0:0:0:
256,192,32044,1,8,0:0:0:0:
36,192,32044,128,0,32199:0:0:0:0:
475,192,32044,128,0,32199:0:0:0:0:
329,192,32199,1,2,0:0:0:0:
182,192,32199,128,0,32508:0:0:0:0:
402,192,32353,1,0,0:0:0:0:
329,192,32508,1,2,0:0:0:0:
256,192,32663,1,8,0:0:0:0:
109,192,32663,128,0,32817:0:0:0:0:
402,192,32663,128,0,32817:0:0:0:0:
36,192,32972,1,0,0:0:0:0:
475,192,32972,1,0,0:0:0:0:
109,192,33127,1,0,0:0:0:0:
402,192,33127,1,0,0:0:0:0:
256,192,33281,1,8,0:0:0:0:
182,192,33281,128,0,33436:0:0:0:0:
329,192,33281,128,0,33436:0:0:0:0:
36,192,33591,1,0,0:0:0:0:
329,192,33591,1,0,0:0:0:0:
402,192,33745,1,0,0:0:0:0:
109,192,33745,1,0,0:0:0:0:
329,192,33900,1,8,0:0:0:0:
182,192,33900,128,0,34055:0:0:0:0:
475,192,33900,128,0,34055:0:0:0:0:
182,192,34209,1,0,0:0:0:0:
475,192,34209,1,0,0:0:0:0:
109,192,34364,1,0,0:0:0:0:
402,192,34364,1,0,0:0:0:0:
182,192,34519,1,8,0:0:0:0:
36,192,34519,128,0,34673:0:0:0:0:
329,192,34519,128,0,34673:0:0:0:0:
256,192,34673,1,2,0:0:0:0:
475,192,34673,128,0,34983:0:0:0:0:
109,192,34828,1,0,0:0:0:0:
256,192,34983,1,2,0:0:0:0:
36,192,35137,1,8,0:0:0:0:
109,192,35137,128,0,35292:0:0:0:0:
402,192,35137,128,0,35292:0:0:0:0:
182,192,35447,1,0,0:0:0:0:
329,192,35447,1,0,0:0:0:0:
256,192,35601,1,0,0:0:0:0:
402,192,35601,1,0,0:0:0:0:
109,192,35756,1,8,0:0:0:0:
329,192,35756,128,0,35911:0:0:0:0:
475,192,35756,128,0,35911:0:0:0:0:
182,192,36065,1,0,0:0:0:0:
329,192,36065,1,0,0:0:0:0:
256,192,36220,1,0,0:0:0:0:
109,192,36220,1,0,0:0:0:0:
402,192,36375,1,8,0:0:0:0:
182,192,36375,128,0,36529:0:0:0:0:
36,192,36375,128,0,36529:0:0:0:0:
182,192,36684,1,0,0:0:0:0:
329,192,36684,1,0,0:0:0:0:
109,192,36839,1,0,0:0:0:0:
402,192,36839,1,0,0:0:0:0:
256,192,36993,1,8,0:0:0:0:
36,192,36993,128,0,37148:0:0:0:0:
475,192,36993,128,0,37148:0:0:0:0:
182,192,37148,1,2,0:0:0:0:
329,192,37148,128,0,37457:0:0:0:0:
36,192,37303,1,0,0:0:0:0:
182,192,37457,1,2,0:0:0:0:
109,192,37612,128,0,37767:0:0:0:0:
475,192,37612,1,8,0:0:0:0:
402,192,37612,128,0,37767:0:0:0:0:
36,192,37921,1,0,0:0:0:0:
329,192,37921,1,0,0:0:0:0:
109,192,38076,1,0,0:0:0:0:
402,192,38076,1,0,0:0:0:0:
475,192,38231,128,0,38385:0:0:0:0:
329,192,38231,1,8,0:0:0:0:
182,192,38231,128,0,38385:0:0:0:0:
36,192,38385,1,2,0:0:0:0:
256,192,38385,128,0,38695:0:0:0:0:
475,192,38540,1,0,0:0:0:0:
36,192,38695,1,2,0:0:0:0:
182,192,38695,1,0,0:0:0:0:
402,192,38695,1,0,0:0:0:0:
475,192,38849,1,8,0:0:0:0:
109,192,38849,128,0,39004:0:0:0:0:
329,192,38849,128,0,39004:0:0:0:0:
475,192,39159,1,0,0:0:0:0:
182,192,39159,1,0,0:0:0:0:
36,192,39313,1,0,0:0:0:0:
329,192,39313,1,0,0:0:0:0:
256,192,39468,1,8,0:0:0:0:
109,192,39468,128,0,39623:0:0:0:0:
402,192,39468,128,0,39623:0:0:0:0:
475,192,39623,1,2,0:0:0:0:
36,192,39623,128,0,39932:0:0:0:0:
256,192,39777,1,0,0:0:0:0:
475,192,39932,1,2,0:0:0:0:
109,192,40087,1,8,0:0:0:0:
329,192,40087,128,0,40241:0:0:0:0:
402,192,40087,128,0,40241:0:0:0:0:
36,192,40396,1,0,0:0:0:0:
182,192,40396,1,0,0:0:0:0:
329,192,40551,1,0,0:0:0:0:
475,192,40551,1,0,0:0:0:0:
256,192,40705,1,8,0:0:0:0:
36,192,40705,128,0,40860:0:0:0:0:
109,192,40705,128,0,40860:0:0:0:0:
329,192,41015,1,0,0:0:0:0:
475,192,41015,1,0,0:0:0:0:
182,192,41169,1,0,0:0:0:0:
36,192,41169,1,0,0:0:0:0:
256,192,41324,1,8,0:0:0:0:
402,192,41324,128,0,41479:0:0:0:0:
475,192,41324,128,0,41479:0:0:0:0:
182,192,41633,1,0,0:0:0:0:
329,192,41633,1,0,0:0:0:0:
109,192,41788,1,0,0:0:0:0:
402,192,41788,1,0,0:0:0:0:
256,192,41942,1,8,0:0:0:0:
36,192,41942,128,0,42097:0:0:0:0:
475,192,41942,128,0,42097:0:0:0:0:
109,192,42097,1,2,0:0:0:0:
402,192,42097,128,0,42406:0:0:0:0:
182,192,42252,1,0,0:0:0:0:
109,192,42406,1,2,0:0:0:0:
256,192,42561,1,8,0:0:0:0:
36,192,42561,128,0,42716:0:0:0:0:
475,192,42561,128,0,42716:0:0:0:0:
329,192,42870,1,0,0:0:0:0:
475,192,42870,1,0,0:0:0:0:
329,192,43025,1,0,0:0:0:0:
475,192,43025,1,0,0:0:0:0:
36,192,43180,1,8,0:0:0:0:
182,192,43180,128,0,43334:0:0:0:0:
402,192,43180,128,0,43334:0:0:0:0:
36,192,43489,1,0,0:0:0:0:
182,192,43489,1,0,0:0:0:0:
182,192,43644,1,0,0:0:0:0:
36,192,43644,1,0,0:0:0:0:
475,192,43798,1,8,0:0:0:0:
109,192,43798,128,0,43953:0:0:0:0:
329,192,43798,128,0,43953:0:0:0:0:
109,192,44108,1,0,0:0:0:0:
402,192,44108,1,0,0:0:0:0:
109,192,44262,1,0,0:0:0:0:
402,192,44262,1,0,0:0:0:0:
256,192,44417,1,8,0:0:0:0:
36,192,44417,128,0,44572:0:0:0:0:
475,192,44417,128,0,44572:0:0:0:0:
329,192,44572,1,2,0:0:0:0:
109,192,44572,128,0,44881:0:0:0:0:
402,192,44726,1,0,0:0:0:0:
329,192,44881,1,2,0:0:0:0:
256,192,45036,1,8,0:0:0:0:
182,192,45036,128,0,45190:0:0:0:0:
475,192,45036,128,0,45190:0:0:0:0:
36,192,45345,1,0,0:0:0:0:
109,192,45345,1,0,0:0:0:0:
36,192,45500,1,0,0:0:0:0:
109,192,45500,1,0,0:0:0:0:
329,192,45654,1,8,0:0:0:0:
182,192,45654,128,0,45809:0:0:0:0:
475,192,45654,128,0,45809:0:0:0:0:
402,192,45964,1,0,0:0:0:0:
475,192,45964,1,0,0:0:0:0:
475,192,46118,1,0,0:0:0:0:
402,192,46118,1,0,0:0:0:0:
182,192,46273,1,8,0:0:0:0:
329,192,46273,128,0,46428:0:0:0:0:
36,192,46273,128,0,46428:0:0:0:0:
182,192,46582,1,0,0:0:0:0:
329,192,46582,1,0,0:0:0:0:
329,192,46737,1,0,0:0:0:0:
182,192,46737,1,0,0:0:0:0:
256,192,46892,1,8,0:0:0:0:
36,192,46892,128,0,47046:0:0:0:0:
475,192,46892,128,0,47046:0:0:0:0:
402,192,47046,128,0,47356:0:0:0:0:
109,192,47046,1,2,0:0:0:0:
256,192,47201,1,0,0:0:0:0:
109,192,47356,1,2,0:0:0:0:
256,192,47510,1,0,0:0:0:0:
36,192,47510,1,0,0:0:0:0:
475,192,47510,1,8,0:0:0:0:
329,192,47665,1,2,0:0:0:0:
402,192,47665,1,0,0:0:0:0:
36,192,47820,1,8,0:0:0:0:
109,192,47820,1,0,0:0:0:0:
182,192,47820,1,0,0:0:0:0:
329,192,47974,1,0,0:0:0:0:
402,192,47974,1,0,0:0:0:0:
475,192,47974,1,8,0:0:0:0:
36,192,48129,1,8,0:0:0:0:
109,192,48129,1,0,0:0:0:0:
182,192,48129,1,0,0:0:0:0:
475,192,48284,1,4,0:0:0:0:
256,192,48284,1,2,0:0:0:0:
402,192,48284,128,0,48593:0:0:0:0:
329,192,48284,1,0,0:0:0:0:
256,192,48593,1,2,0:0:0:0:
475,192,48748,1,8,0:0:0:0:
182,192,48748,1,0,0:0:0:0:
36,192,48748,128,0,49057:0:0:0:0:
402,192,48902,1,0,0:0:0:0:
256,192,48980,1,0,0:0:0:0:
109,192,49057,1,0,0:0:0:0:
475,192,49212,1,0,0:0:0:0:
329,192,49366,1,0,0:0:0:0:
182,192,49521,1,0,0:0:0:0:
36,192,49676,1,0,0:0:0:0:
256,192,49676,1,0,0:0:0:0:
475,192,49676,1,2,0:0:0:0:
329,192,49676,1,4,0:0:0:0:
402,192,49832,1,0,0:0:0:0:
182,192,49832,1,0,0:0:0:0:
329,192,49988,1,0,0:0:0:0:
109,192,49988,1,0,0:0:0:0:
256,192,50144,1,0,0:0:0:0:
36,192,50144,1,0,0:0:0:0:
475,192,50301,1,0,0:0:0:0:
329,192,50301,1,8,0:0:0:0:
182,192,50301,1,0,0:0:0:0:
109,192,50457,1,0,0:0:0:0:
402,192,50457,1,0,0:0:0:0:
329,192,50613,1,0,0:0:0:0:
36,192,50613,1,0,0:0:0:0:
475,192,50769,1,0,0:0:0:0:
182,192,50769,1,0,0:0:0:0:
402,192,50926,1,0,0:0:0:0:
256,192,50926,1,2,0:0:0:0:
109,192,50926,1,0,0:0:0:0:
109,192,51082,1,0,0:0:0:0:
402,192,51082,1,0,0:0:0:0:
36,192,51238,128,0,51551:0:0:0:0:
475,192,51238,128,0,51551:0:0:0:0:
182,192,51394,128,0,51551:0:0:0:0:
329,192,51394,128,0,51551:0:0:0:0:
109,192,51551,1,0,0:0:0:0:
402,192,51551,1,8,0:0:0:0:
256,192,51863,128,0,52176:0:0:0:0:
36,192,52176,1,2,0:0:0:0:
109,192,52176,1,0,0:0:0:0:
475,192,52332,1,0,0:0:0:0:
182,192,52332,1,0,0:0:0:0:
402,192,52488,1,0,0:0:0:0:
109,192,52488,1,0,0:0:0:0:
329,192,52644,1,0,0:0:0:0:
36,192,52644,1,0,0:0:0:0:
475,192,52801,1,8,0:0:0:0:
182,192,52801,1,0,0:0:0:0:
402,192,52801,1,0,0:0:0:0:
329,192,52957,1,0,0:0:0:0:
109,192,52957,1,0,0:0:0:0:
256,192,53113,1,0,0:0:0:0:
36,192,53113,1,0,0:0:0:0:
402,192,53113,1,0,0:0:0:0:
109,192,53269,1,0,0:0:0:0:
329,192,53269,1,0,0:0:0:0:
182,192,53426,128,0,54051:0:0:0:0:
402,192,53426,128,0,54051:0:0:0:0:
256,192,54051,128,0,54676:0:0:0:0:
475,192,54051,128,0,54676:0:0:0:0:
182,192,54676,1,4,0:0:0:0:
36,192,54676,1,2,0:0:0:0:
402,192,54676,1,0,0:0:0:0:
109,192,54832,1,0,0:0:0:0:
329,192,54832,1,0,0:0:0:0:
402,192,54988,1,0,0:0:0:0:
182,192,54988,1,0,0:0:0:0:
475,192,55145,1,0,0:0:0:0:
256,192,55145,1,0,0:0:0:0:
36,192,55301,1,0,0:0:0:0:
182,192,55301,1,8,0:0:0:0:
329,192,55301,1,0,0:0:0:0:
109,192,55457,1,0,0:0:0:0:
402,192,55457,1,0,0:0:0:0:
182,192,55613,1,0,0:0:0:0:
475,192,55613,1,0,0:0:0:0:
36,192,55770,1,0,0:0:0:0:
329,192,55770,1,0,0:0:0:0:
109,192,55926,1,0,0:0:0:0:
402,192,55926,1,0,0:0:0:0:
256,192,55926,1,2,0:0:0:0:
182,192,56082,1,0,0:0:0:0:
329,192,56082,1,0,0:0:0:0:
36,192,56238,128,0,56551:0:0:0:0:
475,192,56238,128,0,56551:0:0:0:0:
182,192,56395,128,0,56551:0:0:0:0:
329,192,56395,128,0,56551:0:0:0:0:
109,192,56551,1,0,0:0:0:0:
402,192,56551,1,8,0:0:0:0:
256,192,56863,128,0,57176:0:0:0:0:
329,192,57176,1,2,0:0:0:0:
402,192,57176,1,0,0:0:0:0:
475,192,57332,1,0,0:0:0:0:
182,192,57332,1,0,0:0:0:0:
109,192,57488,1,0,0:0:0:0:
402,192,57488,1,0,0:0:0:0:
329,192,57645,1,0,0:0:0:0:
36,192,57645,1,0,0:0:0:0:
475,192,57801,1,0,0:0:0:0:
182,192,57801,1,0,0:0:0:0:
109,192,57801,1,8,0:0:0:0:
36,192,57957,1,0,0:0:0:0:
329,192,57957,1,0,0:0:0:0:
475,192,58113,1,0,0:0:0:0:
182,192,58113,1,0,0:0:0:0:
109,192,58270,1,0,0:0:0:0:
402,192,58270,1,0,0:0:0:0:
36,192,58426,128,0,59051:0:0:0:0:
329,192,58426,128,0,59051:0:0:0:0:
182,192,58426,1,2,0:0:0:0:
475,192,58426,1,4,0:0:0:0:
182,192,59051,128,0,59676:0:0:0:0:
475,192,59051,128,0,59676:0:0:0:0:
109,192,59051,1,4,0:0:0:0:
402,192,59051,1,8,0:0:0:0:
329,192,59364,1,8,0:0:0:0:
109,192,59364,1,0,0:0:0:0:
329,192,59520,1,8,0:0:0:0:
109,192,59520,1,0,0:0:0:0:
36,192,59676,1,2,0:0:0:0:
256,192,59676,1,4,0:0:0:0:
402,192,59676,1,0,0:0:0:0:
109,192,59832,1,0,0:0:0:0:
329,192,59832,1,0,0:0:0:0:
182,192,59989,1,0,0:0:0:0:
402,192,59989,1,0,0:0:0:0:
109,192,60145,1,0,0:0:0:0:
329,192,60145,1,0,0:0:0:0:
402,192,60301,1,0,0:0:0:0:
182,192,60301,1,0,0:0:0:0:
36,192,60301,1,0,0:0:0:0:
475,192,60301,1,8,0:0:0:0:
182,192,60457,1,0,0:0:0:0:
402,192,60457,1,0,0:0:0:0:
109,192,60614,1,0,0:0:0:0:
329,192,60614,1,0,0:0:0:0:
182,192,60770,1,0,0:0:0:0:
402,192,60770,1,0,0:0:0:0:
36,192,60926,1,2,0:0:0:0:
329,192,60926,1,0,0:0:0:0:
329,192,61239,1,0,0:0:0:0:
475,192,61551,1,8,0:0:0:0:
329,192,61551,1,0,0:0:0:0:
329,192,61864,1,0,0:0:0:0:
475,192,62176,1,0,0:0:0:0:
256,192,62176,1,0,0:0:0:0:
36,192,62176,1,2,0:0:0:0:
182,192,62332,1,0,0:0:0:0:
402,192,62332,1,0,0:0:0:0:
475,192,62489,1,0,0:0:0:0:
256,192,62489,1,0,0:0:0:0:
182,192,62645,1,0,0:0:0:0:
402,192,62645,1,0,0:0:0:0:
475,192,62801,1,0,0:0:0:0:
256,192,62801,1,0,0:0:0:0:
329,192,62801,1,8,0:0:0:0:
109,192,62801,1,0,0:0:0:0:
256,192,62957,1,0,0:0:0:0:
475,192,62957,1,0,0:0:0:0:
182,192,63114,1,0,0:0:0:0:
402,192,63114,1,0,0:0:0:0:
256,192,63270,1,0,0:0:0:0:
475,192,63270,1,0,0:0:0:0:
36,192,63426,1,2,0:0:0:0:
402,192,63426,1,0,0:0:0:0:
402,192,63739,1,0,0:0:0:0:
402,192,64051,1,0,0:0:0:0:
109,192,64051,1,8,0:0:0:0:
402,192,64364,1,0,0:0:0:0:
36,192,64676,1,0,0:0:0:0:
475,192,64676,1,0,0:0:0:0:
256,192,64676,1,2,0:0:0:0:
109,192,64833,1,0,0:0:0:0:
402,192,64833,1,0,0:0:0:0:
475,192,64989,1,0,0:0:0:0:
36,192,64989,1,0,0:0:0:0:
109,192,65145,1,0,0:0:0:0:
402,192,65145,1,0,0:0:0:0:
329,192,65301,1,0,0:0:0:0:
182,192,65301,1,0,0:0:0:0:
36,192,65301,1,0,0:0:0:0:
475,192,65301,1,8,0:0:0:0:
182,192,65458,1,0,0:0:0:0:
329,192,65458,1,0,0:0:0:0:
109,192,65614,1,0,0:0:0:0:
402,192,65614,1,0,0:0:0:0:
182,192,65770,1,0,0:0:0:0:
329,192,65770,1,0,0:0:0:0:
256,192,65926,1,2,0:0:0:0:
36,192,65926,1,0,0:0:0:0:
36,192,66239,1,0,0:0:0:0:
475,192,66551,1,8,0:0:0:0:
36,192,66551,1,0,0:0:0:0:
36,192,66864,1,0,0:0:0:0:
109,192,67176,1,0,0:0:0:0:
329,192,67176,1,0,0:0:0:0:
475,192,67176,1,2,0:0:0:0:
182,192,67333,1,0,0:0:0:0:
402,192,67333,1,0,0:0:0:0:
182,192,67489,1,0,0:0:0:0:
402,192,67489,1,0,0:0:0:0:
182,192,67645,1,0,0:0:0:0:
402,192,67645,1,0,0:0:0:0:
256,192,67801,1,0,0:0:0:0:
475,192,67801,1,0,0:0:0:0:
36,192,67801,1,8,0:0:0:0:
329,192,67801,1,0,0:0:0:0:
402,192,67958,1,0,0:0:0:0:
182,192,67958,1,0,0:0:0:0:
109,192,68114,1,0,0:0:0:0:
329,192,68114,1,0,0:0:0:0:
256,192,68270,1,0,0:0:0:0:
36,192,68270,1,0,0:0:0:0:
402,192,68426,1,4,0:0:0:0:
109,192,68426,128,0,69052:0:0:0:0:
475,192,68426,128,0,69052:0:0:0:0:
182,192,68426,1,2,0:0:0:0:
36,192,69052,128,0,69677:0:0:0:0:
402,192,69052,128,0,69677:0:0:0:0:
329,192,69052,1,8,0:0:0:0:
256,192,69052,1,4,0:0:0:0:
182,192,69677,1,4,0:0:0:0:
109,192,69677,1,2,0:0:0:0:
329,192,69677,1,0,0:0:0:0:
256,192,69833,1,0,0:0:0:0:
475,192,69833,1,0,0:0:0:0:
329,192,69989,1,0,0:0:0:0:
109,192,69989,1,0,0:0:0:0:
256,192,70145,1,0,0:0:0:0:
475,192,70145,1,0,0:0:0:0:
329,192,70302,1,0,0:0:0:0:
109,192,70302,1,0,0:0:0:0:
36,192,70302,1,0,0:0:0:0:
402,192,70302,1,8,0:0:0:0:
109,192,70458,1,0,0:0:0:0:
329,192,70458,1,0,0:0:0:0:
36,192,70614,1,0,0:0:0:0:
256,192,70614,1,0,0:0:0:0:
109,192,70770,1,0,0:0:0:0:
329,192,70770,1,0,0:0:0:0:
36,192,70927,1,2,0:0:0:0:
402,192,70927,1,0,0:0:0:0:
182,192,70927,1,0,0:0:0:0:
402,192,71083,1,0,0:0:0:0:
402,192,71239,1,0,0:0:0:0:
182,192,71239,1,0,0:0:0:0:
402,192,71395,1,0,0:0:0:0:
109,192,71552,128,0,71864:0:0:0:0:
256,192,71552,1,0,0:0:0:0:
475,192,71552,1,8,0:0:0:0:
402,192,71864,128,0,72177:0:0:0:0:
182,192,71864,1,0,0:0:0:0:
36,192,72177,1,0,0:0:0:0:
109,192,72177,1,0,0:0:0:0:
475,192,72177,1,2,0:0:0:0:
256,192,72333,1,0,0:0:0:0:
329,192,72333,1,0,0:0:0:0:
36,192,72489,1,0,0:0:0:0:
109,192,72489,1,0,0:0:0:0:
256,192,72645,1,0,0:0:0:0:
329,192,72645,1,0,0:0:0:0:
402,192,72802,1,0,0:0:0:0:
475,192,72802,1,0,0:0:0:0:
182,192,72802,1,8,0:0:0:0:
36,192,72802,1,0,0:0:0:0:
402,192,72958,1,0,0:0:0:0:
475,192,72958,1,0,0:0:0:0:
256,192,73114,1,0,0:0:0:0:
182,192,73114,1,0,0:0:0:0:
402,192,73270,1,0,0:0:0:0:
475,192,73270,1,0,0:0:0:0:
36,192,73427,1,2,0:0:0:0:
182,192,73427,1,0,0:0:0:0:
329,192,73427,1,0,0:0:0:0:
182,192,73583,1,0,0:0:0:0:
182,192,73739,1,0,0:0:0:0:
402,192,73739,1,0,0:0:0:0:
182,192,73896,1,0,0:0:0:0:
329,192,74052,1,0,0:0:0:0:
475,192,74052,1,8,0:0:0:0:
36,192,74052,1,0,0:0:0:0:
329,192,74208,1,0,0:0:0:0:
329,192,74364,1,0,0:0:0:0:
109,192,74364,1,0,0:0:0:0:
329,192,74521,1,0,0:0:0:0:
256,192,74677,1,2,0:0:0:0:
109,192,74677,1,0,0:0:0:0:
402,192,74677,1,0,0:0:0:0:
475,192,74833,1,0,0:0:0:0:
182,192,74833,1,0,0:0:0:0:
475,192,74989,1,0,0:0:0:0:
182,192,74989,1,0,0:0:0:0:
109,192,75146,1,0,0:0:0:0:
402,192,75146,1,0,0:0:0:0:
182,192,75302,1,0,0:0:0:0:
475,192,75302,1,0,0:0:0:0:
36,192,75302,1,8,0:0:0:0:
329,192,75302,1,0,0:0:0:0:
182,192,75458,1,0,0:0:0:0:
475,192,75458,1,0,0:0:0:0:
109,192,75614,1,0,0:0:0:0:
402,192,75614,1,0,0:0:0:0:
182,192,75771,1,0,0:0:0:0:
475,192,75771,1,0,0:0:0:0:
36,192,75927,1,2,0:0:0:0:
256,192,75927,1,0,0:0:0:0:
329,192,75927,1,0,0:0:0:0:
256,192,76083,1,0,0:0:0:0:
256,192,76239,1,0,0:0:0:0:
402,192,76239,1,0,0:0:0:0:
256,192,76396,1,0,0:0:0:0:
329,192,76552,128,0,76864:0:0:0:0:
109,192,76552,1,0,0:0:0:0:
475,192,76552,1,8,0:0:0:0:
182,192,76864,128,0,77177:0:0:0:0:
402,192,76864,1,0,0:0:0:0:
36,192,77177,1,0,0:0:0:0:
329,192,77177,1,0,0:0:0:0:
256,192,77177,1,2,0:0:0:0:
475,192,77333,1,0,0:0:0:0:
182,192,77333,1,0,0:0:0:0:
182,192,77489,1,0,0:0:0:0:
475,192,77489,1,0,0:0:0:0:
182,192,77646,1,0,0:0:0:0:
475,192,77646,1,0,0:0:0:0:
182,192,77802,1,0,0:0:0:0:
475,192,77802,1,0,0:0:0:0:
329,192,77802,1,8,0:0:0:0:
36,192,77802,1,0,0:0:0:0:
182,192,77958,1,0,0:0:0:0:
475,192,77958,1,0,0:0:0:0:
402,192,78114,1,0,0:0:0:0:
109,192,78114,1,0,0:0:0:0:
36,192,78271,1,0,0:0:0:0:
329,192,78271,1,0,0:0:0:0:
475,192,78427,1,0,0:0:0:0:
402,192,78427,1,0,0:0:0:0:
109,192,78427,128,0,79052:0:0:0:0:
256,192,78427,1,4,0:0:0:0:
182,192,78427,1,2,0:0:0:0:
475,192,78583,1,0,0:0:0:0:
475,192,78740,1,0,0:0:0:0:
475,192,78896,1,0,0:0:0:0:
36,192,79052,1,0,0:0:0:0:
402,192,79052,128,0,79677:0:0:0:0:
256,192,79052,1,4,0:0:0:0:
329,192,79052,1,8,0:0:0:0:
36,192,79208,1,0,0:0:0:0:
36,192,79365,1,0,0:0:0:0:
36,192,79521,1,0,0:0:0:0:
109,192,79677,1,0,0:0:0:0:
329,192,79677,1,0,0:0:0:0:
475,192,79677,1,2,0:0:0:0:
182,192,79754,1,0,0:0:0:0:
36,192,79831,1,0,0:0:0:0:
329,192,79908,1,0,0:0:0:0:
475,192,79986,1,2,0:0:0:0:
182,192,79986,1,0,0:0:0:0:
36,192,80063,1,0,0:0:0:0:
329,192,80140,1,0,0:0:0:0:
182,192,80218,1,0,0:0:0:0:
475,192,80295,1,2,0:0:0:0:
36,192,80295,1,0,0:0:0:0:
109,192,80372,1,0,0:0:0:0:
256,192,80450,1,0,0:0:0:0:
402,192,80527,1,0,0:0:0:0:
475,192,80604,1,2,0:0:0:0:
109,192,80604,1,0,0:0:0:0:
256,192,80681,1,0,0:0:0:0:
402,192,80759,1,0,0:0:0:0:
475,192,80836,1,0,0:0:0:0:
36,192,80913,1,2,0:0:0:0:
182,192,80913,1,0,0:0:0:0:
402,192,80991,1,0,0:0:0:0:
256,192,81068,1,0,0:0:0:0:
109,192,81145,1,0,0:0:0:0:
36,192,81223,1,2,0:0:0:0:
475,192,81223,1,0,0:0:0:0:
329,192,81300,1,0,0:0:0:0:
182,192,81377,1,0,0:0:0:0:
109,192,81455,1,0,0:0:0:0:
256,192,81532,1,0,0:0:0:0:
36,192,81532,1,2,0:0:0:0:
475,192,81609,1,0,0:0:0:0:
329,192,81686,1,0,0:0:0:0:
182,192,81764,1,0,0:0:0:0:
475,192,81841,1,0,0:0:0:0:
36,192,81841,1,2,0:0:0:0:
329,192,81918,1,0,0:0:0:0:
182,192,81996,1,0,0:0:0:0:
36,192,82073,1,0,0:0:0:0:
256,192,82150,1,0,0:0:0:0:
402,192,82150,1,0,0:0:0:0:
109,192,82150,1,2,0:0:0:0:
182,192,82228,1,0,0:0:0:0:
329,192,82305,1,0,0:0:0:0:
475,192,82382,1,0,0:0:0:0:
256,192,82459,1,0,0:0:0:0:
109,192,82459,1,2,0:0:0:0:
182,192,82537,1,0,0:0:0:0:
329,192,82614,1,0,0:0:0:0:
475,192,82691,1,0,0:0:0:0:
36,192,82769,1,2,0:0:0:0:
109,192,82769,1,0,0:0:0:0:
182,192,82846,1,0,0:0:0:0:
329,192,82923,1,0,0:0:0:0:
402,192,83001,1,0,0:0:0:0:
36,192,83078,1,2,0:0:0:0:
109,192,83078,1,0,0:0:0:0:
182,192,83155,1,0,0:0:0:0:
329,192,83233,1,0,0:0:0:0:
402,192,83310,1,0,0:0:0:0:
475,192,83387,1,0,0:0:0:0:
109,192,83387,1,2,0:0:0:0:
329,192,83464,1,0,0:0:0:0:
182,192,83542,1,0,0:0:0:0:
36,192,83619,1,0,0:0:0:0:
109,192,83696,1,2,0:0:0:0:
475,192,83696,1,0,0:0:0:0:
329,192,83774,1,0,0:0:0:0:
182,192,83851,1,0,0:0:0:0:
36,192,83928,1,0,0:0:0:0:
329,192,84006,1,2,0:0:0:0:
402,192,84006,1,0,0:0:0:0:
256,192,84083,1,0,0:0:0:0:
109,192,84160,1,0,0:0:0:0:
475,192,84237,1,0,0:0:0:0:
36,192,84315,1,2,0:0:0:0:
402,192,84315,1,0,0:0:0:0:
256,192,84392,1,0,0:0:0:0:
109,192,84469,1,0,0:0:0:0:
402,192,84547,1,0,0:0:0:0:
256,192,84624,1,0,0:0:0:0:
475,192,84624,1,0,0:0:0:0:
36,192,84624,1,2,0:0:0:0:
109,192,84701,1,0,0:0:0:0:
182,192,84779,1,0,0:0:0:0:
402,192,84856,1,0,0:0:0:0:
256,192,84933,1,0,0:0:0:0:
475,192,84933,1,0,0:0:0:0:
36,192,84933,1,2,0:0:0:0:
109,192,85011,1,0,0:0:0:0:
329,192,85088,1,0,0:0:0:0:
402,192,85165,1,0,0:0:0:0:
475,192,85242,1,2,0:0:0:0:
256,192,85242,1,0,0:0:0:0:
182,192,85320,1,0,0:0:0:0:
109,192,85397,1,0,0:0:0:0:
36,192,85474,1,0,0:0:0:0:
329,192,85552,1,0,0:0:0:0:
475,192,85552,1,2,0:0:0:0:
256,192,85629,1,0,0:0:0:0:
182,192,85706,1,0,0:0:0:0:
109,192,85784,1,0,0:0:0:0:
256,192,85861,1,0,0:0:0:0:
36,192,85861,1,2,0:0:0:0:
329,192,85938,1,0,0:0:0:0:
402,192,86015,1,0,0:0:0:0:
475,192,86093,1,0,0:0:0:0:
182,192,86170,1,0,0:0:0:0:
36,192,86170,1,2,0:0:0:0:
256,192,86247,1,0,0:0:0:0:
329,192,86325,1,0,0:0:0:0:
402,192,86402,1,0,0:0:0:0:
36,192,86479,1,2,0:0:0:0:
475,192,86479,1,0,0:0:0:0:
109,192,86557,1,0,0:0:0:0:
256,192,86634,1,0,0:0:0:0:
402,192,86711,1,0,0:0:0:0:
36,192,86789,1,2,0:0:0:0:
182,192,86789,1,0,0:0:0:0:
329,192,86866,1,0,0:0:0:0:
475,192,86943,1,0,0:0:0:0:
109,192,87020,1,0,0:0:0:0:
182,192,87098,1,0,0:0:0:0:
329,192,87098,1,2,0:0:0:0:
36,192,87098,1,0,0:0:0:0:
475,192,87175,1,0,0:0:0:0:
256,192,87252,1,0,0:0:0:0:
109,192,87330,1,0,0:0:0:0:
329,192,87407,1,0,0:0:0:0:
36,192,87407,1,2,0:0:0:0:
475,192,87484,1,0,0:0:0:0:
182,192,87562,1,0,0:0:0:0:
36,192,87639,1,0,0:0:0:0:
109,192,87716,1,0,0:0:0:0:
256,192,87716,1,2,0:0:0:0:
329,192,87793,1,0,0:0:0:0:
402,192,87871,1,0,0:0:0:0:
475,192,87948,1,0,0:0:0:0:
36,192,88025,1,0,0:0:0:0:
182,192,88025,1,2,0:0:0:0:
256,192,88103,1,0,0:0:0:0:
329,192,88180,1,0,0:0:0:0:
402,192,88257,1,0,0:0:0:0:
256,192,88335,1,0,0:0:0:0:
475,192,88335,1,2,0:0:0:0:
182,192,88412,1,0,0:0:0:0:
109,192,88489,1,0,0:0:0:0:
36,192,88567,1,0,0:0:0:0:
475,192,88644,1,0,0:0:0:0:
329,192,88644,1,2,0:0:0:0:
256,192,88721,1,0,0:0:0:0:
182,192,88798,1,0,0:0:0:0:
109,192,88876,1,0,0:0:0:0:
402,192,88953,1,2,0:0:0:0:
475,192,88953,1,0,0:0:0:0:
329,192,89030,1,0,0:0:0:0:
182,192,89108,1,0,0:0:0:0:
36,192,89185,1,0,0:0:0:0:
475,192,89262,1,0,0:0:0:0:
402,192,89262,1,2,0:0:0:0:
329,192,89340,1,0,0:0:0:0:
182,192,89417,1,0,0:0:0:0:
36,192,89494,1,0,0:0:0:0:
475,192,89572,1,0,0:0:0:0:
109,192,89572,1,2,0:0:0:0:
402,192,89649,1,0,0:0:0:0:
109,192,89726,1,0,0:0:0:0:
329,192,89726,1,0,0:0:0:0:
256,192,89803,1,0,0:0:0:0:
182,192,89881,1,2,0:0:0:0:
475,192,89881,1,0,0:0:0:0:
402,192,89958,1,0,0:0:0:0:
182,192,90035,1,0,0:0:0:0:
329,192,90035,1,0,0:0:0:0:
402,192,90113,1,0,0:0:0:0:
36,192,90190,1,2,0:0:0:0:
256,192,90190,1,0,0:0:0:0:
329,192,90267,1,0,0:0:0:0:
36,192,90345,1,0,0:0:0:0:
402,192,90345,1,0,0:0:0:0:
475,192,90422,1,0,0:0:0:0:
109,192,90499,1,2,0:0:0:0:
256,192,90499,1,0,0:0:0:0:
329,192,90576,1,0,0:0:0:0:
109,192,90654,1,0,0:0:0:0:
402,192,90654,1,0,0:0:0:0:
475,192,90731,1,0,0:0:0:0:
36,192,90808,1,2,0:0:0:0:
329,192,90808,1,0,0:0:0:0:
256,192,90886,1,0,0:0:0:0:
36,192,90963,1,0,0:0:0:0:
402,192,90963,1,0,0:0:0:0:
475,192,91040,1,0,0:0:0:0:
109,192,91118,1,2,0:0:0:0:
329,192,91118,1,0,0:0:0:0:
256,192,91195,1,0,0:0:0:0:
109,192,91272,1,0,0:0:0:0:
402,192,91272,1,0,0:0:0:0:
475,192,91350,1,0,0:0:0:0:
182,192,91427,1,2,0:0:0:0:
329,192,91427,1,0,0:0:0:0:
402,192,91504,1,0,0:0:0:0:
182,192,91581,1,0,0:0:0:0:
475,192,91581,1,0,0:0:0:0:
256,192,91659,1,0,0:0:0:0:
109,192,91736,1,2,0:0:0:0:
329,192,91736,1,0,0:0:0:0:
402,192,91813,1,0,0:0:0:0:
109,192,91891,1,0,0:0:0:0:
475,192,91891,1,0,0:0:0:0:
256,192,91968,1,0,0:0:0:0:
329,192,92045,1,2,0:0:0:0:
182,192,92045,1,0,0:0:0:0:
109,192,92123,1,0,0:0:0:0:
329,192,92200,1,0,0:0:0:0:
36,192,92200,1,0,0:0:0:0:
256,192,92277,1,0,0:0:0:0:
402,192,92354,1,2,0:0:0:0:
182,192,92354,1,0,0:0:0:0:
109,192,92432,1,0,0:0:0:0:
402,192,92509,1,0,0:0:0:0:
36,192,92509,1,0,0:0:0:0:
256,192,92586,1,0,0:0:0:0:
475,192,92664,1,2,0:0:0:0:
109,192,92664,1,0,0:0:0:0:
182,192,92741,1,0,0:0:0:0:
475,192,92818,1,0,0:0:0:0:
256,192,92818,1,0,0:0:0:0:
36,192,92896,1,0,0:0:0:0:
402,192,92973,1,2,0:0:0:0:
109,192,92973,1,0,0:0:0:0:
182,192,93050,1,0,0:0:0:0:
402,192,93128,1,0,0:0:0:0:
256,192,93128,1,0,0:0:0:0:
36,192,93205,1,0,0:0:0:0:
329,192,93282,1,2,0:0:0:0:
182,192,93282,1,0,0:0:0:0:
109,192,93359,1,0,0:0:0:0:
329,192,93437,1,0,0:0:0:0:
36,192,93437,1,0,0:0:0:0:
256,192,93514,1,0,0:0:0:0:
402,192,93591,1,2,0:0:0:0:
182,192,93591,1,0,0:0:0:0:
109,192,93669,1,0,0:0:0:0:
402,192,93746,1,0,0:0:0:0:
36,192,93746,1,0,0:0:0:0:
256,192,93823,1,0,0:0:0:0:
475,192,93901,1,2,0:0:0:0:
109,192,93901,1,0,0:0:0:0:
182,192,93978,1,0,0:0:0:0:
475,192,94055,1,0,0:0:0:0:
256,192,94055,1,0,0:0:0:0:
36,192,94132,1,0,0:0:0:0:
402,192,94210,1,2,0:0:0:0:
109,192,94210,1,0,0:0:0:0:
182,192,94287,1,0,0:0:0:0:
402,192,94364,1,0,0:0:0:0:
256,192,94364,1,0,0:0:0:0:
36,192,94442,1,0,0:0:0:0:
475,192,94519,1,2,0:0:0:0:
182,192,94519,1,0,0:0:0:0:
256,192,94596,1,0,0:0:0:0:
475,192,94674,1,0,0:0:0:0:
36,192,94674,1,0,0:0:0:0:
109,192,94751,1,0,0:0:0:0:
402,192,94828,1,2,0:0:0:0:
182,192,94828,1,0,0:0:0:0:
256,192,94906,1,0,0:0:0:0:
402,192,94983,1,0,0:0:0:0:
36,192,94983,1,0,0:0:0:0:
109,192,95060,1,0,0:0:0:0:
329,192,95137,1,2,0:0:0:0:
182,192,95137,1,0,0:0:0:0:
109,192,95215,1,0,0:0:0:0:
329,192,95292,1,0,0:0:0:0:
36,192,95292,1,0,0:0:0:0:
256,192,95369,1,0,0:0:0:0:
402,192,95447,1,2,0:0:0:0:
182,192,95447,1,0,0:0:0:0:
109,192,95524,1,0,0:0:0:0:
402,192,95601,1,0,0:0:0:0:
36,192,95601,1,0,0:0:0:0:
256,192,95679,1,0,0:0:0:0:
109,192,95756,1,2,0:0:0:0:
329,192,95756,1,0,0:0:0:0:
182,192,95833,1,0,0:0:0:0:
402,192,95833,1,0,0:0:0:0:
475,192,95910,1,0,0:0:0:0:
256,192,95910,1,0,0:0:0:0:
36,192,95988,1,0,0:0:0:0:
329,192,95988,1,0,0:0:0:0:
109,192,96065,1,2,0:0:0:0:
402,192,96065,1,0,0:0:0:0:
182,192,96142,1,0,0:0:0:0:
475,192,96142,1,0,0:0:0:0:
256,192,96220,1,0,0:0:0:0:
36,192,96220,1,0,0:0:0:0:
109,192,96297,1,0,0:0:0:0:
329,192,96297,1,0,0:0:0:0:
475,192,96374,1,2,0:0:0:0:
256,192,96374,1,0,0:0:0:0:
402,192,96452,1,0,0:0:0:0:
182,192,96452,1,0,0:0:0:0:
329,192,96529,1,0,0:0:0:0:
109,192,96529,1,0,0:0:0:0:
256,192,96606,1,0,0:0:0:0:
36,192,96606,1,0,0:0:0:0:
475,192,96684,1,2,0:0:0:0:
182,192,96684,1,0,0:0:0:0:
402,192,96761,1,0,0:0:0:0:
109,192,96761,1,0,0:0:0:0:
329,192,96838,1,0,0:0:0:0:
36,192,96838,1,0,0:0:0:0:
109,192,96915,1,0,0:0:0:0:
402,192,96915,1,0,0:0:0:0:
256,192,96993,128,0,99467:0:0:0:0:
36,192,96993,128,2,97302:0:0:0:0:
475,192,96993,128,0,97302:0:0:0:0:
109,192,97457,128,2,97766:0:0:0:0:
402,192,97457,128,0,97766:0:0:0:0:
329,192,97920,128,0,98230:0:0:0:0:
182,192,97920,128,2,98230:0:0:0:0:
109,192,98384,128,2,98693:0:0:0:0:
402,192,98384,128,0,98693:0:0:0:0:
36,192,98848,128,2,99003:0:0:0:0:
475,192,98848,128,0,99003:0:0:0:0:
109,192,99157,128,2,99312:0:0:0:0:
402,192,99157,128,0,99312:0:0:0:0:
36,192,99467,1,2,0:0:0:0:
182,192,99467,1,0,0:0:0:0:
329,192,99467,1,0,0:0:0:0:
475,192,99467,1,4,0:0:0:0:
109,192,99621,1,0,0:0:0:0:
402,192,99621,1,0,0:0:0:0:
256,192,99776,1,8,0:0:0:0:
36,192,99776,128,0,99930:0:0:0:0:
475,192,99776,128,0,99930:0:0:0:0:
109,192,99930,1,0,0:0:0:0:
182,192,100085,1,0,0:0:0:0:
329,192,100085,1,0,0:0:0:0:
109,192,100239,1,0,0:0:0:0:
402,192,100239,1,0,0:0:0:0:
256,192,100394,1,8,0:0:0:0:
36,192,100394,128,0,100549:0:0:0:0:
475,192,100394,128,0,100549:0:0:0:0:
182,192,100549,1,0,0:0:0:0:
402,192,100703,1,0,0:0:0:0:
109,192,100703,1,0,0:0:0:0:
182,192,100858,1,0,0:0:0:0:
329,192,100858,1,0,0:0:0:0:
256,192,101013,1,8,0:0:0:0:
36,192,101013,128,0,101167:0:0:0:0:
475,192,101013,128,0,101167:0:0:0:0:
329,192,101167,1,0,0:0:0:0:
182,192,101167,1,0,0:0:0:0:
36,192,101322,1,0,0:0:0:0:
475,192,101322,1,0,0:0:0:0:
109,192,101477,1,0,0:0:0:0:
402,192,101477,1,0,0:0:0:0:
256,192,101631,1,8,0:0:0:0:
36,192,101631,128,0,101786:0:0:0:0:
475,192,101631,128,0,101786:0:0:0:0:
329,192,101786,1,2,0:0:0:0:
182,192,101786,128,0,102095:0:0:0:0:
329,192,102095,1,2,0:0:0:0:
36,192,102250,1,8,0:0:0:0:
256,192,102250,128,0,102405:0:0:0:0:
475,192,102250,128,0,102405:0:0:0:0:
182,192,102405,1,0,0:0:0:0:
329,192,102405,1,0,0:0:0:0:
109,192,102559,1,0,0:0:0:0:
402,192,102559,1,0,0:0:0:0:
182,192,102714,1,0,0:0:0:0:
329,192,102714,1,0,0:0:0:0:
475,192,102869,1,8,0:0:0:0:
36,192,102869,128,0,103023:0:0:0:0:
256,192,102869,128,0,103023:0:0:0:0:
402,192,103023,1,0,0:0:0:0:
36,192,103178,1,0,0:0:0:0:
475,192,103178,1,0,0:0:0:0:
182,192,103333,1,0,0:0:0:0:
329,192,103333,1,0,0:0:0:0:
36,192,103487,1,8,0:0:0:0:
256,192,103487,128,0,103642:0:0:0:0:
475,192,103487,128,0,103642:0:0:0:0:
109,192,103642,1,0,0:0:0:0:
402,192,103642,1,0,0:0:0:0:
182,192,103797,1,0,0:0:0:0:
329,192,103797,1,0,0:0:0:0:
402,192,103951,1,0,0:0:0:0:
109,192,103951,1,0,0:0:0:0:
475,192,104106,1,8,0:0:0:0:
256,192,104106,128,0,104261:0:0:0:0:
36,192,104106,128,0,104261:0:0:0:0:
402,192,104261,128,0,104570:0:0:0:0:
109,192,104261,1,2,0:0:0:0:
109,192,104570,1,2,0:0:0:0:
329,192,104725,1,8,0:0:0:0:
182,192,104725,128,0,104879:0:0:0:0:
475,192,104725,128,0,104879:0:0:0:0:
36,192,104879,1,0,0:0:0:0:
329,192,105034,1,0,0:0:0:0:
182,192,105034,1,0,0:0:0:0:
256,192,105189,1,0,0:0:0:0:
402,192,105189,1,0,0:0:0:0:
182,192,105343,1,8,0:0:0:0:
36,192,105343,128,0,105498:0:0:0:0:
329,192,105343,128,0,105498:0:0:0:0:
475,192,105498,1,0,0:0:0:0:
329,192,105653,1,0,0:0:0:0:
182,192,105653,1,0,0:0:0:0:
109,192,105807,1,0,0:0:0:0:
256,192,105807,1,0,0:0:0:0:
329,192,105962,1,8,0:0:0:0:
182,192,105962,128,0,106117:0:0:0:0:
475,192,105962,128,0,106117:0:0:0:0:
36,192,106117,1,0,0:0:0:0:
182,192,106271,1,0,0:0:0:0:
475,192,106271,1,0,0:0:0:0:
109,192,106426,1,0,0:0:0:0:
402,192,106426,1,0,0:0:0:0:
182,192,106581,1,8,0:0:0:0:
36,192,106581,128,0,106735:0:0:0:0:
329,192,106581,128,0,106735:0:0:0:0:
475,192,106735,1,2,0:0:0:0:
109,192,106735,128,0,107045:0:0:0:0:
475,192,107045,1,2,0:0:0:0:
36,192,107199,1,8,0:0:0:0:
256,192,107199,128,0,107354:0:0:0:0:
402,192,107199,128,0,107354:0:0:0:0:
109,192,107354,1,0,0:0:0:0:
329,192,107509,1,0,0:0:0:0:
475,192,107509,1,0,0:0:0:0:
36,192,107663,1,0,0:0:0:0:
182,192,107663,1,0,0:0:0:0:
475,192,107818,1,8,0:0:0:0:
256,192,107818,128,0,107973:0:0:0:0:
109,192,107818,128,0,107973:0:0:0:0:
36,192,107973,1,2,0:0:0:0:
475,192,107973,128,0,108282:0:0:0:0:
329,192,108127,1,0,0:0:0:0:
36,192,108282,1,2,0:0:0:0:
256,192,108282,1,0,0:0:0:0:
402,192,108282,1,0,0:0:0:0:
475,192,108437,1,8,0:0:0:0:
182,192,108437,128,0,108591:0:0:0:0:
329,192,108437,128,0,108591:0:0:0:0:
109,192,108591,1,0,0:0:0:0:
402,192,108591,1,0,0:0:0:0:
36,192,108746,1,0,0:0:0:0:
182,192,108746,1,0,0:0:0:0:
256,192,108901,1,0,0:0:0:0:
402,192,108901,1,0,0:0:0:0:
36,192,109055,1,8,0:0:0:0:
182,192,109055,128,0,109210:0:0:0:0:
329,192,109055,128,0,109210:0:0:0:0:
475,192,109210,1,2,0:0:0:0:
36,192,109210,128,0,109519:0:0:0:0:
475,192,109519,1,2,0:0:0:0:
256,192,109674,1,8,0:0:0:0:
109,192,109674,128,0,109829:0:0:0:0:
402,192,109674,128,0,109829:0:0:0:0:
329,192,109829,1,0,0:0:0:0:
182,192,109983,1,0,0:0:0:0:
402,192,109983,1,0,0:0:0:0:
36,192,109983,1,2,0:0:0:0:
109,192,110138,1,0,0:0:0:0:
329,192,110138,1,0,0:0:0:0:
36,192,110293,128,0,110447:0:0:0:0:
475,192,110293,1,8,0:0:0:0:
256,192,110293,128,0,110447:0:0:0:0:
182,192,110447,1,0,0:0:0:0:
109,192,110602,1,0,0:0:0:0:
329,192,110602,1,0,0:0:0:0:
475,192,110602,1,2,0:0:0:0:
182,192,110757,1,0,0:0:0:0:
402,192,110757,1,0,0:0:0:0:
36,192,110911,1,8,0:0:0:0:
256,192,110911,128,0,111066:0:0:0:0:
475,192,110911,128,0,111066:0:0:0:0:
109,192,111066,1,0,0:0:0:0:
329,192,111221,1,0,0:0:0:0:
402,192,111221,1,0,0:0:0:0:
36,192,111221,1,2,0:0:0:0:
109,192,111375,1,0,0:0:0:0:
182,192,111375,1,0,0:0:0:0:
256,192,111530,1,8,0:0:0:0:
36,192,111530,128,0,111685:0:0:0:0:
475,192,111530,128,0,111685:0:0:0:0:
329,192,111685,128,0,111994:0:0:0:0:
182,192,111685,1,2,0:0:0:0:
182,192,111994,1,2,0:0:0:0:
256,192,112149,1,8,0:0:0:0:
109,192,112149,128,0,112303:0:0:0:0:
402,192,112149,128,0,112303:0:0:0:0:
329,192,112303,1,0,0:0:0:0:
475,192,112458,1,0,0:0:0:0:
182,192,112458,1,0,0:0:0:0:
36,192,112458,1,2,0:0:0:0:
182,192,112613,1,0,0:0:0:0:
475,192,112613,1,0,0:0:0:0:
256,192,112767,1,8,0:0:0:0:
109,192,112767,128,0,112922:0:0:0:0:
402,192,112767,128,0,112922:0:0:0:0:
182,192,112922,1,0,0:0:0:0:
36,192,113077,1,0,0:0:0:0:
329,192,113077,1,0,0:0:0:0:
475,192,113077,1,2,0:0:0:0:
36,192,113231,1,0,0:0:0:0:
329,192,113231,1,0,0:0:0:0:
256,192,113386,1,8,0:0:0:0:
109,192,113386,128,0,113541:0:0:0:0:
402,192,113386,128,0,113541:0:0:0:0:
329,192,113541,1,0,0:0:0:0:
36,192,113695,1,0,0:0:0:0:
475,192,113695,1,0,0:0:0:0:
182,192,113695,1,2,0:0:0:0:
109,192,113850,1,0,0:0:0:0:
402,192,113850,1,0,0:0:0:0:
256,192,114005,1,8,0:0:0:0:
36,192,114005,128,0,114159:0:0:0:0:
475,192,114005,128,0,114159:0:0:0:0:
109,192,114159,128,0,114469:0:0:0:0:
402,192,114159,1,2,0:0:0:0:
402,192,114469,1,2,0:0:0:0:
182,192,114623,1,8,0:0:0:0:
329,192,114623,128,0,114778:0:0:0:0:
475,192,114623,128,0,114778:0:0:0:0:
109,192,114778,1,0,0:0:0:0:
36,192,114933,1,0,0:0:0:0:
402,192,114933,1,0,0:0:0:0:
256,192,114933,1,2,0:0:0:0:
109,192,115087,1,0,0:0:0:0:
329,192,115087,1,0,0:0:0:0:
402,192,115242,1,8,0:0:0:0:
36,192,115242,128,0,115397:0:0:0:0:
182,192,115242,128,0,115397:0:0:0:0:
329,192,115397,1,0,0:0:0:0:
475,192,115551,1,0,0:0:0:0:
109,192,115551,1,0,0:0:0:0:
256,192,115551,1,2,0:0:0:0:
182,192,115706,1,0,0:0:0:0:
402,192,115706,1,0,0:0:0:0:
109,192,115861,1,8,0:0:0:0:
329,192,115861,128,0,116015:0:0:0:0:
475,192,115861,128,0,116015:0:0:0:0:
182,192,116015,1,0,0:0:0:0:
36,192,116170,1,0,0:0:0:0:
402,192,116170,1,0,0:0:0:0:
256,192,116170,1,2,0:0:0:0:
109,192,116325,1,0,0:0:0:0:
329,192,116325,1,0,0:0:0:0:
36,192,116479,128,0,116634:0:0:0:0:
182,192,116479,128,0,116634:0:0:0:0:
402,192,116479,1,8,0:0:0:0:
256,192,116634,128,0,116943:0:0:0:0:
475,192,116634,1,2,0:0:0:0:
109,192,116789,1,0,0:0:0:0:
475,192,116943,1,2,0:0:0:0:
36,192,117098,1,0,0:0:0:0:
182,192,117098,1,0,0:0:0:0:
329,192,117098,1,8,0:0:0:0:
402,192,117253,1,0,0:0:0:0:
475,192,117253,1,2,0:0:0:0:
36,192,117407,1,0,0:0:0:0:
109,192,117407,1,0,0:0:0:0:
256,192,117407,1,8,0:0:0:0:
36,192,117562,1,0,0:0:0:0:
109,192,117562,1,0,0:0:0:0:
256,192,117562,1,8,0:0:0:0:
109,192,117717,1,0,0:0:0:0:
36,192,117717,1,0,0:0:0:0:
256,192,117717,1,8,0:0:0:0:
329,192,117871,1,4,0:0:0:0:
475,192,117871,1,2,0:0:0:0:
402,192,117871,128,0,118181:0:0:0:0:
182,192,117871,1,0,0:0:0:0:
36,192,118181,1,2,0:0:0:0:
182,192,118181,1,0,0:0:0:0:
109,192,118335,128,0,118645:0:0:0:0:
329,192,118335,1,0,0:0:0:0:
475,192,118335,1,8,0:0:0:0:
256,192,118490,1,8,0:0:0:0:
402,192,118567,1,8,0:0:0:0:
475,192,118645,1,8,0:0:0:0:
329,192,118799,1,0,0:0:0:0:
402,192,118799,1,8,0:0:0:0:
182,192,118954,1,0,0:0:0:0:
256,192,118954,1,8,0:0:0:0:
36,192,119109,1,0,0:0:0:0:
109,192,119109,1,8,0:0:0:0:
182,192,119263,1,0,0:0:0:0:
256,192,119263,1,2,0:0:0:0:
402,192,119263,1,4,0:0:0:0:
475,192,119263,1,0,0:0:0:0:
36,192,119419,1,0,0:0:0:0:
329,192,119419,1,0,0:0:0:0:
109,192,119575,1,0,0:0:0:0:
402,192,119575,1,0,0:0:0:0:
182,192,119731,1,0,0:0:0:0:
475,192,119731,1,0,0:0:0:0:
36,192,119888,1,0,0:0:0:0:
256,192,119888,1,0,0:0:0:0:
402,192,119888,1,8,0:0:0:0:
182,192,120044,1,0,0:0:0:0:
475,192,120044,1,0,0:0:0:0:
109,192,120200,1,0,0:0:0:0:
402,192,120200,1,0,0:0:0:0:
36,192,120356,1,0,0:0:0:0:
329,192,120356,1,0,0:0:0:0:
256,192,120513,1,2,0:0:0:0:
109,192,120513,1,0,0:0:0:0:
402,192,120513,1,0,0:0:0:0:
182,192,120669,1,0,0:0:0:0:
329,192,120669,1,0,0:0:0:0:
36,192,120825,128,0,121138:0:0:0:0:
475,192,120825,128,0,121138:0:0:0:0:
109,192,120981,128,0,121138:0:0:0:0:
402,192,120981,128,0,121138:0:0:0:0:
256,192,121138,1,8,0:0:0:0:
475,192,121450,128,0,121763:0:0:0:0:
36,192,121763,1,2,0:0:0:0:
182,192,121763,1,0,0:0:0:0:
256,192,121919,1,0,0:0:0:0:
402,192,121919,1,0,0:0:0:0:
329,192,122075,1,0,0:0:0:0:
182,192,122075,1,0,0:0:0:0:
109,192,122231,1,0,0:0:0:0:
256,192,122231,1,0,0:0:0:0:
329,192,122388,1,0,0:0:0:0:
475,192,122388,1,0,0:0:0:0:
402,192,122388,1,8,0:0:0:0:
36,192,122544,1,0,0:0:0:0:
182,192,122544,1,0,0:0:0:0:
109,192,122700,1,0,0:0:0:0:
256,192,122700,1,0,0:0:0:0:
475,192,122700,1,0,0:0:0:0:
182,192,122856,1,0,0:0:0:0:
329,192,122856,1,0,0:0:0:0:
109,192,123013,128,0,123638:0:0:0:0:
402,192,123013,128,0,123638:0:0:0:0:
36,192,123638,128,0,124263:0:0:0:0:
475,192,123638,128,0,124263:0:0:0:0:
109,192,124263,1,2,0:0:0:0:
256,192,124263,1,4,0:0:0:0:
402,192,124263,1,0,0:0:0:0:
36,192,124419,1,0,0:0:0:0:
475,192,124419,1,0,0:0:0:0:
109,192,124575,1,0,0:0:0:0:
402,192,124575,1,0,0:0:0:0:
182,192,124732,1,0,0:0:0:0:
329,192,124732,1,0,0:0:0:0:
109,192,124888,1,0,0:0:0:0:
256,192,124888,1,8,0:0:0:0:
402,192,124888,1,0,0:0:0:0:
36,192,125044,1,0,0:0:0:0:
475,192,125044,1,0,0:0:0:0:
109,192,125200,1,0,0:0:0:0:
402,192,125200,1,0,0:0:0:0:
182,192,125357,1,0,0:0:0:0:
329,192,125357,1,0,0:0:0:0:
36,192,125513,1,0,0:0:0:0:
256,192,125513,1,2,0:0:0:0:
475,192,125513,1,0,0:0:0:0:
36,192,125669,1,0,0:0:0:0:
475,192,125669,1,0,0:0:0:0:
182,192,125825,128,0,126138:0:0:0:0:
329,192,125825,128,0,126138:0:0:0:0:
36,192,125982,128,0,126138:0:0:0:0:
475,192,125982,128,0,126138:0:0:0:0:
109,192,126138,1,0,0:0:0:0:
402,192,126138,1,8,0:0:0:0:
256,192,126450,128,0,126763:0:0:0:0:
475,192,126763,1,0,0:0:0:0:
36,192,126763,1,2,0:0:0:0:
182,192,126919,1,0,0:0:0:0:
402,192,126919,1,0,0:0:0:0:
329,192,127075,1,0,0:0:0:0:
109,192,127075,1,0,0:0:0:0:
36,192,127232,1,0,0:0:0:0:
256,192,127232,1,0,0:0:0:0:
475,192,127388,1,8,0:0:0:0:
329,192,127388,1,0,0:0:0:0:
109,192,127388,1,0,0:0:0:0:
402,192,127544,1,0,0:0:0:0:
182,192,127544,1,0,0:0:0:0:
109,192,127700,1,0,0:0:0:0:
329,192,127700,1,0,0:0:0:0:
36,192,127857,1,0,0:0:0:0:
256,192,127857,1,0,0:0:0:0:
109,192,128013,128,0,128638:0:0:0:0:
329,192,128013,128,0,128638:0:0:0:0:
475,192,128013,1,2,0:0:0:0:
182,192,128013,1,4,0:0:0:0:
475,192,128325,1,0,0:0:0:0:
402,192,128482,1,2,0:0:0:0:
475,192,128638,128,0,129263:0:0:0:0:
256,192,128638,128,0,129263:0:0:0:0:
36,192,128638,1,8,0:0:0:0:
182,192,128638,1,4,0:0:0:0:
402,192,128794,1,2,0:0:0:0:
109,192,128950,1,8,0:0:0:0:
109,192,129107,1,8,0:0:0:0:
36,192,129263,1,2,0:0:0:0:
182,192,129263,1,4,0:0:0:0:
329,192,129263,1,0,0:0:0:0:
109,192,129419,1,0,0:0:0:0:
402,192,129419,1,0,0:0:0:0:
182,192,129576,1,0,0:0:0:0:
475,192,129576,1,0,0:0:0:0:
109,192,129732,1,0,0:0:0:0:
402,192,129732,1,0,0:0:0:0:
36,192,129888,1,0,0:0:0:0:
329,192,129888,1,0,0:0:0:0:
182,192,129888,1,0,0:0:0:0:
475,192,129888,1,8,0:0:0:0:
109,192,130044,1,0,0:0:0:0:
402,192,130044,1,0,0:0:0:0:
182,192,130201,1,0,0:0:0:0:
475,192,130201,1,0,0:0:0:0:
402,192,130357,1,0,0:0:0:0:
109,192,130357,1,0,0:0:0:0:
36,192,130513,1,2,0:0:0:0:
256,192,130513,1,0,0:0:0:0:
182,192,130826,1,0,0:0:0:0:
475,192,131138,1,8,0:0:0:0:
329,192,131138,1,0,0:0:0:0:
182,192,131451,1,0,0:0:0:0:
475,192,131763,1,0,0:0:0:0:
109,192,131763,1,0,0:0:0:0:
256,192,131763,1,2,0:0:0:0:
36,192,131919,1,0,0:0:0:0:
402,192,131919,1,0,0:0:0:0:
109,192,132076,1,0,0:0:0:0:
475,192,132076,1,0,0:0:0:0:
36,192,132232,1,0,0:0:0:0:
402,192,132232,1,0,0:0:0:0:
182,192,132388,1,0,0:0:0:0:
329,192,132388,1,0,0:0:0:0:
475,192,132388,1,8,0:0:0:0:
256,192,132388,1,0,0:0:0:0:
109,192,132544,1,0,0:0:0:0:
402,192,132544,1,0,0:0:0:0:
182,192,132701,1,0,0:0:0:0:
329,192,132701,1,0,0:0:0:0:
109,192,132857,1,0,0:0:0:0:
402,192,132857,1,0,0:0:0:0:
36,192,133013,1,0,0:0:0:0:
256,192,133013,1,2,0:0:0:0:
402,192,133326,1,0,0:0:0:0:
36,192,133638,1,0,0:0:0:0:
182,192,133638,1,8,0:0:0:0:
329,192,133951,1,0,0:0:0:0:
109,192,134263,1,0,0:0:0:0:
256,192,134263,1,2,0:0:0:0:
402,192,134263,1,0,0:0:0:0:
475,192,134420,1,0,0:0:0:0:
182,192,134420,1,0,0:0:0:0:
182,192,134576,1,0,0:0:0:0:
475,192,134576,1,0,0:0:0:0:
182,192,134732,1,0,0:0:0:0:
475,192,134732,1,0,0:0:0:0:
109,192,134888,1,0,0:0:0:0:
402,192,134888,1,0,0:0:0:0:
329,192,134888,1,0,0:0:0:0:
36,192,134888,1,8,0:0:0:0:
182,192,135045,1,0,0:0:0:0:
475,192,135045,1,0,0:0:0:0:
109,192,135201,1,0,0:0:0:0:
402,192,135201,1,0,0:0:0:0:
182,192,135357,1,0,0:0:0:0:
475,192,135357,1,0,0:0:0:0:
329,192,135513,1,0,0:0:0:0:
36,192,135513,1,2,0:0:0:0:
256,192,135826,1,0,0:0:0:0:
182,192,136138,1,0,0:0:0:0:
475,192,136138,1,8,0:0:0:0:
256,192,136451,1,0,0:0:0:0:
402,192,136763,1,0,0:0:0:0:
109,192,136763,1,0,0:0:0:0:
256,192,136763,1,2,0:0:0:0:
36,192,136920,1,0,0:0:0:0:
329,192,136920,1,0,0:0:0:0:
36,192,137076,1,0,0:0:0:0:
329,192,137076,1,0,0:0:0:0:
36,192,137232,1,0,0:0:0:0:
329,192,137232,1,0,0:0:0:0:
475,192,137388,1,8,0:0:0:0:
182,192,137388,1,0,0:0:0:0:
402,192,137388,1,0,0:0:0:0:
109,192,137388,1,0,0:0:0:0:
36,192,137545,1,0,0:0:0:0:
329,192,137545,1,0,0:0:0:0:
109,192,137701,1,0,0:0:0:0:
402,192,137701,1,0,0:0:0:0:
182,192,137857,1,0,0:0:0:0:
475,192,137857,1,0,0:0:0:0:
109,192,138013,128,0,138638:0:0:0:0:
402,192,138013,128,0,138638:0:0:0:0:
256,192,138013,1,4,0:0:0:0:
329,192,138013,1,2,0:0:0:0:
36,192,138638,128,0,139264:0:0:0:0:
475,192,138638,128,0,139264:0:0:0:0:
182,192,138638,1,8,0:0:0:0:
256,192,138638,1,4,0:0:0:0:
109,192,139264,1,2,0:0:0:0:
256,192,139264,1,4,0:0:0:0:
402,192,139264,1,0,0:0:0:0:
182,192,139420,1,0,0:0:0:0:
475,192,139420,1,0,0:0:0:0:
36,192,139576,1,0,0:0:0:0:
329,192,139576,1,0,0:0:0:0:
182,192,139732,1,0,0:0:0:0:
475,192,139732,1,0,0:0:0:0:
36,192,139889,1,0,0:0:0:0:
329,192,139889,1,0,0:0:0:0:
256,192,139889,1,8,0:0:0:0:
109,192,140045,1,0,0:0:0:0:
402,192,140045,1,0,0:0:0:0:
402,192,140201,1,0,0:0:0:0:
109,192,140201,1,0,0:0:0:0:
182,192,140357,1,0,0:0:0:0:
475,192,140357,1,0,0:0:0:0:
36,192,140514,1,2,0:0:0:0:
256,192,140514,1,0,0:0:0:0:
329,192,140514,1,0,0:0:0:0:
329,192,140670,1,0,0:0:0:0:
329,192,140826,1,0,0:0:0:0:
109,192,140826,1,0,0:0:0:0:
329,192,140982,1,0,0:0:0:0:
36,192,141139,1,0,0:0:0:0:
182,192,141139,1,8,0:0:0:0:
475,192,141139,128,0,141451:0:0:0:0:
36,192,141451,128,0,141764:0:0:0:0:
329,192,141451,1,0,0:0:0:0:
256,192,141764,1,0,0:0:0:0:
402,192,141764,1,0,0:0:0:0:
109,192,141764,1,2,0:0:0:0:
329,192,141920,1,0,0:0:0:0:
475,192,141920,1,0,0:0:0:0:
182,192,142076,1,0,0:0:0:0:
36,192,142076,1,0,0:0:0:0:
329,192,142232,1,0,0:0:0:0:
475,192,142232,1,0,0:0:0:0:
36,192,142389,1,0,0:0:0:0:
182,192,142389,1,0,0:0:0:0:
109,192,142389,1,8,0:0:0:0:
329,192,142545,1,0,0:0:0:0:
475,192,142545,1,0,0:0:0:0:
109,192,142701,1,0,0:0:0:0:
256,192,142701,1,0,0:0:0:0:
329,192,142857,1,0,0:0:0:0:
475,192,142857,1,0,0:0:0:0:
36,192,143014,1,2,0:0:0:0:
182,192,143014,1,0,0:0:0:0:
402,192,143014,1,0,0:0:0:0:
402,192,143170,1,0,0:0:0:0:
402,192,143326,1,0,0:0:0:0:
109,192,143326,1,0,0:0:0:0:
402,192,143482,1,0,0:0:0:0:
109,192,143639,1,0,0:0:0:0:
256,192,143639,1,0,0:0:0:0:
475,192,143639,1,8,0:0:0:0:
109,192,143795,1,0,0:0:0:0:
109,192,143951,1,0,0:0:0:0:
402,192,143951,1,0,0:0:0:0:
109,192,144108,1,0,0:0:0:0:
36,192,144264,1,0,0:0:0:0:
475,192,144264,1,2,0:0:0:0:
256,192,144264,1,0,0:0:0:0:
109,192,144420,1,0,0:0:0:0:
329,192,144420,1,0,0:0:0:0:
402,192,144576,1,0,0:0:0:0:
182,192,144576,1,0,0:0:0:0:
109,192,144733,1,0,0:0:0:0:
329,192,144733,1,0,0:0:0:0:
475,192,144889,1,8,0:0:0:0:
256,192,144889,1,0,0:0:0:0:
36,192,144889,1,0,0:0:0:0:
182,192,145045,1,0,0:0:0:0:
402,192,145045,1,0,0:0:0:0:
36,192,145201,1,0,0:0:0:0:
256,192,145201,1,0,0:0:0:0:
109,192,145358,1,0,0:0:0:0:
329,192,145358,1,0,0:0:0:0:
475,192,145514,1,2,0:0:0:0:
256,192,145514,1,0,0:0:0:0:
36,192,145514,1,0,0:0:0:0:
36,192,145670,1,0,0:0:0:0:
36,192,145826,1,0,0:0:0:0:
402,192,145826,1,0,0:0:0:0:
36,192,145983,1,0,0:0:0:0:
329,192,146139,128,0,146764:0:0:0:0:
475,192,146139,1,0,0:0:0:0:
109,192,146139,1,8,0:0:0:0:
182,192,146451,128,0,146764:0:0:0:0:
402,192,146451,1,0,0:0:0:0:
36,192,146764,1,0,0:0:0:0:
256,192,146764,1,2,0:0:0:0:
475,192,146764,1,0,0:0:0:0:
109,192,146920,1,0,0:0:0:0:
402,192,146920,1,0,0:0:0:0:
402,192,147076,1,0,0:0:0:0:
109,192,147076,1,0,0:0:0:0:
109,192,147233,1,0,0:0:0:0:
402,192,147233,1,0,0:0:0:0:
36,192,147389,1,0,0:0:0:0:
475,192,147389,1,0,0:0:0:0:
256,192,147389,1,8,0:0:0:0:
109,192,147545,1,0,0:0:0:0:
402,192,147545,1,0,0:0:0:0:
182,192,147701,1,0,0:0:0:0:
329,192,147701,1,0,0:0:0:0:
256,192,147858,1,0,0:0:0:0:
36,192,148014,128,0,148639:0:0:0:0:
475,192,148014,128,0,148639:0:0:0:0:
182,192,148014,1,2,0:0:0:0:
329,192,148014,1,4,0:0:0:0:
256,192,148170,1,0,0:0:0:0:
182,192,148326,1,0,0:0:0:0:
256,192,148483,1,0,0:0:0:0:
109,192,148639,128,0,149264:0:0:0:0:
402,192,148639,128,0,149264:0:0:0:0:
329,192,148639,1,8,0:0:0:0:
182,192,148639,1,4,0:0:0:0:
256,192,148795,1,0,0:0:0:0:
329,192,148952,1,0,0:0:0:0:
256,192,149108,1,0,0:0:0:0:
36,192,149264,1,0,0:0:0:0:
475,192,149420,1,0,0:0:0:0:
182,192,149420,1,0,0:0:0:0:
402,192,149577,1,0,0:0:0:0:
109,192,149577,1,0,0:0:0:0:
329,192,149733,1,0,0:0:0:0:
36,192,149733,1,0,0:0:0:0:
109,192,149889,1,0,0:0:0:0:
402,192,149889,1,0,0:0:0:0:
182,192,150045,1,0,0:0:0:0:
475,192,150045,1,0,0:0:0:0:
402,192,150202,1,0,0:0:0:0:
109,192,150202,1,0,0:0:0:0:
329,192,150358,1,0,0:0:0:0:
36,192,150358,1,0,0:0:0:0:
475,192,150514,1,0,0:0:0:0:
182,192,150514,1,0,0:0:0:0:
182,192,150670,1,0,0:0:0:0:
475,192,150670,1,0,0:0:0:0:
36,192,150827,1,0,0:0:0:0:
329,192,150827,1,0,0:0:0:0:
182,192,150983,1,0,0:0:0:0:
475,192,150983,1,0,0:0:0:0:
329,192,151920,1,0,0:0:0:0:
475,192,151920,1,0,0:0:0:0:
329,192,152077,1,0,0:0:0:0:
182,192,152077,1,0,0:0:0:0:
182,192,152233,1,0,0:0:0:0:
36,192,152233,1,0,0:0:0:0:
402,192,152389,1,0,0:0:0:0:
256,192,152389,1,0,0:0:0:0:
256,192,152545,1,0,0:0:0:0:
109,192,152545,1,0,0:0:0:0:
109,192,152702,1,0,0:0:0:0:
402,192,152702,1,0,0:0:0:0:
402,192,152858,1,0,0:0:0:0:
256,192,152858,1,0,0:0:0:0:
36,192,153014,1,0,0:0:0:0:
182,192,153014,1,0,0:0:0:0:
36,192,153170,1,0,0:0:0:0:
182,192,153170,1,0,0:0:0:0:
329,192,153327,1,0,0:0:0:0:
475,192,153327,1,0,0:0:0:0:
329,192,153483,1,0,0:0:0:0:
182,192,153483,1,0,0:0:0:0:
36,192,154264,1,2,0:0:0:0:
256,192,154264,1,4,0:0:0:0:
475,192,154421,1,0,0:0:0:0:
402,192,154577,1,0,0:0:0:0:
329,192,154733,1,0,0:0:0:0:
36,192,154889,1,0,0:0:0:0:
182,192,154889,1,8,0:0:0:0:
402,192,154889,1,0,0:0:0:0:
329,192,155046,1,0,0:0:0:0:
109,192,155202,1,0,0:0:0:0:
256,192,155202,1,0,0:0:0:0:
182,192,155358,1,0,0:0:0:0:
36,192,155514,1,2,0:0:0:0:
329,192,155514,1,0,0:0:0:0:
329,192,155671,1,0,0:0:0:0:
109,192,155827,1,0,0:0:0:0:
475,192,155827,1,0,0:0:0:0:
329,192,155983,1,0,0:0:0:0:
36,192,156139,1,0,0:0:0:0:
182,192,156139,1,8,0:0:0:0:
109,192,156452,1,0,0:0:0:0:
36,192,156764,1,2,0:0:0:0:
329,192,156921,1,0,0:0:0:0:
109,192,157077,1,0,0:0:0:0:
402,192,157077,1,0,0:0:0:0:
475,192,157233,1,0,0:0:0:0:
182,192,157389,1,8,0:0:0:0:
36,192,157389,1,0,0:0:0:0:
329,192,157389,1,0,0:0:0:0:
402,192,157546,1,0,0:0:0:0:
109,192,157702,1,0,0:0:0:0:
475,192,157702,1,0,0:0:0:0:
402,192,157858,1,0,0:0:0:0:
36,192,158014,1,2,0:0:0:0:
256,192,158014,1,4,0:0:0:0:
475,192,158014,128,0,158640:0:0:0:0:
109,192,158327,1,0,0:0:0:0:
36,192,158640,128,0,159265:0:0:0:0:
182,192,158640,1,4,0:0:0:0:
329,192,158640,1,8,0:0:0:0:
256,192,158952,1,8,0:0:0:0:
256,192,159108,1,8,0:0:0:0:
475,192,159265,1,0,0:0:0:0:
182,192,159265,1,4,0:0:0:0:
475,192,159421,128,0,161296:0:0:0:0:
109,192,159577,1,0,0:0:0:0:
36,192,159890,1,0,0:0:0:0:
182,192,159890,1,8,0:0:0:0:
109,192,160202,1,0,0:0:0:0:
36,192,160515,1,0,0:0:0:0:
109,192,160827,1,0,0:0:0:0:
329,192,160931,128,0,161452:0:0:0:0:
36,192,161140,1,0,0:0:0:0:
182,192,161140,1,8,0:0:0:0:
109,192,161452,1,0,0:0:0:0:
182,192,161452,128,0,161608:0:0:0:0:
402,192,161608,128,0,161765:0:0:0:0:
475,192,161765,128,0,162077:0:0:0:0:
36,192,161765,1,2,0:0:0:0:
256,192,161765,1,4,0:0:0:0:
182,192,162077,128,0,162806:0:0:0:0:
329,192,162390,1,8,0:0:0:0:
475,192,162390,1,0,0:0:0:0:
256,192,162806,1,0,0:0:0:0:
475,192,163015,1,2,0:0:0:0:
36,192,163015,1,0,0:0:0:0:
329,192,163093,1,0,0:0:0:0:
36,192,163171,1,0,0:0:0:0:
329,192,163293,1,0,0:0:0:0:
36,192,163366,1,0,0:0:0:0:
329,192,163444,1,0,0:0:0:0:
36,192,163562,1,0,0:0:0:0:
475,192,163640,1,0,0:0:0:0:
182,192,163640,1,0,0:0:0:0:
402,192,163640,1,8,0:0:0:0:
109,192,163796,128,0,163952:0:0:0:0:
256,192,163952,128,0,164109:0:0:0:0:
109,192,164109,128,0,164265:0:0:0:0:
182,192,164265,128,0,164734:0:0:0:0:
475,192,164265,1,2,0:0:0:0:
329,192,164265,1,4,0:0:0:0:
329,192,164734,128,0,165046:0:0:0:0:
402,192,164890,1,8,0:0:0:0:
475,192,164890,1,0,0:0:0:0:
36,192,165046,1,0,0:0:0:0:
475,192,165202,128,0,165671:0:0:0:0:
109,192,165515,1,2,0:0:0:0:
402,192,165671,128,0,165984:0:0:0:0:
36,192,165984,128,0,166140:0:0:0:0:
329,192,166140,1,0,0:0:0:0:
109,192,166140,1,8,0:0:0:0:
402,192,166229,1,0,0:0:0:0:
329,192,166348,1,0,0:0:0:0:
182,192,166452,1,0,0:0:0:0:
36,192,166648,1,0,0:0:0:0:
256,192,166765,128,0,167077:0:0:0:0:
475,192,166765,1,2,0:0:0:0:
329,192,166765,1,4,0:0:0:0:
475,192,167077,128,0,167546:0:0:0:0:
36,192,167390,1,0,0:0:0:0:
182,192,167390,1,8,0:0:0:0:
256,192,167546,1,0,0:0:0:0:
329,192,167702,1,0,0:0:0:0:
402,192,167781,1,0,0:0:0:0:
329,192,167911,1,0,0:0:0:0:
182,192,168015,1,0,0:0:0:0:
475,192,168015,1,2,0:0:0:0:
36,192,168194,1,0,0:0:0:0:
109,192,168328,1,0,0:0:0:0:
182,192,168484,1,0,0:0:0:0:
36,192,168640,1,4,0:0:0:0:
475,192,168640,1,8,0:0:0:0:
256,192,168640,128,0,169057:0:0:0:0:
402,192,168953,1,0,0:0:0:0:
36,192,169057,1,0,0:0:0:0:
182,192,169265,1,2,0:0:0:0:
475,192,169265,1,4,0:0:0:0:
329,192,169265,128,0,169578:0:0:0:0:
109,192,169578,1,0,0:0:0:0:
329,192,169734,128,0,170046:0:0:0:0:
36,192,169890,1,8,0:0:0:0:
182,192,169890,1,0,0:0:0:0:
475,192,170203,128,0,170437:0:0:0:0:
109,192,170203,1,0,0:0:0:0:
475,192,170515,128,0,170750:0:0:0:0:
182,192,170515,1,2,0:0:0:0:
475,192,170828,128,0,171140:0:0:0:0:
109,192,170828,1,0,0:0:0:0:
36,192,171140,1,8,0:0:0:0:
182,192,171140,1,0,0:0:0:0:
329,192,171140,1,0,0:0:0:0:
402,192,171218,1,0,0:0:0:0:
329,192,171349,1,0,0:0:0:0:
109,192,171453,1,0,0:0:0:0:
256,192,171453,1,0,0:0:0:0:
182,192,171609,1,0,0:0:0:0:
475,192,171765,1,2,0:0:0:0:
36,192,171765,1,4,0:0:0:0:
256,192,171765,128,0,173432:0:0:0:0:
402,192,171921,1,0,0:0:0:0:
329,192,172078,1,0,0:0:0:0:
182,192,172234,1,0,0:0:0:0:
36,192,172390,1,8,0:0:0:0:
109,192,172390,1,0,0:0:0:0:
402,192,172390,1,0,0:0:0:0:
329,192,172546,1,0,0:0:0:0:
109,192,172703,1,0,0:0:0:0:
182,192,172859,1,0,0:0:0:0:
475,192,173015,1,2,0:0:0:0:
36,192,173015,1,0,0:0:0:0:
36,192,173172,1,0,0:0:0:0:
182,192,173328,1,0,0:0:0:0:
329,192,173432,128,0,173640:0:0:0:0:
109,192,173484,1,0,0:0:0:0:
182,192,173640,128,0,174265:0:0:0:0:
36,192,173640,1,0,0:0:0:0:
475,192,173640,1,8,0:0:0:0:
36,192,174265,1,2,0:0:0:0:
329,192,174265,1,0,0:0:0:0:
109,192,174265,1,4,0:0:0:0:
402,192,174422,1,0,0:0:0:0:
329,192,174500,1,0,0:0:0:0:
402,192,174617,1,0,0:0:0:0:
329,192,174695,1,0,0:0:0:0:
402,192,174786,1,0,0:0:0:0:
475,192,174890,1,8,0:0:0:0:
256,192,174890,1,0,0:0:0:0:
36,192,174890,1,0,0:0:0:0:
109,192,175029,1,0,0:0:0:0:
36,192,175099,1,0,0:0:0:0:
109,192,175203,1,0,0:0:0:0:
36,192,175281,1,0,0:0:0:0:
109,192,175359,1,0,0:0:0:0:
36,192,175515,1,2,0:0:0:0:
329,192,175515,1,0,0:0:0:0:
402,192,175633,1,0,0:0:0:0:
329,192,175750,1,0,0:0:0:0:
402,192,175828,1,0,0:0:0:0:
329,192,175906,1,0,0:0:0:0:
182,192,176062,1,0,0:0:0:0:
475,192,176140,1,8,0:0:0:0:
256,192,176140,1,0,0:0:0:0:
36,192,176140,128,0,176297:0:0:0:0:
109,192,176297,128,0,176453:0:0:0:0:
329,192,176453,128,0,176922:0:0:0:0:
182,192,176609,128,0,177078:0:0:0:0:
36,192,176765,128,4,177234:0:0:0:0:
475,192,176765,1,2,0:0:0:0:
402,192,176922,128,0,177390:0:0:0:0:
256,192,177078,128,0,177547:0:0:0:0:
109,192,177234,128,0,177703:0:0:0:0:
475,192,177390,128,0,177859:0:0:0:0:
182,192,177390,1,8,0:0:0:0:
329,192,177547,128,0,177859:0:0:0:0:
182,192,177703,128,0,177859:0:0:0:0:
36,192,177859,128,0,178172:0:0:0:0:
182,192,178016,128,0,178328:0:0:0:0:
402,192,178016,1,2,0:0:0:0:
329,192,178172,128,0,178484:0:0:0:0:
109,192,178328,128,0,178797:0:0:0:0:
256,192,178484,128,0,178953:0:0:0:0:
402,192,178641,128,0,179109:0:0:0:0:
36,192,178641,1,8,0:0:0:0:
475,192,179109,1,0,0:0:0:0:
256,192,179266,1,4,0:0:0:0:
402,192,179266,1,2,0:0:0:0:
36,192,179266,128,0,179578:0:0:0:0:
182,192,179422,128,0,179734:0:0:0:0:
329,192,179578,128,0,179891:0:0:0:0:
36,192,179734,128,0,179891:0:0:0:0:
475,192,179891,1,8,0:0:0:0:
182,192,179891,128,0,180047:0:0:0:0:
329,192,180047,128,0,180203:0:0:0:0:
182,192,180203,1,0,0:0:0:0:
109,192,180307,1,0,0:0:0:0:
36,192,180411,1,0,0:0:0:0:
256,192,180516,1,2,0:0:0:0:
475,192,180516,128,0,180828:0:0:0:0:
329,192,180672,128,0,180984:0:0:0:0:
182,192,180828,128,0,181141:0:0:0:0:
475,192,180984,128,0,181141:0:0:0:0:
36,192,181141,1,8,0:0:0:0:
329,192,181141,128,0,181297:0:0:0:0:
182,192,181297,128,0,181453:0:0:0:0:
475,192,181453,128,0,181609:0:0:0:0:
402,192,181609,128,0,181766:0:0:0:0:
256,192,181766,1,4,0:0:0:0:
36,192,181766,1,2,0:0:0:0:
109,192,181766,1,0,0:0:0:0:
182,192,181922,1,0,0:0:0:0:
256,192,182078,1,0,0:0:0:0:
329,192,182234,1,0,0:0:0:0:
182,192,182391,1,8,0:0:0:0:
402,192,182391,1,0,0:0:0:0:
475,192,182547,1,0,0:0:0:0:
402,192,182703,1,0,0:0:0:0:
329,192,182860,1,0,0:0:0:0:
36,192,183016,1,2,0:0:0:0:
402,192,183016,1,0,0:0:0:0:
329,192,183172,1,0,0:0:0:0:
256,192,183328,1,0,0:0:0:0:
329,192,183485,1,0,0:0:0:0:
475,192,183641,1,8,0:0:0:0:
256,192,183641,1,0,0:0:0:0:
182,192,183797,1,0,0:0:0:0:
109,192,183953,1,0,0:0:0:0:
36,192,184110,1,0,0:0:0:0:
109,192,184266,128,0,184578:0:0:0:0:
475,192,184266,1,4,0:0:0:0:
329,192,184266,1,2,0:0:0:0:
256,192,184422,128,0,184735:0:0:0:0:
402,192,184578,128,0,184891:0:0:0:0:
109,192,184735,128,0,185047:0:0:0:0:
256,192,184891,128,0,185203:0:0:0:0:
475,192,184891,1,8,0:0:0:0:
402,192,185047,128,0,185360:0:0:0:0:
109,192,185203,1,0,0:0:0:0:
256,192,185308,1,0,0:0:0:0:
109,192,185412,1,0,0:0:0:0:
402,192,185516,128,0,185828:0:0:0:0:
36,192,185516,1,2,0:0:0:0:
256,192,185672,128,0,185985:0:0:0:0:
109,192,185828,128,0,186141:0:0:0:0:
402,192,185985,128,0,186297:0:0:0:0:
256,192,186141,128,0,186453:0:0:0:0:
475,192,186141,1,8,0:0:0:0:
109,192,186297,128,0,186610:0:0:0:0:
402,192,186453,128,0,186766:0:0:0:0:
256,192,186610,128,0,186766:0:0:0:0:
36,192,186766,1,4,0:0:0:0:
182,192,186766,1,2,0:0:0:0:
329,192,186766,128,0,187235:0:0:0:0:
109,192,186922,128,0,187391:0:0:0:0:
402,192,187078,128,0,187547:0:0:0:0:
182,192,187235,128,0,187704:0:0:0:0:
36,192,187391,1,8,0:0:0:0:
475,192,187391,128,0,187860:0:0:0:0:
256,192,187547,128,0,188016:0:0:0:0:
402,192,187704,128,0,188172:0:0:0:0:
182,192,187860,128,0,188329:0:0:0:0:
475,192,188016,1,2,0:0:0:0:
329,192,188016,128,0,188485:0:0:0:0:
109,192,188172,128,0,188641:0:0:0:0:
256,192,188329,128,0,188485:0:0:0:0:
36,192,188485,128,0,188641:0:0:0:0:
329,192,188641,1,8,0:0:0:0:
182,192,188641,1,4,0:0:0:0:
475,192,188641,128,0,188797:0:0:0:0:
402,192,188797,128,0,188954:0:0:0:0:
329,192,188954,128,0,189110:0:0:0:0:
36,192,189071,1,0,0:0:0:0:
256,192,189110,128,0,189266:0:0:0:0:
109,192,189149,1,0,0:0:0:0:
182,192,189214,1,0,0:0:0:0:
36,192,189266,1,2,0:0:0:0:
329,192,189266,1,0,0:0:0:0:
475,192,189266,128,0,189657:0:0:0:0:
182,192,189422,1,0,0:0:0:0:
182,192,189579,1,0,0:0:0:0:
36,192,189735,1,0,0:0:0:0:
475,192,189735,128,0,190126:0:0:0:0:
182,192,189891,1,0,0:0:0:0:
182,192,190047,1,0,0:0:0:0:
36,192,190204,1,0,0:0:0:0:
475,192,190204,128,0,190594:0:0:0:0:
182,192,190360,1,0,0:0:0:0:
182,192,190516,1,0,0:0:0:0:
36,192,190672,1,0,0:0:0:0:
475,192,190672,128,0,191063:0:0:0:0:
182,192,190829,1,0,0:0:0:0:
182,192,190985,1,0,0:0:0:0:
36,192,191141,1,0,0:0:0:0:
475,192,191141,128,0,191454:0:0:0:0:
256,192,191297,1,0,0:0:0:0:
402,192,191454,1,0,0:0:0:0:
109,192,191454,128,0,191610:0:0:0:0:
329,192,191610,1,0,0:0:0:0:
36,192,191610,128,0,191766:0:0:0:0:
402,192,191766,1,0,0:0:0:0:
182,192,191766,128,0,192157:0:0:0:0:
475,192,191922,1,0,0:0:0:0:
475,192,192079,1,0,0:0:0:0:
402,192,192235,1,0,0:0:0:0:
182,192,192235,128,0,192626:0:0:0:0:
475,192,192391,1,0,0:0:0:0:
475,192,192548,1,0,0:0:0:0:
402,192,192704,1,0,0:0:0:0:
182,192,192704,128,0,193094:0:0:0:0:
475,192,192860,1,0,0:0:0:0:
475,192,193016,1,0,0:0:0:0:
402,192,193173,1,0,0:0:0:0:
182,192,193173,128,0,193407:0:0:0:0:
475,192,193329,1,0,0:0:0:0:
475,192,193485,1,0,0:0:0:0:
182,192,193485,128,0,193641:0:0:0:0:
109,192,193641,128,0,193798:0:0:0:0:
402,192,193641,1,0,0:0:0:0:
182,192,193798,128,0,193954:0:0:0:0:
475,192,193798,1,0,0:0:0:0:
109,192,193954,128,0,194110:0:0:0:0:
402,192,193954,1,0,0:0:0:0:
36,192,194110,128,0,194266:0:0:0:0:
329,192,194110,1,0,0:0:0:0:
402,192,194266,1,0,0:0:0:0:
256,192,194266,128,0,194657:0:0:0:0:
109,192,194423,1,0,0:0:0:0:
109,192,194579,1,0,0:0:0:0:
475,192,194735,1,0,0:0:0:0:
256,192,194735,128,0,195126:0:0:0:0:
36,192,194891,1,0,0:0:0:0:
36,192,195048,1,0,0:0:0:0:
402,192,195204,1,0,0:0:0:0:
256,192,195204,128,0,195595:0:0:0:0:
109,192,195360,1,0,0:0:0:0:
109,192,195516,1,0,0:0:0:0:
475,192,195673,1,0,0:0:0:0:
256,192,195673,128,0,195907:0:0:0:0:
36,192,195829,1,0,0:0:0:0:
36,192,195985,1,0,0:0:0:0:
256,192,195985,128,0,196141:0:0:0:0:
109,192,196141,1,0,0:0:0:0:
402,192,196141,128,0,196298:0:0:0:0:
182,192,196298,1,0,0:0:0:0:
475,192,196298,128,0,196454:0:0:0:0:
256,192,196454,1,0,0:0:0:0:
402,192,196454,128,0,196610:0:0:0:0:
109,192,196610,1,0,0:0:0:0:
329,192,196610,128,0,196766:0:0:0:0:
256,192,196766,1,0,0:0:0:0:
36,192,196766,128,0,197235:0:0:0:0:
182,192,196923,1,0,0:0:0:0:
182,192,197079,1,0,0:0:0:0:
329,192,197079,1,0,0:0:0:0:
475,192,197079,1,8,0:0:0:0:
256,192,197235,1,0,0:0:0:0:
109,192,197235,128,0,197704:0:0:0:0:
402,192,197235,1,2,0:0:0:0:
182,192,197392,1,0,0:0:0:0:
402,192,197392,1,2,0:0:0:0:
182,192,197548,1,0,0:0:0:0:
475,192,197548,1,8,0:0:0:0:
329,192,197548,1,0,0:0:0:0:
256,192,197704,1,0,0:0:0:0:
36,192,197704,128,0,198173:0:0:0:0:
182,192,197860,1,0,0:0:0:0:
402,192,197860,1,2,0:0:0:0:
182,192,198017,1,0,0:0:0:0:
329,192,198017,1,0,0:0:0:0:
475,192,198017,1,8,0:0:0:0:
256,192,198173,1,0,0:0:0:0:
109,192,198173,128,0,198485:0:0:0:0:
475,192,198173,1,8,0:0:0:0:
402,192,198251,1,8,0:0:0:0:
182,192,198329,1,0,0:0:0:0:
329,192,198329,1,8,0:0:0:0:
182,192,198485,1,0,0:0:0:0:
36,192,198485,128,0,198642:0:0:0:0:
475,192,198485,1,0,0:0:0:0:
109,192,198642,128,0,198798:0:0:0:0:
402,192,198642,1,0,0:0:0:0:
256,192,198798,128,0,198954:0:0:0:0:
329,192,198798,1,2,0:0:0:0:
182,192,198954,128,0,199110:0:0:0:0:
475,192,198954,1,8,0:0:0:0:
402,192,198954,1,0,0:0:0:0:
36,192,199110,128,0,199267:0:0:0:0:
475,192,199267,128,0,199892:0:0:0:0:
329,192,199267,1,4,0:0:0:0:
182,192,199267,1,0,0:0:0:0:
109,192,199267,1,2,0:0:0:0:
256,192,199423,1,0,0:0:0:0:
182,192,199579,1,0,0:0:0:0:
256,192,199735,1,0,0:0:0:0:
329,192,199892,128,0,200204:0:0:0:0:
182,192,199892,1,0,0:0:0:0:
36,192,199892,1,8,0:0:0:0:
182,192,200048,1,0,0:0:0:0:
475,192,200204,128,0,200829:0:0:0:0:
256,192,200204,1,0,0:0:0:0:
182,192,200360,1,0,0:0:0:0:
36,192,200517,1,2,0:0:0:0:
329,192,200829,128,0,200985:0:0:0:0:
475,192,200985,128,0,201298:0:0:0:0:
182,192,201142,1,8,0:0:0:0:
36,192,201142,1,0,0:0:0:0:
402,192,201298,128,0,201454:0:0:0:0:
329,192,201454,128,0,201610:0:0:0:0:
475,192,201610,128,0,201767:0:0:0:0:
402,192,201767,128,0,202392:0:0:0:0:
36,192,201767,1,2,0:0:0:0:
182,192,201767,1,0,0:0:0:0:
109,192,201923,1,0,0:0:0:0:
182,192,202079,1,0,0:0:0:0:
109,192,202236,1,0,0:0:0:0:
256,192,202392,128,0,202704:0:0:0:0:
36,192,202392,1,8,0:0:0:0:
182,192,202392,1,0,0:0:0:0:
109,192,202548,1,0,0:0:0:0:
402,192,202704,128,0,203329:0:0:0:0:
182,192,202704,1,0,0:0:0:0:
109,192,202861,1,0,0:0:0:0:
36,192,203017,1,2,0:0:0:0:
256,192,203329,128,0,203486:0:0:0:0:
402,192,203486,128,0,203798:0:0:0:0:
36,192,203642,1,0,0:0:0:0:
182,192,203642,1,8,0:0:0:0:
329,192,203798,128,0,203954:0:0:0:0:
256,192,203954,128,0,204111:0:0:0:0:
402,192,204111,128,0,204267:0:0:0:0:
329,192,204267,128,0,204892:0:0:0:0:
36,192,204267,1,2,0:0:0:0:
182,192,204267,1,0,0:0:0:0:
475,192,204423,1,0,0:0:0:0:
109,192,204579,1,0,0:0:0:0:
475,192,204736,1,0,0:0:0:0:
182,192,204892,128,0,205204:0:0:0:0:
36,192,204892,1,8,0:0:0:0:
109,192,204892,1,0,0:0:0:0:
475,192,205048,1,0,0:0:0:0:
329,192,205204,128,0,205829:0:0:0:0:
109,192,205204,1,0,0:0:0:0:
475,192,205361,1,0,0:0:0:0:
36,192,205517,1,2,0:0:0:0:
182,192,205829,128,0,205986:0:0:0:0:
329,192,205986,128,0,206298:0:0:0:0:
36,192,206142,1,0,0:0:0:0:
402,192,206142,1,8,0:0:0:0:
256,192,206298,128,0,206454:0:0:0:0:
182,192,206454,128,0,206611:0:0:0:0:
329,192,206611,128,0,206767:0:0:0:0:
256,192,206767,128,0,207392:0:0:0:0:
475,192,206767,1,2,0:0:0:0:
36,192,206767,1,0,0:0:0:0:
402,192,206923,1,0,0:0:0:0:
402,192,207080,1,0,0:0:0:0:
402,192,207236,1,0,0:0:0:0:
109,192,207392,128,0,207705:0:0:0:0:
402,192,207392,1,0,0:0:0:0:
36,192,207392,1,8,0:0:0:0:
402,192,207548,1,0,0:0:0:0:
256,192,207705,128,0,208017:0:0:0:0:
475,192,207705,1,0,0:0:0:0:
329,192,207861,1,0,0:0:0:0:
109,192,208017,128,0,208330:0:0:0:0:
36,192,208017,1,4,0:0:0:0:
402,192,208017,128,2,208642:0:0:0:0:
182,192,208330,128,0,208486:0:0:0:0:
109,192,208486,128,0,208642:0:0:0:0:
36,192,208642,128,0,209059:0:0:0:0:
329,192,208642,128,8,209267:0:0:0:0:
256,192,208642,1,4,0:0:0:0:
475,192,209059,128,0,209267:0:0:0:0:
182,192,209267,128,0,209736:0:0:0:0:
36,192,209267,1,2,0:0:0:0:
402,192,209267,1,0,0:0:0:0:
109,192,209267,1,4,0:0:0:0:
475,192,209423,1,0,0:0:0:0:
329,192,209736,128,0,210205:0:0:0:0:
475,192,209736,1,0,0:0:0:0:
36,192,209892,1,0,0:0:0:0:
256,192,209892,1,8,0:0:0:0:
475,192,210048,1,0,0:0:0:0:
182,192,210205,128,0,210673:0:0:0:0:
475,192,210361,1,0,0:0:0:0:
36,192,210517,1,0,0:0:0:0:
402,192,210517,1,2,0:0:0:0:
329,192,210673,128,0,210986:0:0:0:0:
36,192,210673,1,0,0:0:0:0:
36,192,210830,1,0,0:0:0:0:
182,192,210986,128,0,211298:0:0:0:0:
36,192,210986,1,0,0:0:0:0:
475,192,211142,128,0,211455:0:0:0:0:
256,192,211142,1,8,0:0:0:0:
36,192,211142,1,0,0:0:0:0:
402,192,211298,128,0,211455:0:0:0:0:
109,192,211455,128,0,211611:0:0:0:0:
36,192,211455,128,0,211767:0:0:0:0:
329,192,211611,128,0,211767:0:0:0:0:
475,192,211767,128,0,212236:0:0:0:0:
109,192,211767,1,2,0:0:0:0:
182,192,211767,1,0,0:0:0:0:
256,192,211924,1,0,0:0:0:0:
36,192,212236,128,0,212705:0:0:0:0:
256,192,212236,1,0,0:0:0:0:
402,192,212392,1,8,0:0:0:0:
109,192,212392,1,0,0:0:0:0:
256,192,212549,1,0,0:0:0:0:
475,192,212705,128,0,213174:0:0:0:0:
256,192,212861,1,0,0:0:0:0:
329,192,213017,1,0,0:0:0:0:
109,192,213017,1,2,0:0:0:0:
36,192,213174,128,0,213642:0:0:0:0:
329,192,213174,1,0,0:0:0:0:
329,192,213330,1,0,0:0:0:0:
329,192,213486,1,0,0:0:0:0:
182,192,213642,1,0,0:0:0:0:
475,192,213642,128,0,213955:0:0:0:0:
109,192,213642,1,0,0:0:0:0:
256,192,213642,1,8,0:0:0:0:
182,192,213799,1,0,0:0:0:0:
402,192,213799,128,0,213955:0:0:0:0:
182,192,213955,1,0,0:0:0:0:
329,192,213955,128,0,214267:0:0:0:0:
182,192,214111,1,0,0:0:0:0:
402,192,214111,128,0,214267:0:0:0:0:
256,192,214267,1,0,0:0:0:0:
475,192,214267,1,2,0:0:0:0:
109,192,214267,128,0,214736:0:0:0:0:
402,192,214424,1,0,0:0:0:0:
402,192,214736,1,0,0:0:0:0:
36,192,214736,128,0,215205:0:0:0:0:
475,192,214892,1,0,0:0:0:0:
182,192,214892,1,8,0:0:0:0:
402,192,215049,1,0,0:0:0:0:
109,192,215205,128,0,215674:0:0:0:0:
402,192,215361,1,0,0:0:0:0:
329,192,215517,1,0,0:0:0:0:
475,192,215517,1,2,0:0:0:0:
329,192,215674,1,0,0:0:0:0:
36,192,215674,128,0,216142:0:0:0:0:
329,192,215830,1,0,0:0:0:0:
329,192,215986,1,0,0:0:0:0:
402,192,216142,128,0,216455:0:0:0:0:
256,192,216142,128,0,216299:0:0:0:0:
475,192,216142,1,0,0:0:0:0:
109,192,216142,1,8,0:0:0:0:
182,192,216299,128,0,216455:0:0:0:0:
109,192,216455,128,0,216768:0:0:0:0:
329,192,216455,128,0,216611:0:0:0:0:
256,192,216611,128,0,216768:0:0:0:0:
36,192,216768,1,2,0:0:0:0:
475,192,216768,128,0,217236:0:0:0:0:
182,192,216768,1,0,0:0:0:0:
109,192,216924,1,0,0:0:0:0:
402,192,217236,128,0,217705:0:0:0:0:
109,192,217236,1,0,0:0:0:0:
36,192,217393,1,0,0:0:0:0:
256,192,217393,1,8,0:0:0:0:
109,192,217549,1,0,0:0:0:0:
475,192,217705,128,0,218018:0:0:0:0:
329,192,217705,1,8,0:0:0:0:
182,192,217705,1,0,0:0:0:0:
109,192,217861,1,0,0:0:0:0:
256,192,217861,1,2,0:0:0:0:
402,192,218018,128,0,218330:0:0:0:0:
109,192,218018,1,0,0:0:0:0:
36,192,218018,1,2,0:0:0:0:
109,192,218174,1,0,0:0:0:0:
256,192,218174,1,0,0:0:0:0:
475,192,218330,128,0,218486:0:0:0:0:
109,192,218330,1,0,0:0:0:0:
182,192,218330,1,0,0:0:0:0:
256,192,218486,128,0,218643:0:0:0:0:
109,192,218486,1,0,0:0:0:0:
329,192,218486,1,0,0:0:0:0:
36,192,218643,128,0,219268:0:0:0:0:
475,192,218643,1,0,0:0:0:0:
402,192,218643,1,0,0:0:0:0:
182,192,218643,1,8,0:0:0:0:
475,192,218799,1,0,0:0:0:0:
329,192,218799,1,0,0:0:0:0:
475,192,218955,1,0,0:0:0:0:
256,192,218955,1,0,0:0:0:0:
475,192,219111,1,0,0:0:0:0:
182,192,219111,1,0,0:0:0:0:
109,192,219268,1,2,0:0:0:0:
329,192,219268,1,4,0:0:0:0:
256,192,219424,1,0,0:0:0:0:
402,192,219424,1,0,0:0:0:0:
475,192,219580,1,0,0:0:0:0:
329,192,219580,1,0,0:0:0:0:
109,192,219580,1,0,0:0:0:0:
402,192,219736,1,0,0:0:0:0:
256,192,219736,1,0,0:0:0:0:
36,192,219893,1,0,0:0:0:0:
182,192,219893,1,8,0:0:0:0:
329,192,219893,1,0,0:0:0:0:
475,192,219893,1,0,0:0:0:0:
329,192,220049,1,0,0:0:0:0:
475,192,220049,1,0,0:0:0:0:
256,192,220205,1,0,0:0:0:0:
402,192,220205,1,0,0:0:0:0:
109,192,220205,1,0,0:0:0:0:
475,192,220361,1,0,0:0:0:0:
36,192,220361,1,2,0:0:0:0:
329,192,220361,1,0,0:0:0:0:
182,192,220518,1,0,0:0:0:0:
36,192,220674,1,2,0:0:0:0:
329,192,220674,1,0,0:0:0:0:
475,192,220674,1,0,0:0:0:0:
182,192,220830,1,0,0:0:0:0:
36,192,220986,1,2,0:0:0:0:
329,192,220986,1,0,0:0:0:0:
475,192,220986,1,0,0:0:0:0:
36,192,221143,1,0,0:0:0:0:
256,192,221143,1,8,0:0:0:0:
329,192,221143,128,0,221768:0:0:0:0:
475,192,221143,128,0,221768:0:0:0:0:
109,192,221455,1,0,0:0:0:0:
36,192,221768,1,2,0:0:0:0:
182,192,221768,1,0,0:0:0:0:
402,192,221768,1,0,0:0:0:0:
256,192,221924,1,0,0:0:0:0:
475,192,221924,1,0,0:0:0:0:
109,192,222080,1,0,0:0:0:0:
256,192,222080,1,0,0:0:0:0:
475,192,222080,1,0,0:0:0:0:
256,192,222237,1,0,0:0:0:0:
475,192,222237,1,0,0:0:0:0:
182,192,222393,1,8,0:0:0:0:
36,192,222393,1,0,0:0:0:0:
256,192,222393,1,0,0:0:0:0:
475,192,222393,1,0,0:0:0:0:
475,192,222549,1,0,0:0:0:0:
256,192,222549,1,0,0:0:0:0:
402,192,222705,1,0,0:0:0:0:
182,192,222705,1,0,0:0:0:0:
109,192,222705,1,0,0:0:0:0:
256,192,222862,1,0,0:0:0:0:
475,192,222862,1,0,0:0:0:0:
36,192,222862,1,2,0:0:0:0:
329,192,223018,1,0,0:0:0:0:
36,192,223174,1,2,0:0:0:0:
182,192,223174,1,0,0:0:0:0:
475,192,223174,1,0,0:0:0:0:
329,192,223330,1,0,0:0:0:0:
256,192,223330,128,0,224268:0:0:0:0:
36,192,223487,1,2,0:0:0:0:
182,192,223487,1,0,0:0:0:0:
475,192,223487,1,0,0:0:0:0:
36,192,223643,1,0,0:0:0:0:
402,192,223643,1,8,0:0:0:0:
475,192,223643,128,0,224112:0:0:0:0:
182,192,223643,1,0,0:0:0:0:
109,192,223955,1,0,0:0:0:0:
36,192,223955,1,2,0:0:0:0:
475,192,224268,1,2,0:0:0:0:
36,192,224268,1,0,0:0:0:0:
182,192,224268,1,0,0:0:0:0:
109,192,224424,1,0,0:0:0:0:
256,192,224424,1,0,0:0:0:0:
402,192,224580,1,0,0:0:0:0:
36,192,224580,1,0,0:0:0:0:
182,192,224580,1,0,0:0:0:0:
109,192,224737,1,0,0:0:0:0:
256,192,224737,1,0,0:0:0:0:
475,192,224893,1,0,0:0:0:0:
329,192,224893,1,8,0:0:0:0:
36,192,224893,1,0,0:0:0:0:
182,192,224893,1,0,0:0:0:0:
36,192,225049,1,0,0:0:0:0:
182,192,225049,1,0,0:0:0:0:
402,192,225205,1,0,0:0:0:0:
109,192,225205,1,0,0:0:0:0:
256,192,225205,1,0,0:0:0:0:
475,192,225362,1,2,0:0:0:0:
182,192,225362,1,0,0:0:0:0:
36,192,225362,1,0,0:0:0:0:
329,192,225518,1,0,0:0:0:0:
475,192,225674,1,2,0:0:0:0:
36,192,225674,1,0,0:0:0:0:
182,192,225674,1,0,0:0:0:0:
475,192,225987,1,2,0:0:0:0:
36,192,225987,1,0,0:0:0:0:
182,192,225987,1,0,0:0:0:0:
475,192,226143,1,0,0:0:0:0:
329,192,226143,1,8,0:0:0:0:
36,192,226143,128,0,226768:0:0:0:0:
182,192,226143,128,0,226768:0:0:0:0:
402,192,226456,1,0,0:0:0:0:
109,192,226768,1,0,0:0:0:0:
402,192,226768,1,0,0:0:0:0:
256,192,226768,1,2,0:0:0:0:
182,192,226924,1,0,0:0:0:0:
329,192,226924,1,0,0:0:0:0:
36,192,227081,1,0,0:0:0:0:
475,192,227081,1,0,0:0:0:0:
256,192,227081,1,0,0:0:0:0:
109,192,227237,1,0,0:0:0:0:
402,192,227237,1,0,0:0:0:0:
182,192,227393,1,0,0:0:0:0:
329,192,227393,1,0,0:0:0:0:
256,192,227393,1,8,0:0:0:0:
109,192,227549,1,0,0:0:0:0:
402,192,227549,1,0,0:0:0:0:
36,192,227706,1,0,0:0:0:0:
475,192,227706,1,0,0:0:0:0:
256,192,227706,1,0,0:0:0:0:
182,192,227862,1,0,0:0:0:0:
329,192,227862,1,0,0:0:0:0:
109,192,228018,128,2,228643:0:0:0:0:
256,192,228018,128,0,228643:0:0:0:0:
402,192,228018,128,4,228643:0:0:0:0:
36,192,228643,128,8,229268:0:0:0:0:
182,192,228643,128,0,229268:0:0:0:0:
329,192,228643,128,0,229268:0:0:0:0:
475,192,228643,128,4,229268:0:0:0:0:
109,192,229268,1,2,0:0:0:0:
256,192,229268,1,4,0:0:0:0:
402,192,229268,1,0,0:0:0:0:
182,192,229424,1,0,0:0:0:0:
329,192,229424,1,0,0:0:0:0:
109,192,229581,1,0,0:0:0:0:
402,192,229581,1,0,0:0:0:0:
256,192,229581,1,0,0:0:0:0:
36,192,229737,1,0,0:0:0:0:
475,192,229737,1,0,0:0:0:0:
36,192,229893,1,0,0:0:0:0:
475,192,229893,1,8,0:0:0:0:
182,192,229893,1,0,0:0:0:0:
329,192,229893,1,0,0:0:0:0:
402,192,230049,1,0,0:0:0:0:
109,192,230049,1,0,0:0:0:0:
256,192,230206,1,0,0:0:0:0:
329,192,230206,1,0,0:0:0:0:
182,192,230206,1,0,0:0:0:0:
475,192,230362,1,2,0:0:0:0:
109,192,230362,1,0,0:0:0:0:
402,192,230362,1,0,0:0:0:0:
36,192,230518,1,0,0:0:0:0:
475,192,230674,1,2,0:0:0:0:
109,192,230674,1,0,0:0:0:0:
402,192,230674,1,0,0:0:0:0:
36,192,230831,1,0,0:0:0:0:
475,192,230987,1,2,0:0:0:0:
109,192,230987,1,0,0:0:0:0:
402,192,230987,1,0,0:0:0:0:
475,192,231143,1,0,0:0:0:0:
256,192,231143,1,8,0:0:0:0:
109,192,231143,128,0,231768:0:0:0:0:
402,192,231143,128,0,231768:0:0:0:0:
36,192,231456,1,0,0:0:0:0:
475,192,231768,1,2,0:0:0:0:
329,192,231768,1,0,0:0:0:0:
182,192,231768,1,0,0:0:0:0:
256,192,231925,1,0,0:0:0:0:
402,192,231925,1,0,0:0:0:0:
36,192,232081,1,0,0:0:0:0:
182,192,232081,1,0,0:0:0:0:
329,192,232081,1,0,0:0:0:0:
109,192,232237,1,0,0:0:0:0:
256,192,232237,1,0,0:0:0:0:
36,192,232393,1,0,0:0:0:0:
182,192,232393,1,0,0:0:0:0:
475,192,232393,1,0,0:0:0:0:
329,192,232393,1,8,0:0:0:0:
256,192,232550,1,0,0:0:0:0:
402,192,232550,1,0,0:0:0:0:
182,192,232706,1,0,0:0:0:0:
329,192,232706,1,0,0:0:0:0:
36,192,232706,1,0,0:0:0:0:
109,192,232862,1,0,0:0:0:0:
256,192,232862,1,0,0:0:0:0:
475,192,232862,1,2,0:0:0:0:
329,192,233018,1,0,0:0:0:0:
475,192,233175,1,2,0:0:0:0:
256,192,233175,1,0,0:0:0:0:
109,192,233175,1,0,0:0:0:0:
329,192,233331,1,0,0:0:0:0:
475,192,233487,1,2,0:0:0:0:
109,192,233487,1,0,0:0:0:0:
256,192,233487,1,0,0:0:0:0:
475,192,233643,1,0,0:0:0:0:
36,192,233643,1,8,0:0:0:0:
109,192,233643,128,0,234268:0:0:0:0:
256,192,233643,128,0,234268:0:0:0:0:
475,192,233956,1,2,0:0:0:0:
329,192,233956,1,0,0:0:0:0:
36,192,234268,1,2,0:0:0:0:
329,192,234268,1,0,0:0:0:0:
475,192,234268,1,0,0:0:0:0:
182,192,234425,1,0,0:0:0:0:
402,192,234425,1,0,0:0:0:0:
402,192,234581,1,0,0:0:0:0:
182,192,234581,1,0,0:0:0:0:
109,192,234581,1,0,0:0:0:0:
182,192,234737,1,0,0:0:0:0:
402,192,234737,1,0,0:0:0:0:
36,192,234893,1,0,0:0:0:0:
182,192,234893,1,0,0:0:0:0:
402,192,234893,1,0,0:0:0:0:
256,192,234893,1,8,0:0:0:0:
182,192,235050,1,0,0:0:0:0:
402,192,235050,1,0,0:0:0:0:
256,192,235206,1,0,0:0:0:0:
475,192,235206,1,0,0:0:0:0:
109,192,235206,1,0,0:0:0:0:
36,192,235362,1,2,0:0:0:0:
402,192,235362,1,0,0:0:0:0:
182,192,235362,1,0,0:0:0:0:
329,192,235518,1,0,0:0:0:0:
36,192,235675,1,2,0:0:0:0:
182,192,235675,1,0,0:0:0:0:
402,192,235675,1,0,0:0:0:0:
329,192,235831,1,0,0:0:0:0:
36,192,235987,1,2,0:0:0:0:
182,192,235987,1,0,0:0:0:0:
402,192,235987,1,0,0:0:0:0:
36,192,236144,1,0,0:0:0:0:
256,192,236144,1,8,0:0:0:0:
402,192,236144,128,0,236769:0:0:0:0:
182,192,236144,128,0,236769:0:0:0:0:
329,192,236456,1,0,0:0:0:0:
36,192,236769,1,2,0:0:0:0:
109,192,236769,1,0,0:0:0:0:
256,192,236769,1,0,0:0:0:0:
182,192,236925,1,0,0:0:0:0:
329,192,236925,1,0,0:0:0:0:
256,192,237081,1,0,0:0:0:0:
402,192,237081,1,0,0:0:0:0:
109,192,237081,1,0,0:0:0:0:
329,192,237237,1,0,0:0:0:0:
182,192,237237,1,0,0:0:0:0:
36,192,237237,1,2,0:0:0:0:
36,192,237394,1,0,0:0:0:0:
475,192,237394,1,8,0:0:0:0:
109,192,237394,1,0,0:0:0:0:
402,192,237394,1,0,0:0:0:0:
329,192,237550,1,0,0:0:0:0:
402,192,237550,1,8,0:0:0:0:
256,192,237628,1,8,0:0:0:0:
182,192,237706,1,0,0:0:0:0:
109,192,237706,1,8,0:0:0:0:
36,192,237862,1,8,0:0:0:0:
109,192,237862,1,0,0:0:0:0:
329,192,238019,128,0,238644:0:0:0:0:
475,192,238019,1,0,0:0:0:0:
402,192,238019,1,0,0:0:0:0:
36,192,238019,1,8,0:0:0:0:
256,192,238175,1,0,0:0:0:0:
182,192,238331,1,0,0:0:0:0:
109,192,238487,1,0,0:0:0:0:
182,192,238644,128,0,239269:0:0:0:0:
475,192,238644,1,8,0:0:0:0:
256,192,238644,1,0,0:0:0:0:
36,192,238644,1,0,0:0:0:0:
402,192,238800,1,0,0:0:0:0:
109,192,238956,1,0,0:0:0:0:
36,192,239112,1,0,0:0:0:0:
256,192,239269,128,0,239425:0:0:0:0:
475,192,239269,1,8,0:0:0:0:
329,192,239269,1,4,0:0:0:0:
109,192,239269,1,0,0:0:0:0:
402,192,239425,128,0,239581:0:0:0:0:
36,192,239425,1,0,0:0:0:0:
182,192,239581,128,0,239737:0:0:0:0:
329,192,239581,1,2,0:0:0:0:
36,192,239737,128,0,239894:0:0:0:0:
402,192,239737,1,0,0:0:0:0:
475,192,239894,128,0,240050:0:0:0:0:
329,192,239894,1,0,0:0:0:0:
182,192,239894,1,8,0:0:0:0:
256,192,240050,128,0,240206:0:0:0:0:
109,192,240050,1,0,0:0:0:0:
402,192,240206,128,0,240362:0:0:0:0:
182,192,240362,128,0,240519:0:0:0:0:
109,192,240362,1,0,0:0:0:0:
256,192,240362,1,2,0:0:0:0:
36,192,240519,128,0,240675:0:0:0:0:
329,192,240519,1,0,0:0:0:0:
475,192,240519,1,8,0:0:0:0:
402,192,240519,1,0,0:0:0:0:
109,192,240675,128,0,240831:0:0:0:0:
256,192,240675,1,2,0:0:0:0:
182,192,240675,1,0,0:0:0:0:
402,192,240831,128,0,240988:0:0:0:0:
329,192,240831,1,0,0:0:0:0:
256,192,240988,128,0,241144:0:0:0:0:
36,192,240988,1,2,0:0:0:0:
109,192,240988,1,0,0:0:0:0:
182,192,241144,128,0,241300:0:0:0:0:
475,192,241144,1,8,0:0:0:0:
329,192,241144,1,0,0:0:0:0:
402,192,241144,128,0,241456:0:0:0:0:
36,192,241300,128,0,241456:0:0:0:0:
475,192,241456,128,0,241613:0:0:0:0:
109,192,241456,128,0,241769:0:0:0:0:
329,192,241613,128,0,241769:0:0:0:0:
475,192,241769,128,0,241925:0:0:0:0:
36,192,241769,1,0,0:0:0:0:
182,192,241769,1,8,0:0:0:0:
256,192,241769,1,0,0:0:0:0:
402,192,241925,128,0,242081:0:0:0:0:
256,192,241925,1,0,0:0:0:0:
109,192,242081,128,0,242238:0:0:0:0:
36,192,242081,1,2,0:0:0:0:
256,192,242238,128,0,242394:0:0:0:0:
402,192,242238,1,0,0:0:0:0:
36,192,242394,128,0,242550:0:0:0:0:
329,192,242394,1,0,0:0:0:0:
475,192,242394,1,8,0:0:0:0:
182,192,242550,128,0,242706:0:0:0:0:
402,192,242550,1,0,0:0:0:0:
475,192,242706,128,0,242863:0:0:0:0:
329,192,242863,128,0,243019:0:0:0:0:
182,192,242863,1,0,0:0:0:0:
109,192,242863,1,2,0:0:0:0:
36,192,243019,128,0,243175:0:0:0:0:
109,192,243019,1,0,0:0:0:0:
256,192,243019,1,8,0:0:0:0:
402,192,243019,1,0,0:0:0:0:
182,192,243175,128,0,243331:0:0:0:0:
329,192,243175,1,2,0:0:0:0:
475,192,243175,1,0,0:0:0:0:
475,192,243331,128,0,243488:0:0:0:0:
109,192,243331,1,0,0:0:0:0:
329,192,243488,128,0,243644:0:0:0:0:
36,192,243488,1,2,0:0:0:0:
182,192,243488,1,0,0:0:0:0:
402,192,243644,128,0,243800:0:0:0:0:
109,192,243644,1,0,0:0:0:0:
256,192,243644,1,8,0:0:0:0:
256,192,243800,128,0,243956:0:0:0:0:
36,192,243800,1,0,0:0:0:0:
109,192,243956,128,0,244113:0:0:0:0:
475,192,243956,1,2,0:0:0:0:
329,192,243956,1,0,0:0:0:0:
256,192,244113,128,0,244269:0:0:0:0:
402,192,244113,1,0,0:0:0:0:
36,192,244269,128,0,244425:0:0:0:0:
475,192,244269,1,0,0:0:0:0:
329,192,244269,1,8,0:0:0:0:
182,192,244425,128,0,244581:0:0:0:0:
402,192,244425,1,0,0:0:0:0:
329,192,244581,128,0,244738:0:0:0:0:
36,192,244581,1,2,0:0:0:0:
182,192,244738,128,0,244894:0:0:0:0:
109,192,244738,1,0,0:0:0:0:
475,192,244894,128,0,245050:0:0:0:0:
36,192,244894,1,0,0:0:0:0:
256,192,244894,1,8,0:0:0:0:
329,192,245050,128,0,245206:0:0:0:0:
109,192,245050,1,0,0:0:0:0:
182,192,245206,128,0,245363:0:0:0:0:
329,192,245363,128,0,245519:0:0:0:0:
109,192,245363,1,0,0:0:0:0:
475,192,245363,1,2,0:0:0:0:
36,192,245519,128,0,245675:0:0:0:0:
475,192,245519,1,0,0:0:0:0:
256,192,245519,1,8,0:0:0:0:
182,192,245519,1,0,0:0:0:0:
109,192,245675,128,0,245832:0:0:0:0:
402,192,245675,1,0,0:0:0:0:
329,192,245675,1,2,0:0:0:0:
182,192,245832,128,0,245988:0:0:0:0:
402,192,245832,1,0,0:0:0:0:
109,192,245988,128,0,246144:0:0:0:0:
402,192,245988,1,0,0:0:0:0:
475,192,246144,128,0,246300:0:0:0:0:
256,192,246144,128,0,246457:0:0:0:0:
36,192,246144,1,0,0:0:0:0:
182,192,246144,1,8,0:0:0:0:
402,192,246300,128,0,246457:0:0:0:0:
329,192,246457,128,0,246613:0:0:0:0:
36,192,246457,128,0,246769:0:0:0:0:
402,192,246613,128,0,246769:0:0:0:0:
182,192,246769,128,0,246925:0:0:0:0:
475,192,246769,1,8,0:0:0:0:
109,192,246769,1,0,0:0:0:0:
329,192,246925,128,0,247082:0:0:0:0:
36,192,246925,1,0,0:0:0:0:
475,192,247082,128,0,247238:0:0:0:0:
109,192,247082,1,2,0:0:0:0:
256,192,247238,128,0,247394:0:0:0:0:
402,192,247238,1,0,0:0:0:0:
36,192,247394,128,0,247550:0:0:0:0:
475,192,247394,1,8,0:0:0:0:
329,192,247394,1,0,0:0:0:0:
182,192,247550,128,0,247707:0:0:0:0:
402,192,247550,1,0,0:0:0:0:
329,192,247707,128,0,247863:0:0:0:0:
109,192,247863,128,0,248019:0:0:0:0:
256,192,247863,1,0,0:0:0:0:
475,192,247863,1,2,0:0:0:0:
402,192,248019,128,0,248449:0:0:0:0:
475,192,248019,1,4,0:0:0:0:
36,192,248019,1,8,0:0:0:0:
182,192,248019,1,0,0:0:0:0:
182,192,248175,1,0,0:0:0:0:
182,192,248332,1,0,0:0:0:0:
256,192,248332,1,8,0:0:0:0:
36,192,248332,1,0,0:0:0:0:
329,192,248449,1,0,0:0:0:0:
182,192,248488,1,0,0:0:0:0:
109,192,248488,1,2,0:0:0:0:
402,192,248527,1,0,0:0:0:0:
475,192,248644,128,0,249269:0:0:0:0:
36,192,248644,1,0,0:0:0:0:
256,192,248644,1,8,0:0:0:0:
329,192,248644,1,0,0:0:0:0:
36,192,248800,1,0,0:0:0:0:
182,192,248800,1,0,0:0:0:0:
36,192,248957,1,0,0:0:0:0:
402,192,248957,1,0,0:0:0:0:
36,192,249113,1,0,0:0:0:0:
109,192,249113,1,0,0:0:0:0:
256,192,249269,128,0,249425:0:0:0:0:
182,192,249269,1,8,0:0:0:0:
36,192,249269,1,0,0:0:0:0:
329,192,249425,128,0,249582:0:0:0:0:
109,192,249425,1,0,0:0:0:0:
475,192,249582,128,0,249738:0:0:0:0:
36,192,249582,1,2,0:0:0:0:
402,192,249738,128,0,249894:0:0:0:0:
109,192,249738,1,0,0:0:0:0:
329,192,249894,128,0,250050:0:0:0:0:
36,192,249894,1,0,0:0:0:0:
182,192,249894,1,8,0:0:0:0:
256,192,250050,128,0,250207:0:0:0:0:
109,192,250050,1,0,0:0:0:0:
402,192,250207,128,0,250363:0:0:0:0:
182,192,250207,1,0,0:0:0:0:
475,192,250363,128,0,250519:0:0:0:0:
36,192,250363,1,2,0:0:0:0:
109,192,250363,1,0,0:0:0:0:
329,192,250519,128,0,250676:0:0:0:0:
36,192,250519,1,0,0:0:0:0:
182,192,250519,1,8,0:0:0:0:
402,192,250519,1,0,0:0:0:0:
256,192,250676,128,0,250832:0:0:0:0:
475,192,250676,1,2,0:0:0:0:
109,192,250676,1,0,0:0:0:0:
402,192,250832,128,0,250988:0:0:0:0:
109,192,250832,1,0,0:0:0:0:
475,192,250988,128,0,251144:0:0:0:0:
329,192,250988,1,2,0:0:0:0:
109,192,250988,1,0,0:0:0:0:
256,192,251144,128,0,251301:0:0:0:0:
36,192,251144,1,0,0:0:0:0:
182,192,251144,1,8,0:0:0:0:
109,192,251144,128,0,251457:0:0:0:0:
329,192,251301,128,0,251457:0:0:0:0:
475,192,251457,128,0,251613:0:0:0:0:
36,192,251457,128,0,251769:0:0:0:0:
402,192,251613,128,0,251769:0:0:0:0:
182,192,251769,128,0,251926:0:0:0:0:
475,192,251769,1,2,0:0:0:0:
109,192,251926,128,0,252082:0:0:0:0:
329,192,251926,1,0,0:0:0:0:
36,192,252082,128,0,252238:0:0:0:0:
475,192,252082,1,2,0:0:0:0:
256,192,252238,128,0,252394:0:0:0:0:
402,192,252238,1,0,0:0:0:0:
36,192,252394,128,0,252551:0:0:0:0:
475,192,252394,1,0,0:0:0:0:
329,192,252394,1,8,0:0:0:0:
109,192,252551,128,0,252707:0:0:0:0:
402,192,252551,1,0,0:0:0:0:
182,192,252707,128,0,252863:0:0:0:0:
402,192,252707,1,0,0:0:0:0:
256,192,252863,128,0,253019:0:0:0:0:
475,192,252863,1,2,0:0:0:0:
402,192,252863,1,0,0:0:0:0:
182,192,253019,128,0,253176:0:0:0:0:
475,192,253019,1,0,0:0:0:0:
329,192,253019,1,8,0:0:0:0:
109,192,253176,128,0,253332:0:0:0:0:
402,192,253176,1,0,0:0:0:0:
256,192,253176,1,2,0:0:0:0:
36,192,253332,128,0,253488:0:0:0:0:
329,192,253332,1,0,0:0:0:0:
256,192,253488,128,0,253644:0:0:0:0:
402,192,253488,1,0,0:0:0:0:
182,192,253488,1,2,0:0:0:0:
36,192,253644,128,0,253801:0:0:0:0:
475,192,253644,1,0,0:0:0:0:
329,192,253644,1,8,0:0:0:0:
402,192,253644,1,0,0:0:0:0:
109,192,253801,128,0,253957:0:0:0:0:
402,192,253801,1,0,0:0:0:0:
182,192,253957,128,0,254113:0:0:0:0:
402,192,253957,1,0,0:0:0:0:
475,192,253957,1,2,0:0:0:0:
256,192,254113,128,0,254269:0:0:0:0:
402,192,254113,1,0,0:0:0:0:
36,192,254269,1,8,0:0:0:0:
109,192,254269,1,0,0:0:0:0:
329,192,254269,128,0,254426:0:0:0:0:
182,192,254426,1,0,0:0:0:0:
402,192,254426,128,0,254582:0:0:0:0:
36,192,254582,1,2,0:0:0:0:
256,192,254582,1,0,0:0:0:0:
475,192,254582,128,0,254738:0:0:0:0:
109,192,254738,1,0,0:0:0:0:
329,192,254738,128,0,254894:0:0:0:0:
36,192,254894,1,0,0:0:0:0:
182,192,254894,1,8,0:0:0:0:
256,192,254894,1,0,0:0:0:0:
475,192,254894,128,0,255051:0:0:0:0:
109,192,255051,1,0,0:0:0:0:
402,192,255051,128,0,255207:0:0:0:0:
36,192,255207,1,0,0:0:0:0:
329,192,255207,128,0,255363:0:0:0:0:
109,192,255363,1,0,0:0:0:0:
256,192,255363,1,2,0:0:0:0:
475,192,255363,128,0,255520:0:0:0:0:
182,192,255520,1,8,0:0:0:0:
36,192,255520,1,0,0:0:0:0:
329,192,255520,128,0,255676:0:0:0:0:
36,192,255676,1,2,0:0:0:0:
256,192,255676,1,0,0:0:0:0:
402,192,255676,128,0,255832:0:0:0:0:
475,192,255832,128,0,255988:0:0:0:0:
36,192,255988,1,2,0:0:0:0:
109,192,255988,1,0,0:0:0:0:
329,192,255988,128,0,256145:0:0:0:0:
475,192,256145,128,0,256301:0:0:0:0:
36,192,256145,1,0,0:0:0:0:
256,192,256145,1,8,0:0:0:0:
182,192,256145,128,0,256457:0:0:0:0:
402,192,256301,128,0,256457:0:0:0:0:
329,192,256457,128,0,256613:0:0:0:0:
109,192,256457,128,0,256770:0:0:0:0:
402,192,256613,128,0,256770:0:0:0:0:
182,192,256770,128,0,256926:0:0:0:0:
475,192,256770,1,8,0:0:0:0:
256,192,256770,1,0,0:0:0:0:
109,192,256926,128,0,257082:0:0:0:0:
402,192,256926,1,0,0:0:0:0:
36,192,257082,128,0,257238:0:0:0:0:
329,192,257082,1,0,0:0:0:0:
475,192,257082,1,2,0:0:0:0:
182,192,257238,128,0,257395:0:0:0:0:
402,192,257238,1,0,0:0:0:0:
36,192,257395,128,0,257551:0:0:0:0:
475,192,257395,1,0,0:0:0:0:
329,192,257395,1,0,0:0:0:0:
256,192,257395,1,8,0:0:0:0:
109,192,257551,128,0,257707:0:0:0:0:
402,192,257551,1,0,0:0:0:0:
182,192,257707,128,0,257863:0:0:0:0:
475,192,257707,1,0,0:0:0:0:
256,192,257707,1,0,0:0:0:0:
36,192,257863,128,0,258020:0:0:0:0:
402,192,257863,1,0,0:0:0:0:
475,192,258020,128,2,258645:0:0:0:0:
329,192,258020,128,0,258645:0:0:0:0:
256,192,258020,1,4,0:0:0:0:
109,192,258020,128,0,258436:0:0:0:0:
182,192,258436,1,0,0:0:0:0:
256,192,258541,1,0,0:0:0:0:
182,192,258645,128,0,259270:0:0:0:0:
36,192,258645,128,2,259270:0:0:0:0:
109,192,258645,1,4,0:0:0:0:
402,192,258645,128,0,259270:0:0:0:0:
109,192,259270,1,2,0:0:0:0:
475,192,259270,128,0,273271:0:0:0:0:
256,192,259270,128,4,260520:0:0:0:0:
402,192,267130,1,0,0:0:0:0:
36,192,267385,1,0,0:0:0:0:
109,192,267641,1,0,0:0:0:0:
36,192,267897,1,0,0:0:0:0:
109,192,268153,1,0,0:0:0:0:
182,192,268409,1,0,0:0:0:0:
36,192,268665,1,0,0:0:0:0:
256,192,268921,1,0,0:0:0:0:
36,192,269177,1,0,0:0:0:0:
256,192,269433,1,0,0:0:0:0:
329,192,269688,1,0,0:0:0:0:
109,192,269944,1,0,0:0:0:0:
182,192,270200,1,0,0:0:0:0:
109,192,270456,1,0,0:0:0:0:
256,192,270712,1,0,0:0:0:0:
329,192,270968,1,0,0:0:0:0:
402,192,271224,1,0,0:0:0:0:
36,192,271480,1,0,0:0:0:0:
109,192,271736,1,0,0:0:0:0:
36,192,271992,1,0,0:0:0:0:
109,192,272247,1,0,0:0:0:0:
182,192,272503,1,0,0:0:0:0:
36,192,272759,1,0,0:0:0:0:
182,192,273015,1,0,0:0:0:0:
36,192,273271,1,0,0:0:0:0:
256,192,273527,1,0,0:0:0:0:
329,192,273783,1,0,0:0:0:0:
109,192,274039,1,0,0:0:0:0:
402,192,274295,1,0,0:0:0:0:
109,192,274551,1,0,0:0:0:0:
329,192,274806,1,0,0:0:0:0:
402,192,275062,1,0,0:0:0:0:
475,192,275318,1,0,0:0:0:0:
36,192,275574,1,0,0:0:0:0:
109,192,275830,1,0,0:0:0:0:
36,192,276086,1,0,0:0:0:0:
182,192,276342,1,0,0:0:0:0:
256,192,276598,1,0,0:0:0:0:
36,192,276854,1,0,0:0:0:0:
329,192,277110,1,0,0:0:0:0:
36,192,277365,1,0,0:0:0:0:
402,192,277621,1,0,0:0:0:0:
475,192,277877,1,0,0:0:0:0:
109,192,278133,1,0,0:0:0:0:
475,192,278389,1,0,0:0:0:0:
109,192,278645,1,0,0:0:0:0:
329,192,278901,1,0,0:0:0:0:
36,192,278901,1,0,0:0:0:0:
402,192,279157,1,0,0:0:0:0:
36,192,279157,1,0,0:0:0:0:
475,192,279413,1,0,0:0:0:0:
36,192,279413,1,0,0:0:0:0:
36,192,279669,1,0,0:0:0:0:
182,192,279669,1,0,0:0:0:0:
36,192,279924,1,0,0:0:0:0:
402,192,279924,1,0,0:0:0:0:
36,192,280180,1,0,0:0:0:0:
109,192,280180,1,0,0:0:0:0:
36,192,280436,1,0,0:0:0:0:
329,192,280436,1,0,0:0:0:0:
36,192,280692,1,0,0:0:0:0:
402,192,280692,1,0,0:0:0:0:
36,192,280948,1,8,0:0:0:0:
109,192,280948,1,0,0:0:0:0:
475,192,280948,1,0,0:0:0:0:
36,192,281204,1,8,0:0:0:0:
182,192,281204,1,0,0:0:0:0:
475,192,281204,1,0,0:0:0:0:
36,192,281460,1,8,0:0:0:0:
475,192,281460,1,0,0:0:0:0:
109,192,281460,1,0,0:0:0:0:
36,192,281716,1,8,0:0:0:0:
475,192,281716,1,0,0:0:0:0:
256,192,281716,1,0,0:0:0:0:
36,192,281972,1,8,0:0:0:0:
475,192,281972,1,0,0:0:0:0:
329,192,281972,1,0,0:0:0:0:
36,192,282228,1,8,0:0:0:0:
475,192,282228,1,0,0:0:0:0:
109,192,282228,1,0,0:0:0:0:
36,192,282483,1,8,0:0:0:0:
475,192,282483,1,0,0:0:0:0:
402,192,282483,1,0,0:0:0:0:
36,192,282739,1,8,0:0:0:0:
475,192,282739,1,0,0:0:0:0:
109,192,282739,1,0,0:0:0:0:
36,192,282995,1,8,0:0:0:0:
475,192,282995,1,0,0:0:0:0:
182,192,282995,1,0,0:0:0:0:
329,192,282995,1,0,0:0:0:0:
475,192,283123,1,0,0:0:0:0:
36,192,283251,1,8,0:0:0:0:
256,192,283251,1,0,0:0:0:0:
475,192,283251,128,0,283507:0:0:0:0:
36,192,283507,1,2,0:0:0:0:
329,192,283507,1,4,0:0:0:0:
182,192,283507,1,0,0:0:0:0:
109,192,283760,1,0,0:0:0:0:
36,192,284014,1,2,0:0:0:0:
329,192,284014,1,0,0:0:0:0:
182,192,284014,1,0,0:0:0:0:
36,192,284267,1,2,0:0:0:0:
109,192,284267,1,0,0:0:0:0:
36,192,284521,1,0,0:0:0:0:
182,192,284521,1,8,0:0:0:0:
256,192,284521,1,0,0:0:0:0:
402,192,284521,1,0,0:0:0:0:
36,192,284774,1,2,0:0:0:0:
329,192,284774,1,0,0:0:0:0:
475,192,284774,1,0,0:0:0:0:
36,192,285028,1,2,0:0:0:0:
475,192,285028,1,4,0:0:0:0:
109,192,285028,1,0,0:0:0:0:
36,192,285281,1,2,0:0:0:0:
475,192,285281,1,4,0:0:0:0:
182,192,285281,1,0,0:0:0:0:
329,192,285281,1,0,0:0:0:0:
109,192,285535,1,0,0:0:0:0:
182,192,285789,1,0,0:0:0:0:
329,192,285789,1,0,0:0:0:0:
36,192,285789,1,2,0:0:0:0:
256,192,286042,1,0,0:0:0:0:
402,192,286042,1,0,0:0:0:0:
36,192,286042,1,2,0:0:0:0:
109,192,286296,1,0,0:0:0:0:
36,192,286296,1,2,0:0:0:0:
475,192,286549,1,0,0:0:0:0:
329,192,286549,1,0,0:0:0:0:
36,192,286549,1,0,0:0:0:0:
182,192,286549,1,8,0:0:0:0:
36,192,286803,1,2,0:0:0:0:
475,192,286803,1,0,0:0:0:0:
109,192,287056,1,0,0:0:0:0:
256,192,287056,1,0,0:0:0:0:
475,192,287056,1,0,0:0:0:0:
329,192,287056,1,8,0:0:0:0:
182,192,287310,1,0,0:0:0:0:
329,192,287310,1,0,0:0:0:0:
475,192,287310,1,2,0:0:0:0:
36,192,287564,1,2,0:0:0:0:
475,192,287564,1,4,0:0:0:0:
402,192,287564,1,0,0:0:0:0:
109,192,287564,1,0,0:0:0:0:
256,192,287817,1,0,0:0:0:0:
182,192,288071,1,0,0:0:0:0:
329,192,288071,1,0,0:0:0:0:
36,192,288071,1,2,0:0:0:0:
256,192,288324,1,0,0:0:0:0:
36,192,288324,1,2,0:0:0:0:
182,192,288578,1,8,0:0:0:0:
329,192,288578,1,0,0:0:0:0:
475,192,288578,1,0,0:0:0:0:
36,192,288578,1,0,0:0:0:0:
109,192,288831,1,0,0:0:0:0:
402,192,288831,1,0,0:0:0:0:
475,192,288831,1,2,0:0:0:0:
36,192,289085,1,4,0:0:0:0:
475,192,289085,1,2,0:0:0:0:
256,192,289085,1,0,0:0:0:0:
36,192,289339,1,4,0:0:0:0:
475,192,289339,1,2,0:0:0:0:
329,192,289339,1,0,0:0:0:0:
182,192,289339,1,0,0:0:0:0:
256,192,289592,1,0,0:0:0:0:
329,192,289846,1,0,0:0:0:0:
182,192,289846,1,0,0:0:0:0:
36,192,289846,1,2,0:0:0:0:
109,192,290099,1,0,0:0:0:0:
402,192,290099,1,0,0:0:0:0:
36,192,290099,1,2,0:0:0:0:
256,192,290353,1,0,0:0:0:0:
36,192,290353,1,2,0:0:0:0:
109,192,290606,1,0,0:0:0:0:
402,192,290606,1,0,0:0:0:0:
475,192,290606,1,0,0:0:0:0:
182,192,290606,1,8,0:0:0:0:
256,192,290860,1,0,0:0:0:0:
36,192,290860,1,2,0:0:0:0:
109,192,291114,1,0,0:0:0:0:
402,192,291114,1,0,0:0:0:0:
329,192,291114,1,0,0:0:0:0:
36,192,291367,1,0,0:0:0:0:
475,192,291367,1,0,0:0:0:0:
256,192,291367,1,0,0:0:0:0:
36,192,291621,1,4,0:0:0:0:
475,192,291621,1,2,0:0:0:0:
402,192,291621,1,0,0:0:0:0:
182,192,291621,1,0,0:0:0:0:
109,192,291874,1,0,0:0:0:0:
475,192,291874,1,2,0:0:0:0:
475,192,292128,1,2,0:0:0:0:
36,192,292128,1,0,0:0:0:0:
256,192,292128,1,0,0:0:0:0:
402,192,292381,1,0,0:0:0:0:
475,192,292381,1,2,0:0:0:0:
109,192,292635,1,0,0:0:0:0:
329,192,292635,1,8,0:0:0:0:
475,192,292635,1,0,0:0:0:0:
256,192,292635,1,0,0:0:0:0:
182,192,292888,1,0,0:0:0:0:
402,192,292888,1,0,0:0:0:0:
36,192,292888,1,2,0:0:0:0:
36,192,293142,1,2,0:0:0:0:
475,192,293142,1,4,0:0:0:0:
109,192,293142,1,0,0:0:0:0:
36,192,293396,1,2,0:0:0:0:
475,192,293396,1,4,0:0:0:0:
182,192,293396,1,0,0:0:0:0:
402,192,293396,1,0,0:0:0:0:
109,192,293649,1,0,0:0:0:0:
475,192,293903,1,2,0:0:0:0:
256,192,293903,1,0,0:0:0:0:
36,192,293903,1,0,0:0:0:0:
329,192,294156,1,0,0:0:0:0:
475,192,294156,1,2,0:0:0:0:
109,192,294156,128,0,296438:0:0:0:0:
475,192,294410,1,2,0:0:0:0:
36,192,294410,1,0,0:0:0:0:
475,192,294663,1,0,0:0:0:0:
256,192,294663,1,8,0:0:0:0:
182,192,294663,1,0,0:0:0:0:
36,192,294917,1,0,0:0:0:0:
402,192,294917,1,2,0:0:0:0:
475,192,295171,1,0,0:0:0:0:
256,192,295171,1,8,0:0:0:0:
182,192,295171,1,0,0:0:0:0:
329,192,295424,1,0,0:0:0:0:
402,192,295424,1,2,0:0:0:0:
475,192,295678,1,2,0:0:0:0:
402,192,295678,1,0,0:0:0:0:
36,192,295678,1,4,0:0:0:0:
182,192,295931,1,0,0:0:0:0:
475,192,295931,1,2,0:0:0:0:
256,192,296185,1,0,0:0:0:0:
475,192,296185,1,2,0:0:0:0:
36,192,296438,128,0,296692:0:0:0:0:
182,192,296438,1,0,0:0:0:0:
475,192,296438,1,2,0:0:0:0:
329,192,296692,128,0,297453:0:0:0:0:
475,192,296692,1,0,0:0:0:0:
256,192,296692,1,8,0:0:0:0:
109,192,296692,1,0,0:0:0:0:
36,192,296946,1,2,0:0:0:0:
402,192,296946,1,0,0:0:0:0:
36,192,297199,1,2,0:0:0:0:
182,192,297199,1,4,0:0:0:0:
256,192,297199,1,0,0:0:0:0:
475,192,297453,128,0,297579:0:0:0:0:
182,192,297453,1,4,0:0:0:0:
36,192,297453,1,2,0:0:0:0:
402,192,297453,1,0,0:0:0:0:
256,192,297579,128,0,297960:0:0:0:0:
109,192,297706,1,0,0:0:0:0:
36,192,297960,1,2,0:0:0:0:
182,192,297960,1,0,0:0:0:0:
402,192,297960,1,0,0:0:0:0:
36,192,298213,1,0,0:0:0:0:
256,192,298213,1,0,0:0:0:0:
475,192,298213,1,8,0:0:0:0:
329,192,298213,1,0,0:0:0:0:
182,192,298340,1,2,0:0:0:0:
109,192,298467,1,0,0:0:0:0:
402,192,298467,1,0,0:0:0:0:
36,192,298594,1,0,0:0:0:0:
329,192,298721,1,0,0:0:0:0:
182,192,298721,1,0,0:0:0:0:
402,192,298847,1,2,0:0:0:0:
475,192,298974,1,0,0:0:0:0:
36,192,298974,1,8,0:0:0:0:
256,192,299101,1,2,0:0:0:0:
36,192,299228,1,0,0:0:0:0:
475,192,299228,1,8,0:0:0:0:
329,192,299228,1,0,0:0:0:0:
256,192,299354,1,0,0:0:0:0:
402,192,299481,1,0,0:0:0:0:
182,192,299481,1,0,0:0:0:0:
109,192,299608,1,0,0:0:0:0:
36,192,299735,1,2,0:0:0:0:
475,192,299735,1,4,0:0:0:0:
182,192,299735,1,0,0:0:0:0:
329,192,299735,128,0,302144:0:0:0:0:
36,192,299988,1,2,0:0:0:0:
109,192,299988,1,0,0:0:0:0:
36,192,300242,1,2,0:0:0:0:
256,192,300242,1,0,0:0:0:0:
109,192,300495,1,0,0:0:0:0:
36,192,300495,1,2,0:0:0:0:
402,192,300749,1,0,0:0:0:0:
36,192,300749,1,0,0:0:0:0:
182,192,300749,1,8,0:0:0:0:
36,192,301003,1,2,0:0:0:0:
256,192,301003,1,0,0:0:0:0:
36,192,301256,1,2,0:0:0:0:
475,192,301256,1,4,0:0:0:0:
182,192,301256,1,0,0:0:0:0:
36,192,301510,1,2,0:0:0:0:
475,192,301510,1,4,0:0:0:0:
402,192,301510,1,0,0:0:0:0:
182,192,301763,1,0,0:0:0:0:
475,192,302017,1,2,0:0:0:0:
402,192,302017,1,0,0:0:0:0:
182,192,302144,128,0,303538:0:0:0:0:
475,192,302270,1,2,0:0:0:0:
36,192,302270,1,0,0:0:0:0:
475,192,302524,1,2,0:0:0:0:
109,192,302524,1,0,0:0:0:0:
475,192,302778,1,0,0:0:0:0:
256,192,302778,1,8,0:0:0:0:
329,192,302778,1,0,0:0:0:0:
475,192,303031,1,2,0:0:0:0:
109,192,303031,1,0,0:0:0:0:
475,192,303285,1,0,0:0:0:0:
256,192,303285,1,8,0:0:0:0:
402,192,303285,1,0,0:0:0:0:
329,192,303538,128,0,306328:0:0:0:0:
36,192,303538,1,2,0:0:0:0:
109,192,303538,1,0,0:0:0:0:
475,192,303792,1,4,0:0:0:0:
36,192,303792,1,2,0:0:0:0:
402,192,303792,1,0,0:0:0:0:
109,192,304045,1,0,0:0:0:0:
36,192,304045,1,2,0:0:0:0:
182,192,304299,1,0,0:0:0:0:
36,192,304299,1,2,0:0:0:0:
109,192,304553,1,0,0:0:0:0:
36,192,304553,1,2,0:0:0:0:
36,192,304806,1,0,0:0:0:0:
402,192,304806,1,0,0:0:0:0:
182,192,304806,1,8,0:0:0:0:
36,192,305060,1,2,0:0:0:0:
256,192,305060,1,0,0:0:0:0:
36,192,305313,1,2,0:0:0:0:
475,192,305313,1,4,0:0:0:0:
182,192,305313,1,0,0:0:0:0:
36,192,305567,1,2,0:0:0:0:
475,192,305567,1,4,0:0:0:0:
402,192,305567,1,0,0:0:0:0:
182,192,305820,1,0,0:0:0:0:
109,192,305820,1,0,0:0:0:0:
36,192,306074,1,2,0:0:0:0:
402,192,306074,1,0,0:0:0:0:
256,192,306328,128,0,307088:0:0:0:0:
36,192,306328,1,2,0:0:0:0:
475,192,306328,1,0,0:0:0:0:
36,192,306581,1,2,0:0:0:0:
182,192,306581,1,0,0:0:0:0:
36,192,306835,1,0,0:0:0:0:
475,192,306835,1,8,0:0:0:0:
329,192,306835,1,0,0:0:0:0:
402,192,307088,128,0,310131:0:0:0:0:
109,192,307088,1,0,0:0:0:0:
182,192,307088,1,0,0:0:0:0:
182,192,307342,1,0,0:0:0:0:
256,192,307342,1,0,0:0:0:0:
256,192,307595,1,0,0:0:0:0:
329,192,307595,1,0,0:0:0:0:
36,192,307849,1,2,0:0:0:0:
475,192,307849,1,4,0:0:0:0:
182,192,307849,1,0,0:0:0:0:
109,192,308102,1,2,0:0:0:0:
329,192,308102,1,0,0:0:0:0:
36,192,308356,1,2,0:0:0:0:
256,192,308356,1,0,0:0:0:0:
36,192,308610,1,2,0:0:0:0:
109,192,308610,1,0,0:0:0:0:
36,192,308863,1,0,0:0:0:0:
182,192,308863,1,8,0:0:0:0:
256,192,308863,1,0,0:0:0:0:
36,192,309117,1,2,0:0:0:0:
329,192,309117,1,0,0:0:0:0:
36,192,309370,1,2,0:0:0:0:
475,192,309370,1,4,0:0:0:0:
109,192,309370,1,0,0:0:0:0:
475,192,309624,1,4,0:0:0:0:
36,192,309624,1,2,0:0:0:0:
329,192,309624,1,0,0:0:0:0:
182,192,309877,1,0,0:0:0:0:
109,192,310131,128,0,311526:0:0:0:0:
475,192,310131,1,2,0:0:0:0:
256,192,310131,1,0,0:0:0:0:
475,192,310385,1,2,0:0:0:0:
36,192,310385,1,0,0:0:0:0:
475,192,310638,1,2,0:0:0:0:
329,192,310638,1,0,0:0:0:0:
475,192,310892,1,0,0:0:0:0:
182,192,310892,1,8,0:0:0:0:
475,192,311145,1,2,0:0:0:0:
256,192,311145,1,0,0:0:0:0:
36,192,311399,1,0,0:0:0:0:
475,192,311399,1,0,0:0:0:0:
182,192,311399,1,8,0:0:0:0:
329,192,311526,1,0,0:0:0:0:
402,192,311652,1,0,0:0:0:0:
36,192,311652,1,2,0:0:0:0:
256,192,311652,1,0,0:0:0:0:
182,192,311779,128,0,312498:0:0:0:0:
475,192,311906,1,2,0:0:0:0:
36,192,311906,1,4,0:0:0:0:
329,192,311906,1,0,0:0:0:0:
475,192,312160,1,2,0:0:0:0:
109,192,312160,1,0,0:0:0:0:
475,192,312413,1,2,0:0:0:0:
402,192,312413,1,0,0:0:0:0:
256,192,312498,1,0,0:0:0:0:
182,192,312582,1,0,0:0:0:0:
329,192,312667,1,0,0:0:0:0:
475,192,312667,1,2,0:0:0:0:
109,192,312793,128,0,313808:0:0:0:0:
475,192,312920,1,0,0:0:0:0:
256,192,312920,1,0,0:0:0:0:
402,192,312920,1,8,0:0:0:0:
475,192,313174,1,2,0:0:0:0:
182,192,313174,1,0,0:0:0:0:
36,192,313427,1,4,0:0:0:0:
475,192,313427,1,2,0:0:0:0:
402,192,313427,1,0,0:0:0:0:
36,192,313681,1,4,0:0:0:0:
475,192,313681,1,2,0:0:0:0:
329,192,313681,1,0,0:0:0:0:
182,192,313808,1,0,0:0:0:0:
109,192,313935,1,0,0:0:0:0:
402,192,313935,1,0,0:0:0:0:
36,192,314104,1,0,0:0:0:0:
329,192,314188,1,0,0:0:0:0:
182,192,314188,1,2,0:0:0:0:
475,192,314442,1,0,0:0:0:0:
36,192,314442,1,2,0:0:0:0:
182,192,314695,1,2,0:0:0:0:
329,192,314695,1,0,0:0:0:0:
256,192,314695,1,0,0:0:0:0:
402,192,314949,1,0,0:0:0:0:
109,192,314949,1,0,0:0:0:0:
475,192,315041,1,0,0:0:0:0:
256,192,315134,1,0,0:0:0:0:
182,192,315226,1,0,0:0:0:0:
329,192,315226,1,0,0:0:0:0:
475,192,315504,1,8,0:0:0:0:
36,192,315504,1,0,0:0:0:0:
256,192,315504,1,0,0:0:0:0:
109,192,315857,1,2,0:0:0:0:
402,192,315857,1,0,0:0:0:0:
36,192,316286,1,2,0:0:0:0:
475,192,316286,1,4,0:0:0:0:
182,192,316286,128,0,324447:0:0:0:0:
329,192,316286,128,0,320689:0:0:0:0:
475,192,320689,128,0,324447:0:0:0:0:
402,192,324447,1,4,0:0:0:0:
256,192,324447,128,0,330031:0:0:0:0:
109,192,324447,1,2,0:0:0:0:
36,192,324447,128,0,327668:0:0:0:0:
402,192,327668,128,0,330031:0:0:0:0:
36,192,330031,1,2,0:0:0:0:
182,192,330031,1,0,0:0:0:0:
475,192,330031,1,4,0:0:0:0:
329,192,330031,1,0,0:0:0:0:
