osu file format v14

[General]
AudioFilename: panicstation.mp3
AudioLeadIn: 0
PreviewTime: 133388
Countdown: 0
SampleSet: Normal
StackLeniency: 0.7
Mode: 0
LetterboxInBreaks: 0
WidescreenStoryboard: 1

[Editor]
Bookmarks: 9959,28245,34245,48816,57959,76245,96816,115102,124245,133388,148245,172245,181388
DistanceSpacing: 1.7
BeatDivisor: 4
GridSize: 8
TimelineZoom: 2.5

[Metadata]
Title:Panic Station
TitleUnicode:Panic Station
Artist:Muse
ArtistUnicode:Muse
Creator:Nenonious
Version:Arrival
Source:
Tags:the 2nd law
BeatmapID:2111895
BeatmapSetID:915338

[Difficulty]
HPDrainRate:5.5
CircleSize:4.5
OverallDifficulty:9
ApproachRate:9.5
SliderMultiplier:3
SliderTickRate:1

[Events]
//Background and Video events
0,0,"trains haha get it because its a station.jpg",0,0
//Break Periods
//Storyboard Layer 0 (Background)
//Storyboard Layer 1 (Fail)
//Storyboard Layer 2 (Pass)
//Storyboard Layer 3 (Foreground)
//Storyboard Sound Samples

[TimingPoints]
246,571.428571428571,4,1,1,30,1,0
817,571.428571428571,4,1,1,30,1,0
28245,-100,4,1,1,40,0,0
48816,-76.9230769230769,4,1,1,40,0,1
57959,-90.9090909090909,4,1,1,40,0,0
66102,-66.6666666666667,4,1,1,40,0,0
67102,-90.9090909090909,4,1,1,40,0,0
76245,-83.3333333333333,4,1,1,40,0,1
91674,-100,4,1,1,40,0,1
95959,-66.6666666666667,4,1,1,40,0,1
96816,-100,4,1,1,30,0,0
98959,-133.333333333333,4,1,1,30,0,0
99388,-100,4,1,1,30,0,0
103531,-133.333333333333,4,1,1,30,0,0
103959,-100,4,1,1,30,0,0
108102,-133.333333333333,4,1,1,30,0,0
108531,-100,4,1,1,30,0,0
112674,-133.333333333333,4,1,1,30,0,0
113102,-100,4,1,1,30,0,0
113959,-100,4,1,1,50,0,0
114816,-100,4,1,1,35,0,0
124245,-100,4,1,1,40,0,0
133388,-83.3333333333333,4,1,1,50,0,1
167102,-100,4,1,1,50,0,1
172245,-100,4,1,1,30,0,0

[Colours]
Combo1 : 162,81,0
Combo2 : 128,0,0
Combo3 : 0,96,191
Combo4 : 159,159,159

[HitObjects]
89,186,246,6,0,P|60:114|176:136,1,225
191,151,817,5,0,3:0:0:0:
433,165,1388,2,0,L|441:272,1,75,8|0,3:0|0:0,0:0:0:0:
156,208,1959,1,0,3:0:0:0:
415,273,2531,2,0,L|427:111,1,150,8|0,3:0|0:0,0:0:0:0:
357,48,2959,6,0,L|350:122,1,75
326,347,3388,1,0,3:0:0:0:
205,23,3674,2,0,L|211:97,1,75,8|0,3:0|0:0,0:0:0:0:
224,261,3959,1,0,3:0:0:0:
316,5,4245,1,0,3:0:0:0:
291,21,4816,5,8,3:0:0:0:
487,178,4959,1,0,0:0:0:0:
234,166,5102,1,0,0:0:0:0:
445,27,5245,1,0,0:0:0:0:
357,264,5388,5,0,3:0:0:0:
117,264,5959,2,0,L|110:189,1,75,8|0,3:0|0:0,0:0:0:0:
397,191,6531,1,0,3:0:0:0:
144,69,7102,2,0,L|132:231,1,150,8|0,3:0|0:0,0:0:0:0:
202,294,7531,6,0,L|209:220,1,75
229,13,7959,1,0,3:0:0:0:
489,99,8245,2,0,L|379:108,1,75,8|0,3:0|0:0,0:0:0:0:
231,116,8531,1,0,3:0:0:0:
505,8,8816,1,0,3:0:0:0:
465,29,9388,5,8,3:0:0:0:
221,72,9531,1,0,0:0:0:0:
460,136,9674,1,0,0:0:0:0:
216,179,9817,1,0,0:0:0:0:
455,243,9959,6,0,L|302:256,1,150,0|0,3:0|0:0,0:0:0:0:
61,54,10531,2,0,L|213:67,1,150,8|0,3:0|0:0,0:0:0:0:
504,86,11102,2,0,P|464:146|460:229,1,150,0|0,3:0|0:0,0:0:0:0:
423,346,11531,1,0,0:0:0:0:
347,263,11674,2,0,P|280:229|209:254,1,150,8|0,3:0|0:0,0:0:0:0:
125,164,12102,6,0,L|231:174,1,75
364,187,12531,1,0,3:0:0:0:
217,356,12816,2,0,L|226:247,1,75,8|0,3:0|0:0,0:0:0:0:
240,123,13102,1,0,3:0:0:0:
288,241,13245,1,0,0:0:0:0:
336,355,13388,1,0,3:0:0:0:
320,349,13674,1,0,0:0:0:0:
305,344,13959,5,8,3:0:0:0:
224,109,14102,1,0,0:0:0:0:
239,276,14245,1,0,0:0:0:0:
320,41,14388,1,0,0:0:0:0:
375,282,14531,6,0,L|389:114,1,150,0|0,3:0|0:0,0:0:0:0:
119,0,15102,2,0,L|134:169,1,150,8|0,3:0|0:0,0:0:0:0:
301,323,15674,2,0,L|305:146,1,150,0|0,3:0|0:0,0:0:0:0:
303,45,16102,1,0,0:0:0:0:
177,80,16245,2,0,L|193:263,1,150,8|0,3:0|0:0,0:0:0:0:
76,272,16673,6,0,L|83:198,1,75
100,11,17102,1,0,3:0:0:0:
192,301,17388,2,0,L|183:191,1,75,8|0,3:0|0:0,0:0:0:0:
175,43,17674,2,0,P|214:29|263:62,1,75,0|0,3:0|0:0,0:0:0:0:
421,120,17959,1,0,3:0:0:0:
244,39,18245,2,0,P|283:25|332:58,1,75
366,79,18531,5,8,3:0:0:0:
112,70,18674,1,0,0:0:0:0:
420,60,18816,1,0,0:0:0:0:
175,89,18959,1,0,0:0:0:0:
480,38,19102,6,0,P|501:111|476:184,1,150,0|0,3:0|0:0,0:0:0:0:
349,316,19674,2,0,P|328:243|353:170,1,150,8|0,3:0|0:0,0:0:0:0:
417,69,20245,2,0,L|247:83,1,150,0|0,3:0|0:0,0:0:0:0:
126,200,20674,1,0,0:0:0:0:
274,309,20816,2,0,L|369:317,1,75,8|0,3:0|0:0,0:0:0:0:
477,230,21102,2,0,L|365:239,1,75
203,249,21388,5,0,0:0:0:0:
463,152,21674,1,0,3:0:0:0:
166,111,21959,2,0,L|171:226,1,75,8|0,3:0|0:0,0:0:0:0:
173,347,22245,1,0,3:0:0:0:
56,317,22388,2,0,L|62:237,1,75,0|0,0:0|3:0,0:0:0:0:
138,20,22816,2,0,L|249:29,1,75
386,38,23102,5,8,3:0:0:0:
199,201,23245,1,0,0:0:0:0:
267,18,23388,1,0,0:0:0:0:
417,172,23531,1,0,0:0:0:0:
291,115,23674,6,0,P|195:110|133:157,1,150,0|0,3:0|0:0,0:0:0:0:
60,253,24245,2,0,P|156:258|218:211,1,150,8|0,3:0|0:0,0:0:0:0:
269,48,24816,2,0,L|285:231,1,150,0|0,3:0|0:0,0:0:0:0:
295,310,25245,1,0,0:0:0:0:
405,243,25388,2,0,L|398:168,1,75,8|0,3:0|0:0,0:0:0:0:
386,19,25674,5,0,0:0:0:0:
458,138,25816,1,0,0:0:0:0:
319,140,25959,1,0,0:0:0:0:
512,0,26245,1,0,3:0:0:0:
178,74,26531,2,0,L|293:79,1,75,8|0,3:0|0:0,0:0:0:0:
396,81,26816,1,0,3:0:0:0:
230,203,26959,2,0,L|236:128,1,75,0|0,0:0|3:0,0:0:0:0:
443,245,27388,2,0,L|332:236,1,75
124,213,27674,2,0,P|167:153|237:129,1,150,8|0,3:0|0:0,0:0:0:0:
421,135,28245,6,0,L|414:209,1,75,4|0,3:0|0:0,0:0:0:0:
360,92,28531,1,0,0:0:0:0:
487,185,28674,1,0,0:0:0:0:
334,178,28816,2,0,L|344:282,1,75,8|0,3:0|0:0,0:0:0:0:
355,377,29102,1,0,0:0:0:0:
408,248,29245,1,0,0:0:0:0:
238,301,29388,2,0,L|349:308,1,75,0|0,3:0|0:0,0:0:0:0:
444,310,29674,1,0,0:0:0:0:
321,230,29816,1,0,0:0:0:0:
496,186,29959,2,0,L|392:176,1,75,8|0,3:0|0:0,0:0:0:0:
301,162,30245,1,0,0:0:0:0:
424,102,30388,1,0,0:0:0:0:
412,257,30531,6,0,L|405:357,1,75,0|0,3:0|0:0,0:0:0:0:
265,211,30816,2,0,L|272:311,1,75
489,122,31102,2,0,L|482:222,1,75,8|0,3:0|0:0,0:0:0:0:
186,125,31388,2,0,L|193:225,1,75
97,98,31674,2,0,P|169:36|250:50,1,150,0|0,3:0|0:0,0:0:0:0:
53,27,32102,1,0,0:0:0:0:
10,139,32245,2,0,L|14:229,1,75,8|0,3:0|0:0,0:0:0:0:
70,314,32531,5,0,0:0:0:0:
117,155,32674,2,0,L|212:146,1,75,0|0,0:0|3:0,0:0:0:0:
311,137,32959,1,0,0:0:0:0:
177,259,33102,2,0,L|318:272,1,75
33,299,33388,1,8,3:0:0:0:
161,130,33531,1,0,0:0:0:0:
101,213,33674,1,0,0:0:0:0:
224,51,33816,1,0,0:0:0:0:
304,239,33959,5,0,3:0:0:0:
220,272,34245,1,0,0:0:0:0:
57,14,34531,5,8,3:0:0:0:
14,135,34674,1,0,0:0:0:0:
135,193,34816,1,0,0:0:0:0:
115,64,34959,2,0,P|198:34|317:115,1,225
373,242,35531,1,0,0:0:0:0:
195,153,35674,2,0,L|269:159,1,75,8|0,3:0|0:0,0:0:0:0:
190,227,35959,1,0,0:0:0:0:
256,81,36102,1,0,0:0:0:0:
267,297,36245,2,0,L|257:185,1,75,0|0,3:0|0:0,0:0:0:0:
332,99,36531,2,0,L|325:173,1,75
401,86,36816,1,8,3:0:0:0:
251,152,36959,1,0,0:0:0:0:
383,248,37102,1,0,0:0:0:0:
233,314,37245,2,0,P|314:340|386:319,1,150
459,141,37674,6,0,L|452:220,1,75
432,356,37959,1,8,3:0:0:0:
373,203,38102,1,0,0:0:0:0:
322,322,38245,1,0,0:0:0:0:
263,169,38388,1,0,0:0:0:0:
212,288,38531,2,0,P|164:244|166:187,1,75,0|0,3:0|0:0,0:0:0:0:
194,362,38817,1,0,0:0:0:0:
23,256,38960,2,0,L|126:265,1,75,0|8,0:0|3:0,0:0:0:0:
34,322,39245,1,0,0:0:0:0:
49,182,39388,1,0,0:0:0:0:
163,265,39531,1,0,0:0:0:0:
106,97,39674,6,0,L|206:104,1,75,0|0,3:0|0:0,0:0:0:0:
237,259,39959,2,0,L|137:266,1,75
238,68,40245,2,0,L|338:75,1,75,8|0,3:0|0:0,0:0:0:0:
117,311,40531,2,0,L|17:318,1,75
2,141,40816,2,0,P|33:208|105:232,1,150,0|0,3:0|0:0,0:0:0:0:
241,201,41245,1,0,0:0:0:0:
169,80,41388,2,0,L|257:87,1,75,8|0,3:0|0:0,0:0:0:0:
99,135,41674,1,0,0:0:0:0:
177,259,41817,6,0,L|182:184,1,75,0|0,0:0|3:0,0:0:0:0:
108,58,42102,1,0,0:0:0:0:
2,141,42245,2,0,L|8:215,1,75
39,65,42531,1,8,3:0:0:0:
208,193,42674,1,0,0:0:0:0:
125,133,42817,1,0,0:0:0:0:
287,256,42960,1,0,0:0:0:0:
99,336,43102,5,0,3:0:0:0:
84,247,43388,1,0,0:0:0:0:
314,64,43674,5,8,3:0:0:0:
445,117,43816,1,0,0:0:0:0:
476,256,43959,1,0,0:0:0:0:
386,26,44245,2,0,L|361:200,1,150,4|0,3:0|0:0,0:0:0:0:
336,369,44816,1,8,3:0:0:0:
254,232,44959,2,0,P|330:292|419:268,1,150
492,218,45388,1,0,3:0:0:0:
291,51,45674,2,0,P|137:126|254:213,1,375
282,208,46531,5,0,3:0:0:0:
455,92,47102,2,0,L|450:216,1,75,8|0,3:0|0:0,0:0:0:0:
192,276,47674,1,0,3:0:0:0:
278,238,48102,1,0,3:0:0:0:
0,152,48245,2,0,L|8:226,1,75,8|0,3:0|0:0,0:0:0:0:
20,337,48531,1,0,3:0:0:0:
32,50,48816,6,0,L|131:57,1,97.4999955368044,4|0,3:0|0:0,0:0:0:0:
235,65,49102,1,0,0:0:0:0:
54,211,49388,1,8,3:0:0:0:
151,39,49674,1,0,0:0:0:0:
11,141,49959,5,0,3:0:0:0:
102,273,50102,1,0,0:0:0:0:
256,320,50245,1,0,0:0:0:0:
410,273,50388,1,0,0:0:0:0:
501,141,50531,2,0,L|400:149,1,97.4999955368044,8|0,3:0|0:0,0:0:0:0:
233,171,50816,1,0,0:0:0:0:
392,49,50959,1,0,0:0:0:0:
318,209,51102,6,0,L|307:98,1,97.4999955368044
301,21,51388,1,0,3:0:0:0:
139,48,51674,1,8,3:0:0:0:
122,236,51960,1,0,3:0:0:0:
15,82,52245,5,0,3:0:0:0:
180,126,52388,1,0,0:0:0:0:
345,170,52531,1,0,0:0:0:0:
510,214,52674,1,0,0:0:0:0:
351,82,52816,1,8,3:0:0:0:
387,262,52959,1,0,0:0:0:0:
206,298,53102,1,0,0:0:0:0:
169,118,53245,1,0,0:0:0:0:
259,199,53388,6,0,L|147:209,1,97.4999955368044,0|0,3:0|0:0,0:0:0:0:
51,218,53674,1,0,0:0:0:0:
223,126,53959,1,8,3:0:0:0:
217,321,54245,1,0,0:0:0:0:
37,228,54531,5,0,3:0:0:0:
112,91,54674,1,0,0:0:0:0:
256,32,54816,1,0,0:0:0:0:
400,91,54959,1,0,0:0:0:0:
475,228,55102,2,0,L|347:216,1,97.4999955368044,8|0,3:0|0:0,0:0:0:0:
214,200,55388,1,0,0:0:0:0:
359,152,55531,1,0,0:0:0:0:
237,326,55674,6,0,L|334:316,1,97.4999955368044,0|0,3:0|0:0,0:0:0:0:
341,248,55959,1,0,3:0:0:0:
196,258,56102,1,0,0:0:0:0:
316,126,56245,1,8,3:0:0:0:
171,136,56388,1,0,0:0:0:0:
171,136,56531,1,0,3:0:0:0:
400,287,56816,5,0,3:0:0:0:
154,304,56959,1,0,0:0:0:0:
358,79,57102,1,0,0:0:0:0:
111,96,57245,1,0,0:0:0:0:
81,216,57388,1,8,3:0:0:0:
200,61,57531,1,0,0:0:0:0:
239,234,57674,1,0,0:0:0:0:
358,79,57817,1,0,0:0:0:0:
397,252,57959,6,0,L|404:164,1,82.5000025177003,4|0,3:0|0:0,0:0:0:0:
459,73,58245,2,0,L|469:170,1,82.5000025177003
474,304,58531,2,0,L|465:221,1,82.5000025177003,8|0,3:0|0:0,0:0:0:0:
387,52,58816,2,0,L|377:135,1,82.5000025177003
367,205,59102,1,0,3:0:0:0:
208,231,59245,1,0,0:0:0:0:
290,240,59388,1,0,0:0:0:0:
139,178,59531,1,0,0:0:0:0:
260,55,59674,2,0,L|154:61,1,82.5000025177003,8|0,3:0|0:0,0:0:0:0:
40,119,59959,2,0,L|125:112,1,82.5000025177003
46,44,60245,5,0,3:0:0:0:
94,196,60388,1,0,0:0:0:0:
124,34,60531,1,0,3:0:0:0:
25,197,60674,1,0,0:0:0:0:
194,82,60816,2,0,L|186:169,1,82.5000025177003,8|0,3:0|0:0,0:0:0:0:
270,27,61102,1,0,3:0:0:0:
341,125,61245,2,0,L|236:134,1,82.5000025177003,0|0,0:0|3:0,0:0:0:0:
446,51,61531,1,0,0:0:0:0:
235,207,61674,2,0,L|362:195,1,82.5000025177003
428,190,61959,5,8,3:0:0:0:
248,14,62102,1,0,0:0:0:0:
289,260,62245,1,0,0:0:0:0:
400,35,62388,1,0,0:0:0:0:
178,151,62531,6,0,L|186:246,1,82.5000025177003,0|0,3:0|0:0,0:0:0:0:
263,72,62816,2,0,L|255:167,1,82.5000025177003
226,328,63102,2,0,L|218:244,1,82.5000025177003,8|0,3:0|0:0,0:0:0:0:
84,360,63388,2,0,L|168:352,1,82.5000025177003
46,284,63674,1,0,3:0:0:0:
211,308,63816,1,0,0:0:0:0:
235,142,63959,1,0,0:0:0:0:
70,117,64102,2,0,P|79:156|110:184,1,82.5000025177003,0|8,0:0|3:0,0:0:0:0:
0,89,64388,1,0,0:0:0:0:
116,41,64531,2,0,P|145:68|156:107,1,82.5000025177003
139,230,64816,6,0,L|242:220,1,82.5000025177003
402,184,65102,2,0,L|298:174,1,82.5000025177003,0|0,3:0|0:0,0:0:0:0:
134,137,65388,2,0,L|237:127,1,82.5000025177003,8|0,3:0|0:0,0:0:0:0:
356,110,65674,1,0,3:0:0:0:
268,241,65816,1,0,0:0:0:0:
166,53,65959,1,0,3:0:0:0:
53,333,66102,6,0,B|-2:308|-2:308|83:249,1,112.500004291535
190,158,66388,1,0,0:0:0:0:
0,213,66531,1,8,3:0:0:0:
146,358,66673,1,0,0:0:0:0:
101,107,66816,1,0,0:0:0:0:
216,288,66959,1,0,0:0:0:0:
275,86,67102,6,0,L|370:94,1,82.5000025177003,0|0,3:0|0:0,0:0:0:0:
288,3,67388,1,0,0:0:0:0:
340,180,67531,1,0,0:0:0:0:
423,43,67674,2,0,L|413:146,1,82.5000025177003,8|0,3:0|0:0,0:0:0:0:
474,170,67959,2,0,L|483:273,1,82.5000025177003
167,273,68245,2,0,P|203:307|255:319,1,82.5000025177003,0|0,3:0|0:0,0:0:0:0:
336,333,68530,1,0,0:0:0:0:
495,250,68673,1,0,0:0:0:0:
429,350,68816,1,8,3:0:0:0:
472,159,68960,1,0,0:0:0:0:
363,242,69102,1,0,0:0:0:0:
445,41,69245,1,0,0:0:0:0:
371,115,69388,6,0,P|329:151|255:154,1,82.5000025177003
181,250,69674,2,0,P|220:216|290:213,1,82.5000025177003,0|0,3:0|0:0,0:0:0:0:
188,72,69959,2,0,L|196:167,1,82.5000025177003,8|0,3:0|0:0,0:0:0:0:
89,72,70245,1,0,3:0:0:0:
301,101,70388,1,0,0:0:0:0:
120,152,70531,1,0,3:0:0:0:
265,175,70674,1,0,0:0:0:0:
190,35,70816,2,0,L|285:43,1,82.5000025177003
385,53,71102,5,8,3:0:0:0:
333,233,71245,1,0,0:0:0:0:
216,144,71388,1,0,0:0:0:0:
268,324,71531,1,0,0:0:0:0:
359,118,71674,6,0,L|255:108,1,82.5000025177003,0|0,3:0|0:0,0:0:0:0:
137,57,71959,2,0,L|240:47,1,82.5000025177003
366,35,72245,2,0,L|356:146,1,82.5000025177003,8|0,3:0|0:0,0:0:0:0:
298,258,72531,2,0,L|289:171,1,82.5000025177003
442,239,72816,1,0,3:0:0:0:
276,315,72959,1,0,0:0:0:0:
382,325,73102,1,0,0:0:0:0:
231,220,73245,1,0,0:0:0:0:
131,350,73388,2,0,L|226:341,1,82.5000025177003,8|0,3:0|0:0,0:0:0:0:
43,257,73674,1,0,0:0:0:0:
217,271,73816,1,0,0:0:0:0:
42,184,73959,6,0,L|147:174,1,82.5000025177003
259,165,74245,1,0,3:0:0:0:
6,120,74531,1,8,3:0:0:0:
307,216,74816,1,0,3:0:0:0:
305,69,74959,2,0,P|334:138|410:180,1,165.000005035401
490,189,75388,1,0,0:0:0:0:
270,156,75531,1,0,0:0:0:0:
512,101,75674,1,8,3:0:0:0:
200,297,75959,1,0,0:0:0:0:
386,344,76245,6,0,L|293:335,1,89.9999972534181,4|0,3:0|0:0,0:0:0:0:
334,144,76531,1,0,0:0:0:0:
433,287,76674,1,0,0:0:0:0:
425,158,76816,1,8,3:0:0:0:
362,282,76959,1,0,0:0:0:0:
488,237,77102,1,0,0:0:0:0:
329,224,77245,1,0,0:0:0:0:
264,351,77388,5,0,3:0:0:0:
228,236,77531,1,0,0:0:0:0:
192,121,77674,1,0,0:0:0:0:
156,6,77816,1,0,0:0:0:0:
106,184,77959,2,0,L|114:90,1,89.9999972534181,8|0,3:0|0:0,0:0:0:0:
218,38,78245,1,0,0:0:0:0:
61,57,78388,1,0,0:0:0:0:
170,102,78531,6,0,L|270:109,1,89.9999972534181,2|0,0:0|0:0,0:0:0:0:
216,246,78816,2,0,L|316:239,1,89.9999972534181,2|0,0:0|0:0,0:0:0:0:
335,38,79102,2,0,L|435:45,1,89.9999972534181,10|0,0:0|0:0,0:0:0:0:
327,313,79388,2,0,L|422:305,1,89.9999972534181,2|0,0:0|0:0,0:0:0:0:
466,226,79674,6,0,P|432:198|387:189,1,89.9999972534181,0|0,3:0|0:0,0:0:0:0:
288,174,79959,1,0,0:0:0:0:
478,125,80102,1,0,0:0:0:0:
216,128,80245,2,0,L|220:218,1,89.9999972534181,8|0,3:0|0:0,0:0:0:0:
62,129,80531,1,0,0:0:0:0:
159,46,80674,2,0,P|196:27|243:31,1,89.9999972534181,0|0,0:0|3:0,0:0:0:0:
393,72,80959,5,0,0:0:0:0:
341,228,81102,2,0,L|332:138,1,89.9999972534181
318,9,81388,1,8,3:0:0:0:
409,147,81531,1,0,0:0:0:0:
169,218,81674,1,0,0:0:0:0:
300,123,81816,1,0,0:0:0:0:
147,91,81958,5,0,3:0:0:0:
112,240,82101,1,0,0:0:0:0:
198,355,82244,1,0,0:0:0:0:
351,359,82387,1,0,0:0:0:0:
151,298,82530,1,8,3:0:0:0:
372,181,82673,1,0,0:0:0:0:
146,180,82815,1,0,0:0:0:0:
331,78,82959,6,0,P|437:93|464:242,1,269.999991760254
409,349,83531,1,0,0:0:0:0:
270,255,83674,2,0,L|364:262,1,89.9999972534181,8|0,3:0|0:0,0:0:0:0:
196,320,83959,1,0,0:0:0:0:
321,191,84102,1,0,0:0:0:0:
337,355,84245,6,0,L|225:345,1,89.9999972534181,0|0,3:0|0:0,0:0:0:0:
65,278,84531,2,0,L|177:268,1,89.9999972534181
281,252,84816,1,8,3:0:0:0:
120,185,84959,1,0,0:0:0:0:
259,326,85102,1,0,0:0:0:0:
185,151,85245,1,0,0:0:0:0:
58,367,85388,6,0,L|65:277,1,89.9999972534181,4|0,3:0|0:0,0:0:0:0:
112,95,85674,2,0,L|120:188,1,89.9999972534181
140,325,85959,1,8,3:0:0:0:
25,224,86102,1,0,0:0:0:0:
195,256,86245,1,0,0:0:0:0:
65,291,86388,1,0,0:0:0:0:
58,146,86531,5,0,3:0:0:0:
188,177,86674,1,0,0:0:0:0:
318,208,86816,1,0,0:0:0:0:
448,239,86959,1,0,0:0:0:0:
352,109,87102,1,8,3:0:0:0:
382,307,87245,1,0,0:0:0:0:
444,141,87388,1,0,0:0:0:0:
288,309,87531,1,0,0:0:0:0:
198,203,87674,6,0,L|207:99,1,89.9999972534181,2|0,0:0|0:0,0:0:0:0:
359,176,87959,2,0,L|368:279,1,89.9999972534181,2|0,0:0|0:0,0:0:0:0:
179,91,88245,2,0,L|188:-12,1,89.9999972534181,10|0,0:0|0:0,0:0:0:0:
395,281,88531,2,0,L|404:384,1,89.9999972534181,2|0,0:0|0:0,0:0:0:0:
308,280,88816,6,0,P|319:237|361:201,1,89.9999972534181,0|0,3:0|0:0,0:0:0:0:
465,131,89102,1,0,0:0:0:0:
395,281,89245,1,0,0:0:0:0:
331,66,89388,2,0,L|338:161,1,89.9999972534181,8|0,3:0|0:0,0:0:0:0:
250,82,89674,1,0,0:0:0:0:
387,191,89817,6,0,L|506:180,1,89.9999972534181,0|0,0:0|3:0,0:0:0:0:
372,33,90102,1,0,0:0:0:0:
387,191,90245,2,0,L|394:280,1,89.9999972534181
409,375,90531,1,8,3:0:0:0:
301,180,90674,1,0,0:0:0:0:
476,250,90817,1,0,0:0:0:0:
269,326,90959,1,0,0:0:0:0:
51,288,91102,5,0,3:0:0:0:
204,293,91245,1,0,0:0:0:0:
301,180,91388,1,0,0:0:0:0:
272,26,91531,1,0,0:0:0:0:
386,81,91674,5,8,3:0:0:0:
264,117,91816,1,0,0:0:0:0:
147,65,91959,1,0,0:0:0:0:
373,13,92245,2,0,P|312:57|239:69,1,150,4|0,3:0|0:0,0:0:0:0:
512,66,92816,1,8,3:0:0:0:
423,212,92959,2,0,P|445:112|540:66,1,150
412,287,93388,1,0,3:0:0:0:
341,146,93674,2,0,L|332:241,1,75
132,270,93959,2,0,P|221:211|350:229,1,225,8|0,3:3|0:0,0:0:0:0:
453,274,94531,5,0,3:0:0:0:
398,47,95102,2,0,L|318:53,1,75,8|0,0:3|0:0,0:0:0:0:
373,321,95674,1,0,3:0:0:0:
299,86,95959,2,0,B|274:31|274:31|244:73,1,112.500004291535
121,258,96245,1,8,3:3:0:0:
176,23,96388,1,8,3:0:0:0:
239,289,96531,1,8,3:0:0:0:
47,27,96816,6,0,L|41:137,1,75,4|0,3:0|0:0,0:0:0:0:
123,61,97102,2,0,L|129:171,1,75,2|0,0:0|0:0,0:0:0:0:
206,26,97388,2,0,L|200:136,1,75,8|0,3:3|0:0,0:0:0:0:
282,60,97674,2,0,L|288:170,1,75,2|0,0:0|0:0,0:0:0:0:
366,14,97959,2,0,L|360:124,1,75,0|0,3:0|0:0,0:0:0:0:
442,48,98245,2,0,L|448:158,1,75,2|0,0:0|0:0,0:0:0:0:
460,285,98531,2,0,P|424:198|307:180,1,150,8|0,0:3|0:0,0:0:0:0:
194,128,98959,6,0,L|200:207,1,56.2500021457673
208,340,99245,1,0,0:0:0:0:
123,306,99388,2,0,L|132:202,1,75,0|0,3:0|0:0,0:0:0:0:
8,167,99674,2,0,L|111:176,1,75,8|0,0:3|0:0,0:0:0:0:
147,52,99959,2,0,L|137:155,1,75,0|0,3:0|0:0,0:0:0:0:
262,191,100245,2,0,L|158:181,1,75,0|0,3:0|0:0,0:0:0:0:
237,119,100531,2,0,L|340:109,1,75
476,96,100816,5,10,0:3:0:0:
319,238,100959,1,0,0:0:0:0:
362,30,101102,1,0,0:0:0:0:
448,223,101245,1,0,0:0:0:0:
264,117,101388,6,0,L|198:79,1,75,0|0,3:0|0:0,0:0:0:0:
202,167,101674,2,0,L|128:154,1,75,2|0,0:0|0:0,0:0:0:0:
160,235,101959,2,0,L|86:248,1,75,8|0,0:3|0:0,0:0:0:0:
144,313,102245,2,0,L|79:350,1,75,2|0,0:0|0:0,0:0:0:0:
220,288,102531,2,0,L|245:358,1,75,0|0,3:0|0:0,0:0:0:0:
299,290,102816,2,0,L|347:347,1,75,2|0,0:0|0:0,0:0:0:0:
375,265,103102,2,0,P|417:292|479:182,1,150,8|0,0:3|0:0,0:0:0:0:
278,357,103531,6,0,L|365:349,1,56.2500021457673
510,333,103816,1,0,0:0:0:0:
306,224,103959,2,0,L|392:231,1,75,0|0,3:0|0:0,0:0:0:0:
147,154,104245,2,0,L|60:161,1,75,8|0,0:3|0:0,0:0:0:0:
227,72,104531,2,0,L|313:79,1,75,0|0,3:0|0:0,0:0:0:0:
397,140,104816,2,0,L|310:147,1,75,0|0,3:0|0:0,0:0:0:0:
438,210,105102,2,0,L|524:217,1,75
406,56,105388,5,8,0:3:0:0:
290,264,105531,1,0,0:0:0:0:
363,208,105674,1,0,0:0:0:0:
159,287,105817,1,0,0:0:0:0:
84,86,105959,6,0,L|92:179,1,75,0|0,3:0|0:0,0:0:0:0:
165,40,106245,2,0,L|173:133,1,75,2|0,0:0|0:0,0:0:0:0:
232,318,106531,2,0,L|225:243,1,75,8|0,3:3|0:0,0:0:0:0:
313,364,106817,2,0,L|306:289,1,75,2|0,0:0|0:0,0:0:0:0:
363,86,107102,2,0,L|371:179,1,75,0|0,3:0|0:0,0:0:0:0:
444,40,107388,2,0,L|452:133,1,75,2|0,0:0|0:0,0:0:0:0:
284,253,107674,2,0,P|382:242|450:154,1,150,8|0,0:3|0:0,0:0:0:0:
438,360,108102,6,0,L|431:280,1,56.2500021457673
255,370,108388,1,0,0:0:0:0:
124,291,108531,2,0,L|219:299,1,75,0|0,3:0|0:0,0:0:0:0:
321,242,108816,2,0,L|225:250,1,75,8|0,0:3|0:0,0:0:0:0:
35,195,109102,2,0,L|130:203,1,75,0|0,3:0|0:0,0:0:0:0:
369,155,109388,2,0,L|273:163,1,75,0|0,3:0|0:0,0:0:0:0:
186,165,109674,1,0,0:0:0:0:
80,41,109959,5,10,0:3:0:0:
319,105,110102,1,0,0:0:0:0:
305,29,110245,1,0,0:0:0:0:
215,266,110388,1,0,0:0:0:0:
31,198,110531,6,0,L|139:207,1,75,0|0,3:0|0:0,0:0:0:0:
23,60,110816,2,0,L|69:157,1,75,2|0,0:0|0:0,0:0:0:0:
243,293,111102,2,0,L|135:302,1,75,8|0,3:3|0:0,0:0:0:0:
251,155,111388,2,0,L|204:252,1,75,2|0,0:0|0:0,0:0:0:0:
433,127,111674,2,0,L|362:209,1,75,0|0,3:0|0:0,0:0:0:0:
339,23,111959,2,0,L|374:124,1,75,2|0,0:0|0:0,0:0:0:0:
423,279,112245,2,0,P|361:236|242:279,1,150,8|0,3:3|0:0,0:0:0:0:
163,328,112674,6,0,L|251:320,1,56.2500021457673
366,298,112959,1,0,0:0:0:0:
138,168,113102,2,0,L|206:207,1,75,0|0,3:0|0:0,0:0:0:0:
390,136,113388,2,0,L|322:173,1,75,8|0,3:0|0:0,0:0:0:0:
18,129,113674,2,0,L|82:165,1,75,0|0,3:0|0:0,0:0:0:0:
361,290,113959,1,8,3:0:0:0:
50,64,114102,1,8,3:0:0:0:
82,3,114388,1,8,3:0:0:0:
430,266,114531,1,8,3:0:0:0:
278,246,114674,1,0,0:0:0:0:
474,181,114816,5,0,0:0:0:0:
474,181,114959,1,0,0:0:0:0:
474,180,115102,6,0,P|441:196|398:191,1,75,4|0,3:0|0:0,0:0:0:0:
275,102,115388,2,0,P|308:86|351:91,1,75
462,11,115674,2,0,L|455:90,1,75,8|0,3:0|0:0,0:0:0:0:
339,278,115959,2,0,L|332:203,1,75
314,21,116245,6,0,L|226:28,1,75,0|0,3:0|0:0,0:0:0:0:
177,132,116531,2,0,L|227:204,1,75
341,195,116816,2,0,L|378:115,1,75,8|0,3:0|0:0,0:0:0:0:
422,14,117102,1,0,0:0:0:0:
382,266,117245,6,0,P|348:332|264:338,1,150
89,263,117674,2,0,L|200:272,1,75
193,94,117959,2,0,L|224:161,1,75,8|0,3:0|0:0,0:0:0:0:
391,99,118245,2,0,L|347:160,1,75
188,212,118531,6,0,L|84:202,1,75,0|0,3:0|0:0,0:0:0:0:
0,68,118816,2,0,L|103:58,1,75
319,158,119102,2,0,L|215:148,1,75,8|0,3:0|0:0,0:0:0:0:
90,130,119388,1,0,0:0:0:0:
409,85,119531,6,0,L|395:244,1,150
256,294,119959,2,0,P|281:322|316:336,1,75
316,195,120245,2,0,P|291:167|256:153,1,75,8|0,3:0|0:0,0:0:0:0:
403,361,120531,2,0,P|430:336|444:301,1,75
410,118,120816,6,0,L|403:192,1,75,0|0,3:0|0:0,0:0:0:0:
168,189,121102,2,0,L|174:263,1,75
289,26,121388,2,0,L|282:100,1,75,8|0,3:0|0:0,0:0:0:0:
259,264,121674,1,0,0:0:0:0:
155,14,121816,6,0,P|86:39|60:107,1,150
96,304,122245,2,0,L|102:224,1,75
148,102,122531,2,0,L|154:176,1,75,8|0,3:0|0:0,0:0:0:0:
211,360,122816,2,0,L|217:280,1,75
184,112,123102,2,0,P|214:81|243:77,1,75,0|0,3:0|0:0,0:0:0:0:
326,216,123388,2,0,P|313:174|324:146,1,75
503,148,123674,2,0,P|460:138|442:114,1,75,8|0,3:0|0:0,0:0:0:0:
368,2,123959,1,0,0:0:0:0:
472,227,124102,1,0,0:0:0:0:
290,68,124245,6,0,L|301:195,1,75,4|0,3:0|0:0,0:0:0:0:
156,290,124531,2,0,P|195:299|255:260,1,75
432,215,124816,2,0,P|393:224|333:185,1,75,8|0,3:0|0:0,0:0:0:0:
177,128,125102,2,0,P|216:137|276:98,1,75
360,28,125388,1,0,3:0:0:0:
460,209,125531,1,0,0:0:0:0:
278,311,125674,1,0,0:0:0:0:
177,128,125816,1,0,0:0:0:0:
339,196,125959,2,0,L|243:204,1,75,8|0,3:0|0:0,0:0:0:0:
320,120,126245,1,0,0:0:0:0:
226,273,126388,1,0,0:0:0:0:
318,269,126531,5,0,3:0:0:0:
247,132,126674,1,0,0:0:0:0:
147,261,126816,2,0,P|151:312|207:349,1,75
316,113,127102,2,0,P|283:132|246:131,1,75,8|0,3:0|0:0,0:0:0:0:
122,69,127388,2,0,P|103:36|104:-1,1,75
235,12,127674,1,0,3:0:0:0:
96,200,127816,1,0,0:0:0:0:
232,272,127959,1,0,0:0:0:0:
121,68,128102,1,0,0:0:0:0:
272,97,128245,2,0,L|263:192,1,75,8|0,3:0|0:0,0:0:0:0:
177,137,128531,1,0,0:0:0:0:
371,120,128674,1,0,0:0:0:0:
261,244,128816,6,0,L|364:253,1,75,0|0,3:0|0:0,0:0:0:0:
447,141,129102,2,0,P|422:181|388:197,1,75
345,349,129388,2,0,P|319:309|285:293,1,75,8|0,3:0|0:0,0:0:0:0:
121,276,129674,2,0,P|146:315|184:328,1,75
295,296,129959,1,0,3:0:0:0:
413,168,130102,1,0,0:0:0:0:
134,151,130245,1,0,0:0:0:0:
308,225,130388,1,0,0:0:0:0:
489,103,130531,2,0,L|479:214,1,75,8|0,3:0|0:0,0:0:0:0:
414,67,130816,1,0,0:0:0:0:
470,264,130959,1,0,0:0:0:0:
233,193,131102,6,0,P|225:230|235:266,1,75,0|0,3:0|0:0,0:0:0:0:
296,118,131388,2,0,P|304:81|294:45,1,75
134,151,131674,2,0,L|144:254,1,75,8|0,3:0|0:0,0:0:0:0:
8,305,131959,2,0,L|82:311,1,75
248,319,132245,1,0,3:0:0:0:
387,211,132388,1,0,0:0:0:0:
395,60,132531,1,0,0:0:0:0:
298,247,132674,1,0,0:0:0:0:
474,52,132816,1,8,3:0:0:0:
387,354,132959,1,8,3:0:0:0:
210,317,133102,2,0,L|306:307,1,75
223,332,133388,6,0,L|319:322,1,89.9999972534181,4|0,3:0|0:0,0:0:0:0:
438,308,133674,1,0,0:0:0:0:
283,259,133817,1,0,0:0:0:0:
451,155,133959,1,8,3:0:0:0:
292,190,134102,1,0,0:0:0:0:
385,15,134245,1,0,0:0:0:0:
265,125,134388,1,0,0:0:0:0:
277,0,134531,5,0,3:0:0:0:
354,96,134674,1,0,0:0:0:0:
381,217,134816,1,0,0:0:0:0:
342,334,134959,1,0,0:0:0:0:
187,256,135102,2,0,L|281:264,1,89.9999972534181,8|0,3:0|0:0,0:0:0:0:
435,272,135388,1,0,0:0:0:0:
258,334,135531,1,0,0:0:0:0:
311,215,135674,6,0,P|322:172|309:129,1,89.9999972534181,2|0,0:0|0:0,0:0:0:0:
146,181,135959,2,0,P|131:138|143:96,1,89.9999972534181,2|0,0:0|0:0,0:0:0:0:
361,105,136245,2,0,P|371:62|358:18,1,89.9999972534181,10|0,0:0|0:0,0:0:0:0:
92,77,136531,2,0,P|77:34|89:-6,1,89.9999972534181,2|0,0:0|0:0,0:0:0:0:
250,126,136816,6,0,L|241:214,1,89.9999972534181,0|0,3:0|0:0,0:0:0:0:
225,362,137102,1,0,0:0:0:0:
319,188,137245,1,0,0:0:0:0:
364,321,137388,2,0,L|268:312,1,89.9999972534181,8|0,3:0|0:0,0:0:0:0:
138,299,137674,1,0,0:0:0:0:
251,124,137816,2,0,P|207:136|166:119,1,89.9999972534181,0|0,0:0|3:0,0:0:0:0:
86,26,138102,1,0,0:0:0:0:
116,207,138245,6,0,L|205:198,1,89.9999972534181
347,177,138531,1,8,3:0:0:0:
141,138,138674,1,0,0:0:0:0:
300,261,138817,1,0,0:0:0:0:
198,67,138960,1,0,0:0:0:0:
350,71,139102,5,0,3:0:0:0:
209,10,139245,1,0,0:0:0:0:
88,104,139388,1,0,0:0:0:0:
108,255,139531,1,0,0:0:0:0:
39,168,139674,5,8,3:0:0:0:
164,274,139816,1,0,0:0:0:0:
13,339,139959,1,0,0:0:0:0:
128,185,140102,2,0,P|230:205|217:354,1,269.999991760254
68,257,140674,5,0,0:0:0:0:
2,77,140817,2,0,L|9:169,1,89.9999972534181,8|0,3:0|0:0,0:0:0:0:
81,60,141102,1,0,0:0:0:0:
19,239,141245,1,0,0:0:0:0:
193,195,141388,6,0,L|81:185,1,89.9999972534181,0|0,3:0|0:0,0:0:0:0:
81,60,141674,2,0,L|193:50,1,89.9999972534181
282,39,141959,1,8,3:0:0:0:
87,0,142102,1,0,0:0:0:0:
276,108,142245,1,0,0:0:0:0:
386,2,142388,1,0,0:0:0:0:
512,187,142531,6,0,L|408:177,1,89.9999972534181,4|0,3:0|0:0,0:0:0:0:
279,274,142817,2,0,L|375:265,1,89.9999972534181
490,253,143102,1,8,3:0:0:0:
330,334,143245,1,0,0:0:0:0:
440,189,143388,1,0,0:0:0:0:
403,346,143531,1,0,0:0:0:0:
364,160,143674,5,0,3:0:0:0:
257,266,143817,1,0,0:0:0:0:
113,227,143959,1,0,0:0:0:0:
69,83,144102,1,0,0:0:0:0:
48,264,144245,1,8,3:0:0:0:
147,142,144388,1,0,0:0:0:0:
296,130,144531,1,0,0:0:0:0:
409,228,144674,1,0,0:0:0:0:
452,75,144816,6,0,P|409:63|367:76,1,89.9999972534181,2|0,0:0|0:0,0:0:0:0:
279,204,145102,2,0,P|321:215|363:202,1,89.9999972534181,2|0,0:0|0:0,0:0:0:0:
232,114,145388,2,0,P|220:71|233:29,1,89.9999972534181,10|0,0:0|0:0,0:0:0:0:
452,165,145674,2,0,P|463:207|450:249,1,89.9999972534181,2|0,0:0|0:0,0:0:0:0:
333,337,145959,6,0,L|444:328,1,89.9999972534181,0|0,3:0|0:0,0:0:0:0:
294,257,146245,1,0,0:0:0:0:
488,318,146388,1,0,0:0:0:0:
425,140,146531,2,0,L|415:251,1,89.9999972534181,8|0,3:0|0:0,0:0:0:0:
404,362,146817,1,0,0:0:0:0:
302,167,146959,2,0,L|293:261,1,89.9999972534181,0|0,0:0|3:0,0:0:0:0:
281,374,147245,5,0,0:0:0:0:
449,273,147388,2,0,L|354:280,1,89.9999972534181
209,287,147674,1,8,3:0:0:0:
155,144,147816,1,0,0:0:0:0:
274,48,147959,1,0,0:0:0:0:
401,131,148102,1,0,0:0:0:0:
484,0,148245,5,0,3:0:0:0:
342,29,148388,1,0,0:0:0:0:
200,55,148531,1,0,0:0:0:0:
58,80,148674,1,0,0:0:0:0:
249,117,148816,1,8,3:0:0:0:
101,15,148959,1,0,0:0:0:0:
310,161,149102,1,0,0:0:0:0:
233,34,149245,6,0,P|192:171|248:296,1,269.999991760254
304,380,149816,1,0,0:0:0:0:
391,299,149959,2,0,L|298:306,1,89.9999972534181,8|0,3:0|0:0,0:0:0:0:
188,314,150244,1,0,0:0:0:0:
239,186,150387,1,0,0:0:0:0:
20,214,150531,6,0,L|127:228,1,89.9999972534181,0|0,3:0|0:0,0:0:0:0:
331,246,150816,1,8,3:0:0:0:
42,285,150959,1,8,3:0:0:0:
319,156,151102,1,8,3:0:0:0:
27,144,151245,1,8,3:0:0:0:
197,107,151388,1,0,0:0:0:0:
134,22,151531,1,0,0:0:0:0:
122,260,151674,6,0,L|113:164,1,89.9999972534181,4|0,3:0|0:0,0:0:0:0:
214,274,151959,1,0,0:0:0:0:
254,107,152102,1,0,0:0:0:0:
287,256,152245,1,8,3:0:0:0:
181,92,152388,1,0,0:0:0:0:
339,200,152531,1,0,0:0:0:0:
116,129,152674,1,0,0:0:0:0:
302,19,152816,5,0,3:0:0:0:
230,142,152959,1,0,0:0:0:0:
258,281,153102,1,0,0:0:0:0:
394,323,153245,1,0,0:0:0:0:
512,238,153388,2,0,L|410:226,1,89.9999972534181,8|0,3:0|0:0,0:0:0:0:
257,205,153674,1,0,0:0:0:0:
449,167,153816,1,0,0:0:0:0:
264,59,153959,6,0,P|306:47|348:60,1,89.9999972534181,2|0,0:0|0:0,0:0:0:0:
186,202,154245,2,0,P|229:216|271:204,1,89.9999972534181,2|0,0:0|0:0,0:0:0:0:
86,8,154531,2,0,P|127:-2|170:10,1,89.9999972534181,10|0,0:0|0:0,0:0:0:0:
0,257,154816,2,0,P|42:270|85:259,1,89.9999972534181,2|0,0:0|0:0,0:0:0:0:
193,112,155102,6,0,L|184:205,1,89.9999972534181,0|0,3:0|0:0,0:0:0:0:
163,370,155387,1,0,0:0:0:0:
288,197,155530,1,0,0:0:0:0:
55,270,155673,2,0,L|145:274,1,89.9999972534181,8|0,3:0|0:0,0:0:0:0:
264,280,155959,1,0,0:0:0:0:
362,158,156102,2,0,P|352:109|315:79,1,89.9999972534181,0|0,0:0|3:0,0:0:0:0:
216,18,156387,5,0,0:0:0:0:
79,137,156531,2,0,L|169:145,1,89.9999972534181
362,158,156816,1,8,3:0:0:0:
160,67,156959,1,0,0:0:0:0:
368,48,157102,1,0,0:0:0:0:
249,221,157245,1,0,0:0:0:0:
233,15,157387,5,0,3:0:0:0:
151,155,157530,1,0,0:0:0:0:
231,296,157673,1,0,0:0:0:0:
393,297,157816,1,0,0:0:0:0:
211,339,157959,1,8,3:0:0:0:
277,213,158102,1,0,0:0:0:0:
340,86,158245,1,0,0:0:0:0:
202,109,158388,6,0,P|278:214|406:196,1,269.999991760254
512,107,158959,1,0,0:0:0:0:
431,353,159102,2,0,L|423:260,1,89.9999972534181,8|0,3:0|0:0,0:0:0:0:
408,101,159387,1,0,0:0:0:0:
494,276,159530,1,0,0:0:0:0:
364,194,159673,6,0,L|252:184,1,89.9999972534181,0|0,3:0|0:0,0:0:0:0:
118,279,159959,2,0,L|230:269,1,89.9999972534181
334,254,160244,1,8,3:0:0:0:
147,200,160387,1,0,0:0:0:0:
345,112,160530,1,0,0:0:0:0:
180,36,160674,1,0,0:0:0:0:
0,219,160816,6,0,L|103:228,1,89.9999972534181,4|0,3:0|0:0,0:0:0:0:
208,333,161102,2,0,L|114:341,1,89.9999972534181
0,349,161387,1,8,3:0:0:0:
181,270,161530,1,0,0:0:0:0:
11,180,161673,1,0,0:0:0:0:
74,353,161816,1,0,0:0:0:0:
109,128,161959,5,0,3:0:0:0:
274,62,162102,1,0,0:0:0:0:
387,198,162245,1,0,0:0:0:0:
292,347,162388,1,0,0:0:0:0:
355,119,162531,1,8,3:0:0:0:
381,291,162674,1,0,0:0:0:0:
292,210,162816,1,0,0:0:0:0:
330,33,162959,1,0,0:0:0:0:
213,164,163102,6,0,P|201:206|214:249,1,89.9999972534181,2|0,0:0|0:0,0:0:0:0:
357,285,163388,2,0,P|368:242|355:199,1,89.9999972534181,2|0,0:0|0:0,0:0:0:0:
116,84,163674,2,0,P|104:126|117:169,1,89.9999972534181,10|0,0:0|0:0,0:0:0:0:
454,365,163960,2,0,P|465:322|452:280,1,89.9999972534181,2|0,0:0|0:0,0:0:0:0:
355,101,164245,6,0,L|363:196,1,89.9999972534181,0|0,3:0|0:0,0:0:0:0:
380,332,164530,1,0,0:0:0:0:
286,172,164673,1,0,0:0:0:0:
445,77,164816,2,0,L|437:168,1,89.9999972534181,8|0,3:0|0:0,0:0:0:0:
429,267,165102,1,0,0:0:0:0:
233,96,165245,2,0,L|324:102,1,89.9999972534181,0|0,0:0|3:3,0:0:0:0:
512,111,165530,5,0,0:0:0:0:
365,7,165674,2,0,L|372:95,1,89.9999972534181
388,258,165959,1,8,3:0:0:0:
432,88,166102,1,0,0:0:0:0:
255,15,166245,1,0,0:0:0:0:
299,185,166388,1,0,0:0:0:0:
131,133,166531,5,0,3:0:0:0:
335,71,166673,1,0,0:0:0:0:
349,312,166816,1,0,0:0:0:0:
145,250,166958,1,0,0:0:0:0:
0,90,167102,5,8,3:0:0:0:
7,231,167244,1,0,0:0:0:0:
122,314,167387,1,0,0:0:0:0:
94,21,167674,2,0,L|109:196,1,150,4|0,3:0|0:0,0:0:0:0:
177,23,168244,1,8,3:0:0:0:
266,174,168388,2,0,P|244:74|149:28,1,150
249,248,168816,1,0,3:0:0:0:
144,106,169102,2,0,L|153:201,1,75
165,359,169387,2,0,P|254:300|383:318,1,225,8|0,3:0|0:0,0:0:0:0:
493,368,169959,5,0,3:0:0:0:
419,112,170531,2,0,L|339:118,1,75,8|0,3:0|0:0,0:0:0:0:
344,339,171102,1,0,3:0:0:0:
299,86,171388,1,0,0:0:0:0:
267,356,171531,1,8,3:0:0:0:
236,38,171673,1,8,3:0:0:0:
126,148,171816,1,0,0:0:0:0:
396,85,171959,1,0,3:0:0:0:
191,151,172245,5,4,3:0:0:0:
433,165,172816,2,0,L|441:272,1,75,8|0,3:0|0:0,0:0:0:0:
156,208,173387,1,0,3:0:0:0:
415,273,173959,2,0,L|427:111,1,150,8|0,3:0|0:0,0:0:0:0:
357,48,174388,6,0,L|350:122,1,75
326,347,174816,1,0,3:0:0:0:
205,23,175102,2,0,L|211:97,1,75,8|0,3:0|0:0,0:0:0:0:
229,259,175387,1,0,3:0:0:0:
316,5,175673,1,0,3:0:0:0:
291,21,176244,5,8,3:0:0:0:
201,256,176387,1,0,3:0:0:0:
412,116,176530,1,0,0:0:0:0:
159,104,176673,1,0,0:0:0:0:
357,263,176816,5,0,3:3:0:0:
117,264,177388,2,0,L|110:189,1,75,8|0,3:0|0:0,0:0:0:0:
397,191,177959,1,0,3:0:0:0:
144,69,178530,2,0,L|132:231,1,150,8|0,3:0|0:0,0:0:0:0:
202,294,178959,6,0,L|209:220,1,75
229,13,179387,1,0,3:0:0:0:
475,75,179673,2,0,L|365:84,1,75,8|0,3:0|0:0,0:0:0:0:
212,91,179959,1,0,3:0:0:0:
212,91,180244,1,0,3:0:0:0:
212,91,180816,5,8,3:0:0:0:
346,353,180959,1,8,3:0:0:0:
325,26,181102,1,8,3:0:0:0:
204,344,181245,1,8,3:0:0:0:
