osu file format v14

[General]
AudioFilename: audio.mp3
AudioLeadIn: 0
PreviewTime: -1
Countdown: 1
SampleSet: Normal
StackLeniency: 0.7
Mode: 0
LetterboxInBreaks: 0
WidescreenStoryboard: 0

[Editor]
DistanceSpacing: 0.8
BeatDivisor: 4
GridSize: 32
TimelineZoom: 1

[Metadata]
Title:New Born
TitleUnicode:New Born
Artist:Muse
ArtistUnicode:Muse
Creator:[Exiled Wolf]
Version:Soulless
Source:Origin of Symmetry
Tags:Origin of Symmetry
BeatmapID:1017181
BeatmapSetID:476182

[Difficulty]
HPDrainRate:6
CircleSize:4
OverallDifficulty:8.7
ApproachRate:9.5
SliderMultiplier:1.4
SliderTickRate:2

[Events]
//Background and Video events
//Break Periods
2,28265,76078
2,85086,90658
//Storyboard Layer 0 (Background)
//Storyboard Layer 1 (Fail)
//Storyboard Layer 2 (Pass)
//Storyboard Layer 3 (Foreground)
//Storyboard Sound Samples

[TimingPoints]
1130,411.522633744856,4,1,0,100,1,0
14298,410.958904109589,4,1,0,100,1,0
22928,-200,4,1,0,100,0,0
23339,-66.6666666666667,4,1,0,100,0,0
23750,-133.333333333333,4,1,0,100,0,0
24161,-66.6666666666667,4,1,0,100,0,0
24571,-133.333333333333,4,1,0,100,0,0
24982,-66.6666666666667,4,1,0,100,0,0
25393,-133.333333333333,4,1,0,100,0,0
25804,-66.6666666666667,4,1,0,100,0,0
26215,-133.333333333333,4,1,0,100,0,0
26626,-66.6666666666667,4,1,0,100,0,0
84886,392.156862745098,4,1,0,100,1,0
84963,393.44262295082,4,1,0,100,1,0
97537,392.156862745098,4,1,0,100,1,0
98321,-66.6666666666667,4,1,0,100,0,0
101850,-133.333333333333,4,1,0,100,0,0
113615,-66.6666666666667,4,1,0,100,0,0
114987,-133.333333333333,4,1,0,100,0,0
310835,387.096774193548,4,1,0,100,1,0
323222,383.386581469649,4,1,0,100,1,0
341624,388.349514563107,4,1,0,100,1,0

[HitObjects]
0,96,1130,5,0,0:0:0:0:
160,64,1335,2,0,L|256:64,1,70
256,64,1747,1,0,0:0:0:0:
448,160,1953,1,0,0:0:0:0:
256,256,2158,1,0,0:0:0:0:
160,160,2364,2,0,L|64:160,1,70
416,160,2776,1,0,0:0:0:0:
128,160,2981,2,0,B|128:192|128:192|128:256,2,70
256,288,3599,1,0,0:0:0:0:
384,96,3804,2,0,B|384:128|384:128|384:192,2,70
224,128,4422,1,0,0:0:0:0:
224,288,4627,1,0,0:0:0:0:
0,192,4833,1,0,0:0:0:0:
128,192,5039,2,0,L|224:192,1,70
320,192,5450,1,0,0:0:0:0:
96,320,5656,2,0,B|32:288|32:288|32:256,1,70
96,64,6068,1,0,0:0:0:0:
128,64,6274,1,0,0:0:0:0:
160,64,6479,1,0,0:0:0:0:
192,64,6685,1,0,0:0:0:0:
256,192,6891,1,0,0:0:0:0:
288,192,7097,1,0,0:0:0:0:
320,192,7302,1,0,0:0:0:0:
352,192,7508,1,0,0:0:0:0:
192,256,7714,2,0,L|128:224,1,52.5000020027161
192,160,8125,2,0,L|256:192,1,52.5000020027161
352,192,8537,2,0,L|404:137,1,70
448,256,8948,2,0,L|382:313,1,70
86,146,9360,1,0,0:0:0:0:
136,262,9566,2,0,L|234:264,1,70
347,167,9977,1,0,0:0:0:0:
126,114,10183,1,0,0:0:0:0:
115,266,10389,2,0,L|207:293,2,70
0,233,11006,1,0,0:0:0:0:
183,121,11212,2,0,L|270:121,1,70
362,117,11623,1,0,0:0:0:0:
102,302,11829,1,0,0:0:0:0:
111,303,12035,2,0,L|212:303,1,70
294,302,12446,1,0,0:0:0:0:
409,276,12652,2,0,P|431:209|433:120,1,140
435,117,13269,1,0,0:0:0:0:
256,77,13475,1,0,0:0:0:0:
54,85,13681,2,0,P|66:63|123:59,1,70
389,80,14092,1,0,0:0:0:0:
202,229,14298,2,0,L|234:325,1,70
228,309,14606,1,0,0:0:0:0:
233,322,14708,1,0,0:0:0:0:
398,278,14914,1,0,0:0:0:0:
373,158,15119,1,0,0:0:0:0:
184,112,15325,1,0,0:0:0:0:
192,119,15428,1,0,0:0:0:0:
202,127,15530,1,0,0:0:0:0:
343,298,15736,2,0,L|441:303,2,70
196,287,16352,1,0,0:0:0:0:
69,193,16558,2,0,L|96:121,1,70
237,144,16969,2,0,L|209:224,1,70
332,240,17380,2,0,L|368:148,1,70
403,80,17791,1,0,0:0:0:0:
107,100,17996,2,0,L|82:171,1,70
213,306,18407,1,0,0:0:0:0:
395,230,18613,2,0,L|423:142,1,70
240,79,19024,1,0,0:0:0:0:
0,50,19229,1,0,0:0:0:0:
0,149,19434,1,0,0:0:0:0:
0,167,19537,1,0,0:0:0:0:
0,183,19640,1,0,0:0:0:0:
146,199,19845,1,0,0:0:0:0:
146,212,19948,1,0,0:0:0:0:
145,234,20051,1,0,0:0:0:0:
271,186,20256,1,0,0:0:0:0:
271,197,20359,1,0,0:0:0:0:
270,213,20462,1,0,0:0:0:0:
378,311,20667,1,0,0:0:0:0:
477,210,20873,1,0,0:0:0:0:
440,100,21078,2,0,L|349:77,1,70
233,75,21489,1,0,0:0:0:0:
60,142,21695,2,0,L|50:220,1,70
196,285,22106,1,0,0:0:0:0:
327,298,22311,1,0,0:0:0:0:
428,209,22517,2,0,L|449:127,1,70
301,87,22928,2,0,L|271:62,1,35
273,64,23339,2,0,P|206:44|129:64,1,105.000004005432
111,201,23750,2,0,L|161:228,1,52.5000020027161
157,225,24161,2,0,P|211:249|270:255,1,105.000004005432
474,262,24571,2,0,L|517:220,1,52.5000020027161
511,225,24982,2,0,P|534:169|521:82,1,105.000004005432
241,79,25393,2,0,L|208:132,1,52.5000020027161
213,123,25804,2,0,P|191:160|185:228,1,105.000004005432
423,338,26215,2,0,L|474:306,1,52.5000020027161
472,304,26626,2,0,P|500:255|514:158,1,105.000004005432
507,186,27037,1,0,0:0:0:0:
281,66,27243,1,0,0:0:0:0:
106,94,27448,2,0,P|40:192|47:304,1,210.000008010865
131,350,28065,1,0,0:0:0:0:
256,192,76678,12,0,84886,0:0:0:0:
420,86,91258,5,0,0:0:0:0:
420,86,91454,1,0,0:0:0:0:
112,262,91651,1,0,0:0:0:0:
119,267,91848,1,0,0:0:0:0:
366,323,92044,1,0,0:0:0:0:
366,323,92241,1,0,0:0:0:0:
212,103,92438,1,0,0:0:0:0:
228,106,92635,2,0,L|301:104,1,70
418,199,93028,1,0,0:0:0:0:
133,199,93225,1,0,0:0:0:0:
362,30,93422,1,0,0:0:0:0:
246,267,93618,1,0,0:0:0:0:
161,53,93815,1,0,0:0:0:0:
358,247,94012,1,0,0:0:0:0:
93,168,94208,1,0,0:0:0:0:
365,108,94405,1,0,0:0:0:0:
221,236,94602,1,0,0:0:0:0:
207,28,94799,1,0,0:0:0:0:
321,97,94995,1,0,0:0:0:0:
85,220,95192,1,0,0:0:0:0:
378,60,95389,1,0,0:0:0:0:
269,297,95585,1,0,0:0:0:0:
170,55,95782,1,0,0:0:0:0:
86,214,95979,1,0,0:0:0:0:
261,191,96176,1,0,0:0:0:0:
102,108,96372,1,0,0:0:0:0:
176,232,96569,1,0,0:0:0:0:
281,39,96766,1,0,0:0:0:0:
361,267,96963,1,0,0:0:0:0:
366,269,97159,1,0,0:0:0:0:
379,58,97356,1,0,0:0:0:0:
98,101,97537,1,0,0:0:0:0:
366,184,97733,2,0,P|403:189|447:183,1,70
511,171,98125,1,0,0:0:0:0:
326,89,98321,2,0,P|278:74|214:82,1,105.000004005432
210,256,98713,2,0,P|259:271|311:266,1,105.000004005432
422,162,99105,1,0,0:0:0:0:
424,172,99301,1,0,0:0:0:0:
120,122,99497,1,0,0:0:0:0:
232,335,99693,1,0,0:0:0:0:
440,348,99889,2,0,P|487:309|522:253,1,105.000004005432
503,142,100282,2,0,P|462:100|390:69,1,105.000004005432
88,103,100674,1,0,0:0:0:0:
150,315,100870,1,0,0:0:0:0:
159,326,100968,1,0,0:0:0:0:
179,340,101066,2,0,P|231:353|320:344,1,105.000004005432
438,283,101458,2,0,L|497:166,1,105.000004005432
355,82,101850,2,0,L|325:140,1,52.5000020027161
54,201,102242,2,0,L|82:152,1,52.5000020027161
186,289,102635,1,0,0:0:0:0:
297,114,102831,1,0,0:0:0:0:
399,284,103027,1,0,0:0:0:0:
222,195,103223,1,0,0:0:0:0:
208,184,103321,1,0,0:0:0:0:
190,174,103419,1,0,0:0:0:0:
57,100,103615,1,0,0:0:0:0:
54,107,103811,2,0,P|43:170|45:236,1,105.000004005432
43,222,104399,1,0,0:0:0:0:
221,340,104595,1,0,0:0:0:0:
221,340,104791,1,0,0:0:0:0:
231,340,104987,2,0,L|308:339,1,52.5000020027161
248,38,110086,5,0,0:0:0:0:
164,267,110282,1,0,0:0:0:0:
396,120,110478,5,0,0:0:0:0:
112,119,110674,5,0,0:0:0:0:
357,259,110870,5,0,0:0:0:0:
250,151,111066,5,0,0:0:0:0:
114,37,111262,5,0,0:0:0:0:
81,208,111458,5,0,0:0:0:0:
182,90,111654,1,0,0:0:0:0:
187,249,111850,5,0,0:0:0:0:
320,164,112046,5,0,0:0:0:0:
219,170,112242,5,0,0:0:0:0:
30,332,112438,5,0,0:0:0:0:
30,332,112635,5,0,0:0:0:0:
344,226,112831,1,0,0:0:0:0:
348,232,113027,1,0,0:0:0:0:
161,75,113223,6,0,L|95:98,1,52.5000020027161
105,94,113615,2,0,P|68:144|64:196,1,105.000004005432
216,295,114007,1,0,0:0:0:0:
349,245,114203,2,0,L|453:185,1,105.000004005432
379,95,114595,2,0,L|274:158,1,105.000004005432
288,149,114987,2,0,L|228:161,1,52.5000020027161
116,50,115380,1,0,0:0:0:0:
48,198,115576,1,0,0:0:0:0:
173,286,115772,1,0,0:0:0:0:
251,265,115968,1,0,0:0:0:0:
